osu file format v14

[General]
AudioFilename: blonom.mp3
AudioLeadIn: 1500
PreviewTime: 51991
Countdown: 0
SampleSet: Soft
StackLeniency: 0.7
Mode: 0
LetterboxInBreaks: 0
WidescreenStoryboard: 1

[Editor]
Bookmarks: 54084
DistanceSpacing: 0.5
BeatDivisor: 4
GridSize: 4
TimelineZoom: 1

[Metadata]
Title:Yuukei Yesterday (TV Size)
TitleUnicode:夕景イエスタデイ (TV Size)
Artist:JIN feat. LiSA
ArtistUnicode:じん feat. LiSA
Creator:Nevo
Version:Kagerou
Source:カゲロウプロジェクト
Tags:vocaloid ia Mekakucity Actors cover 自然の敵P Shizen no Teki P Teki-P TekiP じん Blindfold mekakucity actors daze kagerou project メカクシティアクターズ utaite short version cut ending 3 three syndicate_ -_nilou_- wanpachi cycopton gorou japanese rock pop jrock jpop j-rock j-pop
BeatmapID:2172201
BeatmapSetID:1039181

[Difficulty]
HPDrainRate:6
CircleSize:4
OverallDifficulty:8
ApproachRate:9
SliderMultiplier:2
SliderTickRate:1

[Events]
//Background and Video events
Video,-70,"video.avi"
0,0,"13 yuukei yesterday.jpg",0,0
//Break Periods
//Storyboard Layer 0 (Background)
//Storyboard Layer 1 (Fail)
//Storyboard Layer 2 (Pass)
//Storyboard Layer 3 (Foreground)
//Storyboard Layer 4 (Overlay)
//Storyboard Sound Samples

[TimingPoints]
596,465.116279069767,4,2,1,70,1,0
596,-100,4,2,1,70,0,0
7340,-100,4,2,1,60,0,0
25944,-100,4,2,0,60,0,0
26409,-100,4,2,1,60,0,0
37805,-133.333333333333,4,2,1,60,0,0
48968,-100,4,2,1,70,0,0
51642,-100,4,2,1,80,0,0
52223,-133.333333333333,4,2,1,80,0,0
52689,-83.3333333333333,4,2,1,90,0,1
67456,-83.3333333333333,4,2,1,90,0,0
67572,-83.3333333333333,4,2,1,90,0,1
84316,-83.3333333333333,4,2,1,90,0,0
86177,-100,4,2,1,90,0,1
86293,-100,4,2,1,80,0,0
96409,-250,4,2,1,80,0,0
96875,-83.3333333333333,4,2,1,5,0,0

[Colours]
Combo1 : 255,192,0
Combo2 : 92,184,10
Combo3 : 143,71,71
Combo4 : 242,24,57

[HitObjects]
116,49,596,6,0,L|125:108,1,50,6|0,0:2|0:2,0:0:0:0:
103,33,828,2,0,L|112:92,1,50,8|0,0:2|0:2,0:0:0:0:
215,182,1061,1,2,0:2:0:0:
231,100,1177,1,2,3:2:0:0:
57,154,1409,6,0,L|73:272,1,100,10|0,0:2|0:2,0:0:0:0:
170,304,1758,1,2,0:2:0:0:
183,271,1875,1,8,0:2:0:0:
303,222,1991,1,10,0:2:0:0:
310,249,2107,1,6,0:2:0:0:
267,356,2340,5,2,0:2:0:0:
214,174,2572,1,10,0:2:0:0:
223,145,2689,1,2,0:2:0:0:
233,120,2805,1,2,0:2:0:0:
241,98,2921,2,0,L|264:158,1,50,10|2,0:2|0:2,0:0:0:0:
345,172,3154,1,10,0:2:0:0:
378,64,3270,6,0,L|320:86,1,50,2|0,3:2|0:2,0:0:0:0:
145,95,3502,2,0,L|87:73,1,50,2|0,3:2|0:2,0:0:0:0:
237,13,3735,2,0,L|239:70,1,50,2|0,3:2|0:2,0:0:0:0:
242,173,3968,1,2,3:2:0:0:
242,211,4084,1,10,0:2:0:0:
242,246,4200,1,2,0:2:0:0:
243,284,4316,5,6,3:2:0:0:
132,215,4549,1,2,0:2:0:0:
69,317,4782,1,10,0:2:0:0:
49,291,4898,1,2,0:2:0:0:
170,351,5130,1,10,0:2:0:0:
327,260,5363,5,10,0:2:0:0:
352,243,5479,1,2,3:2:0:0:
380,238,5595,1,2,0:2:0:0:
410,240,5712,1,10,0:2:0:0:
435,249,5828,1,10,0:2:0:0:
454,267,5944,1,2,3:2:0:0:
397,374,6177,5,10,0:2:0:0:
389,340,6293,1,10,0:2:0:0:
323,157,6526,1,10,0:2:0:0:
153,258,6758,1,10,0:2:0:0:
295,281,6991,1,10,0:2:0:0:
304,243,7107,1,10,0:2:0:0:
419,145,7340,1,2,0:2:0:0:
429,182,7456,1,0,3:2:0:0:
441,218,7572,2,0,L|456:277,2,50,2|0|2,3:2|0:2|3:2,0:0:0:0:
294,103,8037,6,0,P|234:90|180:106,1,100,6|0,3:2|0:2,0:0:0:0:
119,127,8386,1,2,0:2:0:0:
119,127,8502,2,0,P|69:134|22:121,1,100,10|2,0:2|0:2,0:0:0:0:
239,184,8968,2,0,L|227:302,1,100,2|0,3:2|0:2,0:0:0:0:
153,336,9316,1,2,0:2:0:0:
153,336,9433,2,0,L|141:218,1,100,10|2,0:2|0:2,0:0:0:0:
276,360,9898,6,0,P|330:366|382:348,1,100,2|0,3:2|0:2,0:0:0:0:
415,280,10247,1,2,0:2:0:0:
415,280,10363,2,0,P|469:274|521:292,1,100,10|2,0:2|0:2,0:0:0:0:
315,276,10828,2,0,L|306:166,1,100,2|2,3:2|0:2,0:0:0:0:
242,118,11177,1,2,0:2:0:0:
242,118,11293,2,0,L|251:8,1,100,10|2,0:2|0:2,0:0:0:0:
429,71,11758,6,0,P|370:86|307:64,1,100,2|0,3:2|0:2,0:0:0:0:
390,176,12223,2,0,P|449:161|512:183,1,100,10|2,0:2|0:2,0:0:0:0:
315,276,12689,2,0,B|262:261|262:261|206:278,1,100,2|0,3:2|0:2,0:0:0:0:
113,182,13154,2,0,B|166:197|166:197|222:180,1,100,10|2,0:2|0:2,0:0:0:0:
37,127,13619,6,0,P|21:191|37:242,1,100,2|2,3:2|0:2,0:0:0:0:
37,335,14084,2,0,P|53:271|37:220,1,100,10|0,0:2|0:2,0:0:0:0:
56,345,14549,2,0,P|72:281|56:230,1,100,2|0,0:2|0:2,0:0:0:0:
72,354,15014,2,0,P|88:290|72:239,1,100,10|0,0:2|0:2,0:0:0:0:
182,319,15479,6,0,L|343:305,1,150,2|2,3:2|0:2,0:0:0:0:
391,251,15944,1,10,0:2:0:0:
311,221,16177,1,2,0:2:0:0:
172,334,16409,2,0,L|290:323,1,100,2|0,3:2|0:2,0:0:0:0:
501,365,16875,2,0,L|383:354,1,100,10|2,0:2|0:2,0:0:0:0:
444,165,17340,6,0,P|462:222|460:267,1,100,2|2,3:2|0:2,0:0:0:0:
315,138,17805,1,10,0:2:0:0:
383,93,18037,1,2,0:2:0:0:
234,76,18270,2,0,P|216:133|218:178,1,100,2|0,3:2|0:2,0:0:0:0:
292,278,18735,1,8,0:2:0:0:
174,272,18968,1,2,0:2:0:0:
174,272,19084,1,2,0:2:0:0:
174,272,19200,6,0,L|282:256,1,100,2|0,3:2|0:2,0:0:0:0:
118,158,19665,2,0,L|226:174,1,100,10|2,0:2|0:2,0:0:0:0:
42,214,20130,2,0,P|26:153|75:67,1,150,2|2,3:2|0:2,0:0:0:0:
139,55,20595,2,0,L|31:39,1,100,10|2,0:2|0:2,0:0:0:0:
216,172,21061,6,0,P|268:134|369:126,1,150,2|0,3:2|0:2,0:0:0:0:
424,170,21526,2,0,L|415:224,1,50,10|0,0:2|0:2,0:0:0:0:
355,280,21758,2,0,L|363:341,1,50,2|0,0:2|0:2,0:0:0:0:
435,371,21991,1,2,3:2:0:0:
275,314,22223,1,2,0:0:0:0:
275,314,22340,2,0,P|214:308|158:320,1,100,6|0,3:2|0:2,0:0:0:0:
81,361,22689,1,2,3:2:0:0:
81,361,22805,1,0,3:2:0:0:
81,361,22921,6,0,L|92:251,1,100,6|0,3:2|0:2,0:0:0:0:
177,233,23270,1,2,0:2:0:0:
177,233,23386,2,0,L|167:123,1,100,10|2,0:2|0:2,0:0:0:0:
42,83,23851,2,0,P|94:101|194:66,1,150,2|2,3:2|0:2,0:0:0:0:
253,34,24316,2,0,P|305:16|349:19,1,100,10|2,0:2|0:2,0:0:0:0:
419,73,24782,6,0,L|409:195,1,100,2|0,3:2|0:2,0:0:0:0:
332,233,25130,1,2,0:2:0:0:
332,233,25247,1,10,0:2:0:0:
423,307,25479,1,2,0:2:0:0:
251,344,25712,1,2,3:2:0:0:
147,241,25944,2,0,L|158:289,1,50,2|0,0:2|0:2,0:0:0:0:
63,191,26177,2,0,L|44:237,1,50,10|0,0:2|0:2,0:0:0:0:
3,119,26409,1,2,0:2:0:0:
129,61,26642,6,0,P|194:46|239:55,1,100,2|0,3:2|0:2,0:0:0:0:
300,114,26991,1,2,0:2:0:0:
300,114,27107,2,0,P|354:109|401:87,1,100,10|2,0:2|0:2,0:0:0:0:
484,18,27572,2,0,L|476:139,1,100,2|0,3:2|0:2,0:0:0:0:
413,285,28037,2,0,L|405:164,1,100,10|2,0:2|0:2,0:0:0:0:
321,247,28386,1,0,0:2:0:0:
321,247,28502,6,0,P|262:269|187:240,1,100,2|0,3:2|0:2,0:0:0:0:
61,217,28968,2,0,P|120:195|195:224,1,100,10|0,0:2|0:2,0:0:0:0:
128,384,29433,2,0,L|119:273,1,100,2|0,3:2|0:2,0:0:0:0:
270,82,29898,2,0,L|261:193,1,100,10|0,0:2|0:2,0:0:0:0:
483,130,30363,6,0,P|410:103|328:138,1,150,2|2,3:2|0:2,0:0:0:0:
261,181,30828,2,0,P|202:190|144:170,1,100,10|2,0:2|0:2,0:0:0:0:
62,82,31293,2,0,L|74:244,1,150,2|0,3:2|0:2,0:0:0:0:
74,335,31758,2,0,L|93:234,1,100,10|2,0:2|0:2,0:0:0:0:
263,355,32223,6,0,P|198:362|159:344,1,100,2|0,3:2|0:2,0:0:0:0:
222,276,32572,1,2,0:2:0:0:
222,276,32689,1,8,0:2:0:0:
95,143,32921,2,0,B|63:200|63:200|76:373,1,200,2|2,0:2|0:2,0:0:0:0:
196,164,33619,2,0,P|200:121|174:55,1,100,10|2,0:2|0:2,0:0:0:0:
4,20,34084,6,0,L|117:27,1,100,2|0,3:2|0:2,0:0:0:0:
182,67,34433,1,2,0:2:0:0:
182,67,34549,2,0,L|295:60,1,100,10|2,0:2|0:2,0:0:0:0:
421,116,35014,1,2,3:2:0:0:
325,166,35247,1,2,0:2:0:0:
430,359,35479,2,0,P|430:297|405:198,1,150,10|0,0:2|0:2,0:0:0:0:
325,166,35944,5,10,0:2:0:0:
280,266,36061,1,10,0:2:0:0:
112,90,36293,1,10,0:2:0:0:
137,310,36526,1,10,0:2:0:0:
38,221,36758,5,10,0:2:0:0:
142,199,36875,2,0,L|255:177,1,100,10|2,0:2|0:2,0:0:0:0:
307,133,37340,2,0,L|368:143,1,50,10|0,0:2|3:3,0:0:0:0:
424,200,37572,1,0,3:3:0:0:
442,9,37805,6,0,B|423:56|423:56|442:121,2,112.500004291535,6|10|2,3:2|0:2|3:2,0:0:0:0:
467,280,38968,1,2,3:2:0:0:
391,240,39200,2,0,P|346:232|293:240,1,75.0000028610231,10|2,0:2|0:2,0:0:0:0:
223,335,39665,6,0,L|334:322,2,112.500004291535,6|10|2,3:2|0:2|3:2,0:0:0:0:
91,147,40828,1,2,3:2:0:0:
174,184,41061,2,0,P|187:233|184:262,1,75.0000028610231,10|0,0:2|3:2,0:0:0:0:
92,355,41526,6,0,P|87:298|76:231,2,112.500004291535,6|10|2,3:2|0:2|3:2,0:0:0:0:
276,378,42689,1,2,3:2:0:0:
312,301,42921,2,0,P|361:294|400:296,1,75.0000028610231,10|0,0:2|0:2,0:0:0:0:
483,384,43386,6,0,L|470:302,1,75.0000028610231,2|0,3:2|0:2,0:0:0:0:
386,294,43735,2,0,L|399:212,1,75.0000028610231,10|0,0:2|0:2,0:0:0:0:
483,204,44084,2,0,L|470:122,1,75.0000028610231,14|0,0:2|0:2,0:0:0:0:
420,72,44549,1,2,3:2:0:0:
287,132,44782,2,0,P|236:141|204:136,1,75.0000028610231,10|2,0:2|0:2,0:0:0:0:
125,66,45247,6,0,B|95:70|95:70|48:105|48:105|11:115,2,112.500004291535,2|10|2,3:2|0:2|3:2,0:0:0:0:
213,38,46177,1,2,3:2:0:0:
213,138,46409,2,0,L|203:194,1,37.5000014305115,10|0,0:2|0:2,0:0:0:0:
130,225,46642,2,0,L|140:281,1,37.5000014305115,10|0,0:2|0:2,0:0:0:0:
375,356,47107,6,0,B|405:352|405:352|452:317|452:317|489:307,2,112.500004291535,2|10|10,3:2|0:2|0:2,0:0:0:0:
287,384,48037,1,2,3:2:0:0:
287,284,48269,2,0,L|297:228,1,37.5000014305115,10|0,0:2|0:2,0:0:0:0:
370,197,48502,2,0,L|360:141,1,37.5000014305115,10|0,0:2|0:2,0:0:0:0:
96,76,48968,6,0,P|81:136|127:218,1,150,6|0,3:2|0:2,0:0:0:0:
130,225,49433,2,0,P|72:213|27:215,1,100,10|2,0:2|0:2,0:0:0:0:
0,336,49782,1,2,0:2:0:0:
0,336,49898,2,0,P|52:309|96:299,1,100,2|2,3:2|0:2,0:0:0:0:
210,384,50363,2,0,L|199:272,1,100,10|2,0:2|0:2,0:0:0:0:
263,132,50828,5,10,0:2:0:0:
13,192,51293,1,10,0:2:0:0:
97,84,51642,1,14,0:2:0:0:
178,228,51875,1,10,0:2:0:0:
188,153,51991,1,10,0:2:0:0:
330,51,52223,2,0,P|347:104|352:160,1,112.500004291535,2|0,0:2|0:2,0:0:0:0:
368,244,52689,6,0,P|383:185|395:161,1,59.9999981689454,6|0,3:2|0:0,0:0:0:0:
281,299,52921,2,0,P|266:240|254:216,1,59.9999981689454,2|0,0:2|0:0,0:0:0:0:
367,356,53154,1,10,0:2:0:0:
375,329,53270,1,2,0:2:0:0:
224,368,53502,2,0,P|154:358|50:354,1,119.999996337891,2|0,0:2|0:0,0:0:0:0:
32,288,53851,2,0,L|96:275,1,59.9999981689454,2|0,0:2|0:0,0:0:0:0:
188,153,54084,2,0,L|252:166,1,59.9999981689454,10|0,0:2|0:0,0:0:0:0:
344,288,54316,2,0,L|408:275,1,59.9999981689454,2|0,0:2|0:0,0:0:0:0:
361,117,54549,5,2,3:2:0:0:
205,262,54782,1,2,0:2:0:0:
85,101,55014,1,10,0:2:0:0:
79,71,55130,1,2,0:2:0:0:
211,152,55363,1,2,0:2:0:0:
73,287,55595,1,2,0:2:0:0:
73,287,55712,1,0,0:0:0:0:
73,287,55828,6,0,P|85:223|76:159,1,119.999996337891,2|0,0:2|0:0,0:0:0:0:
60,81,56177,2,0,L|129:99,1,59.9999981689454,2|2,0:2|0:2,0:0:0:0:
303,206,56409,6,0,P|256:215|225:212,1,59.9999981689454,6|0,3:2|0:0,0:0:0:0:
387,333,56642,2,0,P|340:324|309:327,1,59.9999981689454,2|0,0:2|0:0,0:0:0:0:
459,195,56875,1,10,0:2:0:0:
429,206,56991,1,2,0:2:0:0:
287,24,57223,6,0,P|324:79|347:134,1,119.999996337891,2|0,0:2|0:0,0:0:0:0:
303,206,57572,1,2,0:2:0:0:
416,30,57805,1,10,0:2:0:0:
222,130,58037,1,2,0:2:0:0:
459,323,58270,6,0,P|392:307|319:333,1,119.999996337891,2|2,3:2|0:2,0:0:0:0:
284,384,58619,2,0,P|254:332|205:299,1,119.999996337891,2|0,0:0|0:0,0:0:0:0:
113,325,58968,2,0,P|128:267|117:209,1,119.999996337891,2|0,0:2|3:0,0:0:0:0:
25,166,59316,2,0,P|76:136|109:87,1,119.999996337891,2|2,0:2|0:2,0:0:0:0:
78,6,59665,1,8,0:0:0:0:
386,117,59898,1,2,0:2:0:0:
218,244,60130,6,0,L|212:142,1,59.9999981689454,6|0,3:2|0:0,0:0:0:0:
355,289,60363,2,0,L|361:187,1,59.9999981689454,2|0,0:2|0:0,0:0:0:0:
104,342,60595,1,10,0:2:0:0:
95,312,60712,1,2,0:2:0:0:
16,176,60944,2,0,P|64:217|161:195,1,119.999996337891,2|0,0:2|0:0,0:0:0:0:
218,140,61293,2,0,L|139:147,1,59.9999981689454,2|0,0:2|0:0,0:0:0:0:
258,58,61526,2,0,L|179:51,1,59.9999981689454,10|0,0:2|0:0,0:0:0:0:
272,216,61758,1,2,0:2:0:0:
354,119,61991,6,0,P|431:98|475:109,1,119.999996337891,2|2,3:2|0:2,0:0:0:0:
413,309,62456,1,10,0:2:0:0:
386,321,62572,1,2,0:2:0:0:
300,370,62689,1,0,0:0:0:0:
274,360,62805,2,0,L|166:347,1,59.9999981689454,2|0,0:2|3:0,0:0:0:0:
132,288,63037,2,0,L|24:301,1,59.9999981689454,2|0,0:2|0:0,0:0:0:0:
179,113,63386,2,0,P|209:171|207:235,1,119.999996337891,8|2,0:0|0:2,0:0:0:0:
209,224,63735,1,2,0:2:0:0:
209,224,63851,6,0,P|279:204|341:214,1,119.999996337891,6|2,3:2|0:2,0:0:0:0:
422,370,64316,2,0,L|412:216,1,119.999996337891,10|0,0:2|0:0,0:0:0:0:
332,89,64782,2,0,L|322:243,1,119.999996337891,0|2,3:0|0:2,0:0:0:0:
502,216,65247,2,0,P|445:158|369:164,1,119.999996337891,10|2,0:2|0:2,0:0:0:0:
228,283,65712,5,2,3:2:0:0:
308,298,65828,1,2,0:0:0:0:
67,147,66061,5,2,0:0:0:0:
52,228,66177,1,10,0:0:0:0:
133,202,66293,1,2,0:0:0:0:
286,78,66526,5,2,0:0:0:0:
283,161,66642,1,2,3:0:0:0:
36,59,66875,5,2,0:0:0:0:
127,39,66991,1,2,0:0:0:0:
199,104,67107,1,10,0:0:0:0:
286,78,67223,1,10,0:0:0:0:
351,10,67340,2,0,P|377:15|412:31,1,59.9999981689454,2|2,3:0|3:0,0:0:0:0:
388,177,67572,6,0,L|381:115,1,59.9999981689454,6|0,3:2|0:0,0:0:0:0:
484,235,67805,2,0,L|491:173,1,59.9999981689454,2|0,0:2|0:0,0:0:0:0:
349,318,68037,1,10,0:2:0:0:
322,246,68154,1,2,0:2:0:0:
52,340,68386,6,0,P|142:344|190:287,1,119.999996337891,2|0,0:2|0:0,0:0:0:0:
184,238,68735,1,2,0:2:0:0:
7,263,68968,1,10,0:2:0:0:
193,249,69200,1,2,0:2:0:0:
91,154,69433,6,0,L|73:35,1,119.999996337891,2|2,3:2|0:2,0:0:0:0:
210,130,69782,1,0,0:0:0:0:
210,130,69898,2,0,L|192:249,1,119.999996337891,10|0,0:2|0:0,0:0:0:0:
282,350,70247,2,0,L|268:288,1,59.9999981689454,2|0,0:2|3:0,0:0:0:0:
360,312,70479,2,0,L|346:250,1,59.9999981689454,2|0,0:2|0:0,0:0:0:0:
436,268,70712,6,0,L|406:131,1,119.999996337891,2|0,0:2|0:0,0:0:0:0:
350,84,71061,1,2,0:2:0:0:
272,124,71177,1,2,0:2:0:0:
190,80,71293,6,0,P|128:59|64:80,1,119.999996337891,6|2,3:2|0:2,0:0:0:0:
64,252,71758,2,0,P|113:208|126:142,1,119.999996337891,10|0,0:2|0:0,0:0:0:0:
15,151,72107,6,0,L|32:323,1,119.999996337891,2|0,0:2|0:0,0:0:0:0:
86,351,72456,1,2,0:2:0:0:
165,301,72572,1,0,0:0:0:0:
247,357,72689,2,0,P|311:372|368:348,1,119.999996337891,10|2,0:2|0:2,0:0:0:0:
440,298,73037,1,0,0:0:0:0:
378,222,73154,6,0,B|322:218|322:218|298:233|298:233|230:229,1,119.999996337891,2|2,3:2|0:2,0:0:0:0:
273,143,73502,2,0,B|217:139|217:139|193:154|193:154|125:150,1,119.999996337891,2|0,0:0|0:0,0:0:0:0:
170,65,73851,2,0,B|114:61|114:61|90:76|90:76|22:72,1,119.999996337891,2|0,0:2|3:0,0:0:0:0:
0,150,74199,1,2,0:2:0:0:
53,222,74316,1,2,0:0:0:0:
136,223,74432,1,2,0:2:0:0:
173,138,74548,1,8,0:0:0:0:
90,149,74665,1,2,0:0:0:0:
53,222,74782,1,2,0:2:0:0:
182,362,75014,6,0,L|193:252,1,59.9999981689454,6|0,3:2|0:0,0:0:0:0:
317,311,75247,2,0,L|306:201,1,59.9999981689454,2|0,0:2|0:0,0:0:0:0:
456,354,75479,1,10,0:2:0:0:
469,277,75595,1,2,0:2:0:0:
365,155,75828,6,0,L|207:171,1,119.999996337891,2|0,0:2|0:0,0:0:0:0:
162,206,76177,1,2,0:2:0:0:
90,154,76293,1,0,0:0:0:0:
18,203,76409,2,0,P|19:263|39:318,1,119.999996337891,10|2,0:2|0:2,0:0:0:0:
245,167,76875,6,0,P|244:107|224:52,1,119.999996337891,2|2,3:2|0:2,0:0:0:0:
85,21,77340,1,10,0:2:0:0:
85,21,77456,2,0,L|165:34,1,59.9999981689454,2|0,0:2|0:0,0:0:0:0:
277,87,77689,2,0,L|357:74,1,59.9999981689454,2|0,0:2|3:0,0:0:0:0:
512,150,77921,2,0,L|388:133,1,119.999996337891,2|0,0:2|0:0,0:0:0:0:
324,182,78270,1,8,0:0:0:0:
431,240,78502,1,2,0:2:0:0:
431,240,78619,1,2,0:2:0:0:
431,240,78735,6,0,B|435:307|410:365|410:365|395:341|370:319,1,179.999994506836,6|0,3:2|0:0,0:0:0:0:
310,272,79200,1,10,0:2:0:0:
219,348,79433,1,0,0:0:0:0:
219,348,79549,1,2,0:2:0:0:
219,348,79665,2,0,P|122:350|47:298,1,179.999994506836,0|0,3:0|0:0,0:0:0:0:
5,238,80130,2,0,L|16:114,1,119.999996337891,10|2,0:2|0:2,0:0:0:0:
112,32,80595,5,2,3:0:0:0:
127,111,80712,1,2,0:0:0:0:
314,80,80945,5,2,0:0:0:0:
270,14,81061,1,10,0:0:0:0:
216,73,81177,1,2,0:0:0:0:
392,130,81409,5,10,0:0:0:0:
407,51,81526,1,2,0:0:0:0:
257,151,81758,5,10,0:0:0:0:
243,236,81875,2,0,L|228:358,1,119.999996337891,10|2,0:0|3:2,0:0:0:0:
338,335,82223,1,2,3:2:0:0:
338,335,82340,1,2,3:2:0:0:
338,335,82456,2,0,L|348:203,1,119.999996337891,2|0,3:2|0:0,0:0:0:0:
307,69,82921,1,10,0:2:0:0:
160,183,83154,1,2,0:2:0:0:
13,72,83386,2,0,P|80:67|133:98,1,119.999996337891,2|2,3:2|0:2,0:0:0:0:
223,241,83851,1,10,0:2:0:0:
214,280,83968,1,10,0:2:0:0:
204,318,84084,1,2,3:2:0:0:
107,199,84316,5,6,3:2:0:0:
179,147,84433,1,10,0:2:0:0:
322,296,84665,1,10,0:2:0:0:
340,104,84898,1,10,0:2:0:0:
204,318,85130,5,10,0:2:0:0:
126,291,85247,1,10,0:2:0:0:
284,215,85479,6,0,L|347:205,1,59.9999981689454,2|0,3:2|3:2,0:0:0:0:
471,154,85712,2,0,L|411:149,1,59.9999981689454,2|0,3:2|3:2,0:0:0:0:
283,94,85944,2,0,L|346:84,1,59.9999981689454,2|0,3:2|3:2,0:0:0:0:
493,25,86177,6,0,L|371:9,1,100,6|0,3:2|0:2,0:0:0:0:
179,108,86642,2,0,L|57:124,1,100,8|0,0:2|0:2,0:0:0:0:
224,19,87107,1,2,0:2:0:0:
256,139,87340,2,0,L|250:209,1,50,2|0,0:2|0:2,0:0:0:0:
324,191,87572,2,0,L|318:261,1,50,10|0,0:2|0:2,0:0:0:0:
393,239,87805,2,0,L|387:309,1,50,2|0,0:2|0:2,0:0:0:0:
457,384,88037,6,0,L|469:182,1,200,2|8,3:2|0:2,0:0:0:0:
363,135,88735,2,0,P|462:129|487:85,1,150,2|0,0:2|0:2,0:0:0:0:
406,62,89200,2,0,L|342:55,1,50,2|0,0:2|0:2,0:0:0:0:
286,29,89433,2,0,L|222:36,1,50,10|0,0:2|0:2,0:0:0:0:
183,92,89665,2,0,L|119:85,1,50,2|0,0:2|0:2,0:0:0:0:
48,16,89898,6,0,B|15:69|34:124|34:124|73:161|67:234,1,200,2|8,3:2|0:2,0:0:0:0:
67,202,90828,1,2,3:2:0:0:
161,267,91061,2,0,L|223:263,1,50,2|0,0:2|0:2,0:0:0:0:
259,210,91293,2,0,L|321:214,1,50,10|0,0:2|0:2,0:0:0:0:
355,272,91526,2,0,L|417:268,1,50,2|0,0:2|0:2,0:0:0:0:
482,381,91758,6,0,P|457:330|323:339,1,200,6|8,3:2|0:2,0:0:0:0:
183,357,92456,2,0,P|123:356|89:335,1,100,2|2,0:2|3:2,0:0:0:0:
39,265,92921,2,0,L|64:208,1,50,2|0,0:2|0:2,0:0:0:0:
16,160,93154,2,0,L|41:103,1,50,10|0,0:2|0:2,0:0:0:0:
0,50,93386,2,0,L|25:-7,1,50,2|0,0:2|0:2,0:0:0:0:
147,124,93619,6,0,P|213:137|336:71,1,200,2|8,3:2|0:2,0:0:0:0:
106,34,94316,1,0,3:2:0:0:
58,120,94549,1,0,3:2:0:0:
51,157,94665,1,0,3:2:0:0:
47,188,94782,1,10,0:2:0:0:
38,225,94898,1,8,0:2:0:0:
29,258,95014,6,0,L|37:307,1,50,10|0,0:2|3:2,0:0:0:0:
175,334,95247,2,0,L|166:383,1,50,2|0,3:2|3:2,0:0:0:0:
130,247,95479,5,10,0:2:0:0:
262,279,95595,1,10,0:2:0:0:
215,112,95828,1,10,0:2:0:0:
175,334,96061,1,10,0:2:0:0:
390,232,96293,5,10,0:2:0:0:
380,155,96409,2,0,L|371:68,1,80,14|0,0:2|0:2,0:0:0:0:
