osu file format v14

[General]
AudioFilename: audio.mp3
AudioLeadIn: 0
PreviewTime: 76335
Countdown: 0
SampleSet: Soft
StackLeniency: 0.4
Mode: 0
LetterboxInBreaks: 0
WidescreenStoryboard: 1

[Editor]
Bookmarks: 5197,20197,39206,48711,58216,69652,77226,83241,83315,83390,91484,97424,101880,106929,116434,124602,135444,141979,154454,163810,166335,180593,187721,190098,198711,209107,218761
DistanceSpacing: 0.8
BeatDivisor: 4
GridSize: 16
TimelineZoom: 2.3

[Metadata]
Title:Headphone Actor
TitleUnicode:ヘッドフォンアクター
Artist:JIN feat. LiSA
ArtistUnicode:じん feat. LiSA
Creator:Amiya
Version:Tragic Love Extra
Source:カゲロウプロジェクト
Tags:Kibbleru -Akito cococolaco Sidetail Sparhten kkipalt mekakucity actors Japanese pop メカクシティアクターズ
BeatmapID:1955955
BeatmapSetID:936267

[Difficulty]
HPDrainRate:5
CircleSize:4
OverallDifficulty:9
ApproachRate:9.4
SliderMultiplier:1.9
SliderTickRate:1

[Events]
//Background and Video events
0,0,"takane.jpg",0,0
//Break Periods
2,155842,163270
//Storyboard Layer 0 (Background)
//Storyboard Layer 1 (Fail)
//Storyboard Layer 2 (Pass)
//Storyboard Layer 3 (Foreground)
//Storyboard Sound Samples

[TimingPoints]
-1,297.029702970297,4,2,1,40,1,0
593,-200,4,2,1,40,0,0
18266,-500,4,2,1,30,0,0
20197,-100,4,2,1,70,0,0
39206,-125,4,2,1,60,0,0
48711,-166.666666666667,4,2,1,50,0,0
53167,-125,4,2,1,50,0,0
53464,-166.666666666667,4,2,1,50,0,0
58216,-125,4,2,1,60,0,0
65345,-111.111111111111,4,2,1,65,0,0
73513,-99.9999999999999,4,2,1,70,0,0
76187,-99.9999999999999,4,2,1,50,0,0
76484,-99.9999999999999,4,2,1,60,0,0
77226,-83.3333333333333,4,2,1,80,0,1
84206,-71.4285714285714,4,2,1,90,0,1
86731,-83.3333333333333,4,2,1,80,0,1
91484,-125,4,2,1,60,0,0
94899,-500,4,2,1,70,0,0
96385,-166.666666666667,4,2,1,50,0,0
97424,-166.666666666667,4,2,1,20,0,0
101880,-166.666666666667,4,2,1,60,0,0
102474,-166.666666666667,4,2,1,60,0,0
106929,-200,4,2,1,50,0,0
116434,-142.857142857143,4,2,1,60,0,0
124602,-125,4,2,1,60,0,0
128315,-111.111111111111,4,2,1,70,0,0
131731,-100,4,2,1,70,0,0
134404,-100,4,2,1,50,0,0
134999,-100,4,2,1,70,0,0
135444,-83.3333333333334,4,2,1,80,0,1
142424,-71.4285714285714,4,2,1,90,0,1
144949,-83.3333333333333,4,2,1,80,0,1
149701,-125,4,2,1,60,0,0
153117,-500.000000000003,4,2,1,70,0,0
154899,-500.000000000003,4,2,1,20,0,0
163810,-500.000000000003,4,2,1,40,0,0
164999,-100,4,2,1,50,0,0
165593,-100,4,2,1,60,0,0
165890,-100,4,2,1,65,0,0
166187,-100,4,2,1,75,0,0
166335,-83.3333333333334,4,2,1,85,0,1
173315,-71.4285714285714,4,2,1,95,0,1
175840,-83.3333333333333,4,2,1,85,0,1
180593,-125,4,2,1,60,0,0
189503,-100,4,2,1,30,0,0
189652,-500,4,2,1,35,0,0
190098,-90.9090909090909,4,2,1,70,0,0
209107,-111.111111111111,4,2,1,60,0,0
219503,-111.111111111111,4,2,1,30,0,0
219800,-111.111111111111,4,2,1,5,0,0

[Colours]
Combo1 : 120,233,227
Combo2 : 199,151,215
Combo3 : 255,145,162
Combo4 : 172,188,253

[HitObjects]
107,94,741,5,2,0:0:0:0:
119,110,890,1,2,0:0:0:0:
126,129,1038,1,2,0:0:0:0:
66,169,1187,2,0,P|117:161|179:160,1,95,2|2,0:0|0:0,0:0:0:0:
306,223,1781,6,0,P|313:201|315:176,1,47.5,2|0,0:0|0:0,0:0:0:0:
283,100,2078,1,2,0:0:0:0:
407,188,2226,2,0,P|413:235|425:281,1,95,2|2,0:0|0:0,0:0:0:0:
426,282,2820,1,2,0:0:0:0:
508,31,3117,5,2,0:0:0:0:
428,75,3266,2,0,L|378:67,1,47.5,2|2,0:0|0:0,0:0:0:0:
261,126,3563,2,0,L|311:118,1,47.5,2|2,0:0|0:0,0:0:0:0:
204,63,3860,1,2,0:0:0:0:
299,210,4008,1,2,0:0:0:0:
299,210,4305,5,2,0:0:0:0:
313,44,4454,2,0,L|328:109,1,47.5,2|2,0:0|0:0,0:0:0:0:
414,111,4751,2,0,L|399:176,1,47.5,2|2,0:0|0:0,0:0:0:0:
376,237,5048,1,2,0:0:0:0:
392,270,5197,1,2,0:0:0:0:
392,270,5494,5,2,0:0:0:0:
297,351,5642,2,0,P|324:349|360:339,1,47.5,2|2,0:0|0:0,0:0:0:0:
205,267,5939,2,0,P|181:262|158:260,1,47.5,2|2,0:0|0:0,0:0:0:0:
186,374,6236,1,2,0:0:0:0:
205,357,6385,2,0,P|213:321|256:254,1,95,2|2,0:0|0:0,0:0:0:0:
314,244,6830,1,2,0:0:0:0:
160,192,6979,1,2,0:0:0:0:
179,198,7127,2,0,P|190:229|193:262,1,47.5,2|2,0:0|0:0,0:0:0:0:
99,257,7424,1,2,0:0:0:0:
105,276,7573,1,2,0:0:0:0:
475,315,7870,5,2,0:0:0:0:
455,313,8018,2,0,P|451:342|442:374,1,47.5,2|2,0:0|0:0,0:0:0:0:
367,311,8315,2,0,P|362:287|363:251,1,47.5,2|2,0:0|0:0,0:0:0:0:
455,313,8612,1,2,0:0:0:0:
441,207,8761,2,0,P|402:234|355:241,1,95,2|2,0:0|0:0,0:0:0:0:
275,153,9206,1,2,0:0:0:0:
232,89,9355,2,0,P|239:136|257:180,1,95,2|2,0:0|0:0,0:0:0:0:
327,216,9800,1,2,0:0:0:0:
335,205,9949,1,2,0:0:0:0:
335,205,10246,5,2,0:0:0:0:
256,179,10395,2,0,P|230:169|193:164,1,47.5,2|2,1:2|0:0,0:0:0:0:
105,270,10692,2,0,P|155:277|198:252,1,95,2|2,1:2|0:0,0:0:0:0:
193,257,11286,1,2,0:0:0:0:
100,174,11583,6,0,P|111:127|112:112,1,47.5,2|0,0:0|0:0,0:0:0:0:
38,24,11880,1,2,0:0:0:0:
18,36,12028,2,0,P|17:76|29:132,1,95,2|2,0:0|0:0,0:0:0:0:
303,160,12622,5,2,0:0:0:0:
317,173,12771,2,0,P|316:208|313:223,1,47.5,2|2,0:0|0:0,0:0:0:0:
413,153,13068,2,0,P|404:126|402:98,1,47.5,2|2,0:0|0:0,0:0:0:0:
481,114,13365,1,2,0:0:0:0:
444,26,13513,2,0,P|401:15|339:41,1,95,2|2,0:0|0:0,0:0:0:0:
234,243,14107,5,2,0:0:0:0:
209,233,14256,2,0,P|218:195|217:166,1,47.5,2|2,0:0|0:0,0:0:0:0:
86,26,14701,2,0,P|89:79|106:138,1,95,2|2,0:0|0:0,0:0:0:0:
190,163,15147,1,2,0:0:0:0:
188,175,15296,1,2,0:0:0:0:
117,263,15444,1,2,0:0:0:0:
103,236,15593,1,2,0:0:0:0:
28,155,15741,1,2,0:0:0:0:
1,222,15890,1,2,0:0:0:0:
1,222,16187,6,0,P|50:214|87:205,1,71.25,2|0,0:0|0:0,0:0:0:0:
90,215,16484,2,0,P|109:244|122:274,1,47.5,2|0,0:0|0:0,0:0:0:0:
195,146,16781,2,0,P|188:167|185:198,1,47.5,2|2,0:0|0:0,0:0:0:0:
286,238,17078,2,0,P|283:214|275:191,1,47.5,2|0,0:0|0:0,0:0:0:0:
186,210,17375,1,2,0:0:0:0:
274,98,17523,1,2,0:0:0:0:
270,112,17672,1,2,0:0:0:0:
391,177,17820,2,0,L|412:230,1,47.5,2|2,0:0|0:0,0:0:0:0:
416,242,18117,1,2,0:0:0:0:
409,260,18266,1,2,0:0:0:0:
465,312,18563,5,2,0:0:0:0:
486,341,18711,1,2,0:0:0:0:
470,344,18860,1,2,0:0:0:0:
386,336,19157,5,2,0:0:0:0:
377,347,19305,1,2,0:0:0:0:
390,356,19454,1,2,0:0:0:0:
423,115,20197,6,0,B|436:90|424:67|424:67|385:68|353:93|340:130|353:196,1,190,4|8,1:2|0:0,0:0:0:0:
440,224,20642,1,0,0:0:0:0:
273,113,20791,1,0,1:0:0:0:
341,50,20939,1,0,1:0:0:0:
194,214,21088,1,8,0:0:0:0:
22,139,21236,6,0,B|120:123|99:216|208:184,1,190,4|0,1:2|1:0,0:0:0:0:
286,108,21682,1,8,0:0:0:0:
235,34,21830,1,0,0:0:0:0:
391,213,21979,2,0,P|402:166|418:122,1,95,0|0,1:0|1:0,0:0:0:0:
196,186,22276,2,0,P|217:248|228:306,1,95,8|0,0:0|0:0,0:0:0:0:
473,309,22573,6,0,B|458:268|411:238|411:238|365:239|319:282,1,190,4|8,1:2|0:0,0:0:0:0:
209,364,23018,1,0,0:0:0:0:
288,174,23167,1,0,1:0:0:0:
202,158,23315,1,0,1:0:0:0:
410,276,23464,1,8,0:0:0:0:
228,342,23612,6,0,P|209:248|178:159,1,190,4|0,1:2|1:0,0:0:0:0:
49,93,24058,2,0,P|30:137|24:184,1,95,8|0,0:0|0:0,0:0:0:0:
197,39,24355,1,0,1:0:0:0:
248,105,24503,1,0,1:0:0:0:
66,5,24652,1,8,0:0:0:0:
0,53,24800,1,0,1:0:0:0:
173,165,24949,6,0,B|207:146|246:137|246:137|304:163|328:232,1,190,4|8,1:2|0:0,0:0:0:0:
270,291,25395,1,0,0:0:0:0:
459,259,25543,2,0,P|470:217|468:164,1,95,0|0,1:0|1:0,0:0:0:0:
384,317,25840,1,8,0:0:0:0:
311,156,25989,6,0,B|413:163|383:78|478:79,1,190,4|0,1:2|1:0,0:0:0:0:
298,57,26434,1,8,0:0:0:0:
224,95,26583,1,0,0:0:0:0:
143,226,26731,1,0,1:0:0:0:
220,261,26880,1,0,1:0:0:0:
109,22,27028,2,0,P|77:75|29:78,1,95,8|0,0:0|1:0,0:0:0:0:
30,83,27251,1,0,1:0:0:0:
30,83,27325,6,0,B|124:68|94:174|223:136,1,190,4|8,1:2|0:2,0:2:0:0:
298,57,27771,1,0,0:0:0:0:
395,180,27919,1,0,1:0:0:0:
456,101,28068,1,0,1:0:0:0:
338,291,28216,1,8,0:0:0:0:
512,290,28365,6,0,P|407:263|353:314,1,190,4|0,1:2|1:0,0:0:0:0:
444,360,28810,1,8,0:0:0:0:
287,209,28959,1,0,0:0:0:0:
108,316,29107,1,0,1:0:0:0:
190,368,29256,1,0,1:0:0:0:
44,192,29404,2,0,P|31:237|25:298,1,95,8|0,0:0|1:0,0:0:0:0:
223,282,29701,6,0,B|152:216|230:177|153:108,1,190,4|8,1:2|0:0,2:0:0:0:
56,178,30147,1,0,0:0:0:0:
216,53,30296,1,0,1:0:0:0:
137,3,30444,1,0,1:0:0:0:
262,200,30593,1,8,0:0:0:0:
316,47,30741,6,0,P|273:129|185:155,1,190,4|0,1:2|1:0,0:0:0:0:
89,54,31187,1,8,0:0:0:0:
42,127,31335,1,0,0:0:0:0:
273,177,31484,2,0,P|232:154|185:155,1,95,0|0,1:0|1:0,0:0:0:0:
34,288,31781,2,0,P|81:287|123:266,1,95,8|0,0:0|1:0,0:0:0:0:
249,99,32078,6,0,B|253:212|314:167|328:285,1,190,4|8,1:2|0:0,0:0:0:0:
262,369,32523,1,0,0:0:0:0:
437,275,32672,1,0,1:0:0:0:
471,350,32820,1,0,1:0:0:0:
260,194,32969,1,8,0:0:0:0:
459,51,33117,6,0,P|404:141|313:85,1,190,4|0,1:2|1:0,0:0:0:0:
140,45,33563,2,0,P|169:102|173:147,1,95,8|0,0:0|0:0,0:0:0:0:
19,204,33860,1,0,1:0:0:0:
14,127,34008,1,0,1:0:0:0:
168,262,34157,1,8,0:0:0:0:
139,332,34305,1,0,1:0:0:0:
19,204,34454,6,0,B|53:152|88:140|88:140|141:147|200:215,1,190,4|8,1:2|0:0,0:0:0:0:
410,78,34899,1,0,0:0:0:0:
369,161,35048,2,0,P|321:165|266:143,1,95,0|0,1:0|1:0,0:0:0:0:
226,54,35345,1,8,0:0:0:0:
447,89,35494,6,0,P|384:130|406:265,1,190,4|0,1:2|1:0,0:0:0:0:
280,360,35939,2,0,P|271:294|253:229,1,95,8|0,0:0|0:0,0:0:0:0:
137,135,36236,1,0,1:0:0:0:
195,69,36385,1,0,1:0:0:0:
25,279,36533,2,0,P|99:289|147:299,1,95,8|0,0:0|1:0,0:0:0:0:
282,116,36830,6,0,P|216:183|105:130,1,190,4|8,1:2|0:0,0:0:0:0:
74,70,37276,1,0,0:0:0:0:
234,177,37424,1,0,1:0:0:0:
194,99,37573,1,0,1:0:0:0:
95,297,37721,1,8,0:0:0:0:
320,149,37870,6,0,P|331:243|329:270,1,95,4|0,1:2|0:0,0:0:0:0:
233,355,38167,1,8,3:0:0:0:
417,242,38315,1,8,0:0:0:0:
182,179,38464,1,8,3:0:0:0:
428,244,38612,1,8,0:0:0:0:
256,354,38761,1,8,3:0:0:0:
251,330,38835,1,8,3:0:0:0:
246,307,38909,1,8,0:0:0:0:
240,284,38984,1,8,0:0:0:0:
235,261,39058,1,8,0:0:0:0:
347,96,39206,6,0,P|331:221|328:255,1,152,12|0,1:2|0:0,0:0:0:0:
328,246,39800,1,0,1:0:0:0:
371,366,39949,2,0,P|385:326|405:282,1,76,0|0,1:0|0:0,0:0:0:0:
444,100,40246,1,8,0:0:0:0:
494,179,40395,6,0,P|433:191|397:187,1,76,0|0,0:0|1:0,0:0:0:0:
343,133,40692,1,8,0:0:0:0:
228,92,40840,1,0,0:0:0:0:
219,99,40914,1,0,0:0:0:0:
211,111,40989,2,0,P|220:162|235:208,1,76,0|0,1:0|1:0,0:0:0:0:
181,260,41286,1,8,0:0:0:0:
181,260,41583,6,0,P|118:272|101:272,1,76,0|0,1:0|0:0,0:0:0:0:
18,198,41880,2,0,P|9:249|-6:295,1,76,8|0,0:0|0:0,0:0:0:0:
95,361,42177,1,0,1:0:0:0:
112,347,42325,2,0,P|107:313|107:249,1,76,0|0,1:0|0:0,0:0:0:0:
166,173,42622,1,8,0:0:0:0:
166,173,42919,5,0,1:0:0:0:
303,126,43068,2,0,P|335:172|336:210,1,76,8|0,0:0|0:0,0:0:0:0:
341,212,43291,1,0,0:0:0:0:
341,212,43365,2,0,P|304:223|267:224,1,76,0|0,1:0|1:0,0:0:0:0:
201,89,43662,1,8,0:0:0:0:
201,89,43959,6,0,P|195:36|173:7,1,76,0|0,1:0|0:0,0:0:0:0:
116,72,44256,1,8,0:0:0:0:
104,194,44404,2,0,L|58:180,2,38,0|0|0,0:0|0:0|1:0,0:0:0:0:
27,111,44701,1,8,0:0:0:0:
27,111,44999,6,0,P|49:159|68:272,1,152,8|0,0:0|1:0,0:0:0:0:
186,348,45444,2,0,P|195:303|209:255,1,76,8|0,0:0|0:0,0:0:0:0:
218,251,45667,1,0,0:0:0:0:
218,251,45741,1,0,1:0:0:0:
294,200,45890,1,0,1:0:0:0:
416,352,46038,1,8,0:0:0:0:
416,352,46335,6,0,P|428:299|432:255,1,76,0|0,1:0|0:0,0:0:0:0:
379,196,46632,1,8,0:0:0:0:
491,159,46781,2,0,P|483:137|476:99,2,38,0|0|0,0:0|0:0|1:0,0:0:0:0:
406,70,47078,1,8,0:0:0:0:
406,70,47375,1,8,0:0:0:0:
406,70,47672,6,0,P|357:88|299:96,1,76,0|8,1:0|0:0,0:0:0:0:
240,21,47969,1,0,1:0:0:0:
235,45,48043,1,0,1:0:0:0:
230,70,48117,1,8,0:0:0:0:
226,95,48192,1,8,0:0:0:0:
221,120,48266,1,10,0:0:0:0:
217,145,48340,1,8,0:0:0:0:
212,170,48414,2,0,L|128:162,1,76,10|2,0:0|0:0,0:0:0:0:
28,84,48711,6,0,L|106:73,1,56.9999982604981,6|2,1:2|0:0,0:0:0:0:
141,11,49008,1,10,0:0:0:0:
26,106,49157,2,0,L|90:97,1,56.9999982604981,2|0,0:0|1:0,0:0:0:0:
165,187,49454,1,2,1:2:0:0:
161,212,49602,1,2,0:0:0:0:
67,304,49751,1,10,0:0:0:0:
81,321,49899,6,0,L|91:392,1,56.9999982604981,2|2,0:0|1:2,0:0:0:0:
7,241,50197,1,10,0:0:0:0:
172,302,50345,2,0,P|174:274|183:239,1,56.9999982604981,2|0,0:0|1:0,0:0:0:0:
87,188,50642,1,2,1:2:0:0:
280,245,50791,2,0,P|280:221|267:169,1,56.9999982604981,10|2,0:0|1:2,0:0:0:0:
245,82,51088,6,0,P|314:84|355:119,1,113.999996520996,2|8,1:2|0:0,0:0:0:0:
467,203,51533,2,0,P|421:202|390:192,1,56.9999982604981,2|0,0:0|1:0,0:0:0:0:
446,109,51830,1,2,1:2:0:0:
446,109,51979,1,2,0:0:0:0:
270,188,52127,6,0,P|287:230|302:309,1,113.999996520996,10|2,0:0|1:2,0:0:0:0:
203,271,52573,1,8,0:0:0:0:
406,369,52721,2,0,P|410:328|425:292,1,56.9999982604981,2|0,0:0|1:0,0:0:0:0:
492,265,53018,1,2,1:2:0:0:
449,83,53167,2,0,P|398:88|348:149,1,114,10|0,0:0|0:0,0:0:0:0:
325,153,53464,6,0,P|306:118|300:77,1,56.9999982604981,2|2,1:2|0:0,0:0:0:0:
343,28,53761,1,10,0:0:0:0:
237,39,53909,2,0,P|228:66|213:90,1,56.9999982604981,2|0,0:0|1:0,0:0:0:0:
139,117,54206,1,2,1:2:0:0:
139,117,54503,6,0,P|191:121|240:166,1,113.999996520996,10|2,0:0|1:2,0:0:0:0:
255,259,54949,1,10,0:0:0:0:
261,237,55098,1,2,0:0:0:0:
98,258,55246,2,0,P|107:291|109:328,1,56.9999982604981,2|2,0:0|1:2,0:0:0:0:
24,304,55543,1,10,0:0:0:0:
179,373,55692,6,0,P|189:336|206:313,1,56.9999982604981,2|0,0:0|1:0,0:0:0:0:
268,289,55989,1,2,0:0:0:0:
385,338,56137,1,8,0:0:0:0:
385,338,56211,1,2,0:0:0:0:
385,338,56286,2,0,P|373:297|376:269,2,56.9999982604981,2|0|0,0:0|1:0|1:0,0:0:0:0:
385,338,56880,6,0,P|416:271|393:217,1,113.999996520996,8|0,0:0|1:0,0:0:0:0:
315,148,57325,2,0,P|306:191|312:215,1,56.9999982604981,8|0,0:0|0:0,0:0:0:0:
290,35,57622,2,0,P|296:33|318:32,1,28.4999991302491,0|0,1:0|0:0,0:0:0:0:
201,98,57771,2,0,P|216:98|229:95,1,28.4999991302491,2|0,1:2|0:0,0:0:0:0:
143,30,57919,1,10,0:0:0:0:
65,115,58068,1,2,0:0:0:0:
55,30,58216,6,0,P|79:85|86:118,1,76,6|2,1:2|0:0,0:0:0:0:
38,210,58513,1,10,0:0:0:0:
154,176,58662,2,0,P|144:204|143:229,2,38,2|2|2,0:0|0:0|0:0,0:0:0:0:
256,79,58959,1,2,1:2:0:0:
287,186,59107,1,2,0:0:0:0:
197,103,59256,6,0,B|278:113|253:159|346:167,1,152,10|2,0:0|1:2,0:0:0:0:
429,62,59701,1,8,0:0:0:0:
332,72,59850,2,0,P|345:13|366:-22,2,76,2|0|2,0:0|1:0|1:2,0:0:0:0:
440,148,60296,2,0,P|460:193|467:230,1,76,10|2,0:0|0:0,0:0:0:0:
289,259,60593,6,0,L|372:244,1,76,2|0,1:2|1:0,0:0:0:0:
318,168,60890,1,10,0:0:0:0:
226,346,61038,2,0,L|142:331,1,76,2|0,0:0|1:0,0:0:0:0:
71,216,61335,1,2,1:2:0:0:
71,216,61632,1,10,0:0:0:0:
71,216,61929,6,0,P|59:252|52:289,1,76,2|8,1:2|0:0,0:0:0:0:
230,161,62226,2,0,P|215:105|205:77,1,76,2|0,0:0|1:0,0:0:0:0:
110,22,62523,1,2,0:0:0:0:
184,78,62672,1,10,0:0:0:0:
274,24,62820,1,2,1:2:0:0:
174,98,62969,6,0,P|130:113|96:133,1,76,2|2,1:2|0:0,0:0:0:0:
79,229,63266,1,10,0:0:0:0:
0,183,63414,2,0,P|44:198|78:218,1,76,2|0,0:0|1:0,0:0:0:0:
159,297,63711,2,0,P|152:320|147:367,2,38,2|0|0,1:2|0:0|0:0,0:0:0:0:
231,217,64008,1,10,0:0:0:0:
231,217,64305,6,0,P|250:265|256:305,1,76,2|8,1:2|0:0,0:0:0:0:
377,344,64602,2,0,P|420:324|442:281,1,76,2|0,0:0|1:0,0:0:0:0:
366,253,64899,1,2,1:2:0:0:
454,144,65048,1,10,0:0:0:0:
451,166,65197,1,2,1:2:0:0:
323,132,65345,6,0,P|295:51|197:64,1,170.999994781494,2|8,1:2|0:0,0:0:0:0:
134,177,65791,2,0,P|126:116|109:79,1,85.4999973907472,2|0,0:0|1:2,0:0:0:0:
35,155,66088,1,2,1:2:0:0:
29,174,66236,1,10,0:0:0:0:
234,194,66385,6,0,P|216:235|193:369,1,170.999994781494,6|0,1:2|1:0,0:0:0:0:
301,287,66830,1,8,0:0:0:0:
314,135,66979,1,0,0:0:0:0:
344,209,67127,1,0,1:0:0:0:
230,106,67276,1,0,1:0:0:0:
248,80,67350,1,0,1:0:0:0:
274,61,67424,1,8,0:0:0:0:
305,51,67499,1,8,0:0:0:0:
337,51,67573,1,8,0:0:0:0:
506,171,67721,6,0,B|412:162|429:222|340:209,1,170.999994781494,6|8,1:2|0:0,0:0:0:0:
199,167,68167,1,0,0:0:0:0:
217,178,68315,2,0,P|240:230|251:296,1,85.4999973907472,2|0,2:0|1:0,0:0:0:0:
103,357,68612,1,10,0:0:0:0:
15,244,68761,6,0,P|64:309|174:298,1,170.999994781494,2|2,1:2|1:2,0:0:0:0:
246,257,69206,1,10,0:0:0:0:
132,145,69355,2,0,P|112:234|115:269,1,85.4999973907472,2|0,0:0|1:0,0:0:0:0:
215,103,69652,1,2,1:2:0:0:
34,158,69800,1,10,0:0:0:0:
148,313,69949,1,2,1:2:0:0:
274,175,70098,6,0,P|195:197|132:145,1,170.999994781494,2|10,1:2|0:0,0:0:0:0:
328,117,70543,2,0,P|277:159|276:202,1,85.4999973907472,2|0,0:0|1:0,0:0:0:0:
314,291,70840,1,2,1:2:0:0:
355,117,70989,1,10,0:0:0:0:
463,239,71137,6,0,P|390:214|319:287,1,170.999994781494,2|2,1:2|1:2,0:0:0:0:
404,320,71583,1,8,0:0:0:0:
480,233,71731,2,0,P|500:181|496:122,1,85.4999973907472,2|0,0:0|1:0,0:0:0:0:
384,36,72028,1,2,1:2:0:0:
368,48,72177,2,0,P|372:90|389:129,1,85.4999973907472,10|0,0:0|0:0,0:0:0:0:
288,169,72474,6,0,B|194:161|219:230|110:209,1,170.999994781494,2|10,1:2|0:0,0:0:0:0:
15,77,72919,2,0,P|71:73|108:93,1,85.4999973907472,2|0,0:0|1:0,0:0:0:0:
49,164,73216,1,2,1:2:0:0:
37,187,73365,1,10,0:0:0:0:
204,68,73513,6,0,P|205:128|325:152,1,190,2|0,1:2|1:0,0:0:0:0:
398,96,73959,1,10,0:0:0:0:
229,158,74107,2,0,P|197:224|203:271,1,95,2|0,0:0|1:0,0:0:0:0:
420,335,74404,2,0,P|413:288|387:248,1,95,2|8,1:2|0:0,0:0:0:0:
41,282,74701,6,0,B|156:265|108:369|239:333,1,190,6|8,1:2|0:0,0:0:0:0:
62,363,75147,1,2,1:2:0:0:
222,226,75296,1,8,0:0:0:0:
226,193,75370,1,8,0:0:0:0:
233,160,75444,1,8,0:0:0:0:
189,73,75593,1,8,3:0:0:0:
339,202,75741,1,8,3:0:0:0:
91,279,75890,1,8,3:0:0:0:
91,279,76187,5,0,0:0:0:0:
82,287,76335,1,0,0:0:0:0:
92,298,76484,1,2,0:0:0:0:
46,206,76632,1,2,0:0:0:0:
171,317,76781,1,2,0:0:0:0:
0,384,76929,1,2,0:0:0:0:
183,210,77078,1,2,0:0:0:0:
12,38,77226,6,0,B|94:39|69:115|159:106,1,170.999994781494,6|0,1:2|0:0,0:0:0:0:
275,58,77523,2,0,P|232:67|193:147,1,113.999996520996,10|0,0:0|0:0,0:0:0:0:
150,15,77820,1,2,1:2:0:0:
362,130,77969,2,0,P|375:74|380:8,1,113.999996520996,2|8,1:2|0:0,0:0:0:0:
63,154,78266,6,0,P|131:185|137:286,1,170.999994781494,6|0,1:2|0:0,0:0:0:0:
15,288,78563,2,0,L|134:263,1,113.999996520996,2|8,1:2|0:0,0:0:0:0:
201,352,78860,1,2,0:0:0:0:
347,200,79008,1,2,1:2:0:0:
418,278,79157,1,2,1:2:0:0:
190,161,79305,1,10,0:0:0:0:
407,33,79454,1,2,0:0:0:0:
270,193,79602,6,0,P|264:111|147:88,1,170.999994781494,6|0,1:2|0:0,0:0:0:0:
67,51,79899,2,0,P|113:91|184:72,1,113.999996520996,10|0,0:0|0:0,0:0:0:0:
379,34,80197,2,0,P|318:78|329:155,1,113.999996520996,2|0,1:2|1:0,0:0:0:0:
407,289,80494,1,10,0:0:0:0:
512,181,80642,6,0,B|427:176|455:269|344:237,1,170.999994781494,6|0,1:2|0:0,0:0:0:0:
270,177,80939,2,0,P|303:207|329:291,2,113.999996520996,2|8|0,1:2|0:0|0:0,0:0:0:0:
0,180,81385,1,2,1:2:0:0:
205,281,81533,1,2,1:2:0:0:
122,74,81682,1,10,0:0:0:0:
29,384,81830,1,2,0:0:0:0:
182,130,81979,6,0,P|103:152|45:95,1,170.999994781494,6|0,1:2|0:0,0:0:0:0:
91,0,82276,2,0,P|86:47|67:118,1,113.999996520996,10|0,0:0|0:0,0:0:0:0:
161,253,82573,2,0,P|217:267|252:310,1,113.999996520996,2|0,1:2|1:0,0:0:0:0:
91,316,82870,1,10,0:0:0:0:
266,332,83018,6,0,P|324:297|297:176,1,170.999994781494,6|0,1:2|0:0,0:0:0:0:
277,56,83315,2,0,P|278:111|290:178,1,113.999996520996,2|8,1:2|0:0,0:0:0:0:
405,141,83612,1,2,0:0:0:0:
245,243,83761,2,0,L|176:232,1,56.9999982604981,6|0,1:2|0:0,0:0:0:0:
100,130,83909,2,0,P|91:164|89:199,1,56.9999982604981,6|0,1:2|0:0,0:0:0:0:
182,322,84058,2,0,P|178:293|170:266,1,56.9999982604981,6|0,1:2|0:0,0:0:0:0:
16,111,84206,6,0,P|106:94|82:6,1,199.499993911743,14|0,1:2|0:0,0:0:0:0:
54,12,84503,1,2,1:2:0:0:
220,140,84652,1,10,0:0:0:0:
273,58,84800,1,2,0:0:0:0:
130,191,84949,2,0,P|213:189|251:241,1,132.999995941162,2|0,1:2|0:0,0:0:0:0:
19,268,85246,1,2,1:2:0:0:
96,337,85395,6,0,P|108:263|132:187,1,132.999995941162,10|0,0:0|1:0,0:0:0:0:
298,60,85692,2,0,P|316:123|326:189,1,132.999995941162,10|0,0:0|1:0,0:0:0:0:
497,238,85989,1,10,0:0:0:0:
471,296,86063,1,8,0:0:0:0:
498,334,86137,2,0,P|429:335|365:368,1,132.999995941162,10|0,0:0|1:0,0:0:0:0:
250,203,86434,2,0,P|257:230|260:269,1,66.4999979705811,2|0,1:2|0:0,0:0:0:0:
134,338,86583,2,0,P|138:310|150:273,1,66.4999979705811,10|0,0:2|0:0,0:0:0:0:
421,62,86731,6,0,B|334:61|362:144|245:119,1,170.999994781494,6|0,1:2|0:0,0:0:0:0:
112,34,87028,2,0,P|182:44|211:105,1,113.999996520996,10|0,0:0|0:0,0:0:0:0:
146,216,87325,1,2,1:2:0:0:
351,93,87474,2,0,P|342:148|337:215,1,113.999996520996,2|8,1:2|0:0,0:0:0:0:
212,366,87771,6,0,P|203:289|93:263,1,170.999994781494,6|0,1:2|0:0,0:0:0:0:
0,234,88068,2,0,P|44:301|94:280,1,113.999996520996,2|8,1:2|0:0,0:0:0:0:
4,141,88365,1,2,0:0:0:0:
266,224,88513,1,2,1:2:0:0:
225,96,88662,1,2,1:2:0:0:
130,338,88810,1,10,0:0:0:0:
75,55,88959,1,2,1:2:0:0:
43,355,89107,6,0,P|80:268|193:274,1,170.999994781494,6|0,1:2|0:0,0:0:0:0:
301,206,89404,2,0,P|278:255|198:265,1,113.999996520996,10|0,0:0|0:0,0:0:0:0:
133,102,89701,2,0,P|185:118|209:168,1,113.999996520996,2|0,1:2|1:0,0:0:0:0:
54,142,89999,1,2,1:2:0:0:
210,191,90147,6,0,P|273:187|329:180,1,113.999996520996,14|0,0:0|1:0,0:0:0:0:
472,49,90444,1,8,3:0:0:0:
331,159,90593,1,8,3:0:0:0:
475,285,90741,1,8,3:0:0:0:
249,355,90890,1,8,3:0:0:0:
310,302,91038,1,0,1:2:0:0:
320,314,91112,1,0,1:2:0:0:
311,318,91187,2,0,P|233:305|174:302,1,113.999996520996,0|2,1:2|0:0,0:0:0:0:
43,379,91484,5,2,1:2:0:0:
99,263,91632,2,0,P|117:330|118:361,1,76,2|8,1:2|0:0,0:0:0:0:
12,250,91929,2,0,P|18:212|30:176,1,76,2|0,0:0|1:0,0:0:0:0:
120,119,92226,1,2,1:2:0:0:
120,119,92523,6,0,P|159:168|238:133,1,152,10|2,0:0|1:2,0:0:0:0:
319,63,92969,1,10,0:0:0:0:
311,92,93117,1,2,0:0:0:0:
441,176,93266,2,0,P|427:103|428:72,1,76,2|0,1:2|1:0,0:0:0:0:
343,203,93563,1,10,0:0:0:0:
341,221,93711,1,2,0:0:0:0:
207,132,93860,5,2,1:2:0:0:
233,141,94008,2,0,P|253:213|247:246,1,76,2|8,0:0|0:0,0:0:0:0:
132,338,94305,2,0,P|136:289|151:249,1,76,2|0,0:0|1:2,0:0:0:0:
216,313,94602,1,2,1:2:0:0:
55,207,94751,1,2,1:2:0:0:
240,57,94899,6,0,P|240:39|232:13,1,38,8|8,0:3|3:0,0:0:0:0:
359,82,95345,1,8,3:0:0:0:
274,165,95494,1,8,3:0:0:0:
354,210,95642,1,8,3:0:0:0:
297,263,95791,1,8,3:0:0:0:
322,278,95939,1,8,3:0:0:0:
303,285,96088,1,8,3:0:0:0:
119,226,96236,1,8,0:0:0:0:
172,364,96385,6,0,L|163:325,2,28.4999991302491
220,282,96682,1,0,0:0:0:0:
256,192,96756,12,4,97424,0:0:0:0:
256,192,100840,12,0,101583,0:0:0:0:
46,330,101880,5,8,0:0:0:0:
46,330,102177,5,0,1:0:0:0:
46,350,102325,1,0,1:0:0:0:
162,321,102474,2,0,L|151:248,1,56.9999982604981,8|0,0:0|1:0,0:0:0:0:
144,242,102697,1,0,1:0:0:0:
143,242,102771,1,0,1:0:0:0:
59,161,102919,2,0,L|46:233,1,56.9999982604981,0|8,1:0|0:0,0:0:0:0:
63,308,103216,1,0,1:0:0:0:
238,260,103365,5,0,1:0:0:0:
245,238,103513,2,0,P|293:237|318:241,1,56.9999982604981,0|8,1:0|0:0,0:0:0:0:
381,312,103810,1,0,1:0:0:0:
381,312,103885,1,0,1:0:0:0:
381,312,103959,2,0,P|393:267|392:247,1,56.9999982604981,0|0,1:0|1:0,0:0:0:0:
296,154,104256,2,0,P|298:182|307:209,1,56.9999982604981,8|0,0:0|0:0,0:0:0:0:
377,163,104553,5,0,1:0:0:0:
381,142,104701,1,0,1:0:0:0:
512,68,104850,2,0,P|472:87|437:88,1,56.9999982604981,8|0,0:0|1:0,0:0:0:0:
441,87,105073,1,0,1:0:0:0:
441,87,105147,2,0,P|438:38|430:13,1,56.9999982604981,0|0,1:0|1:0,0:0:0:0:
303,75,105444,1,8,0:0:0:0:
291,89,105593,6,0,P|324:112|366:114,1,56.9999982604981,0|0,1:0|1:0,0:0:0:0:
272,0,105890,2,0,P|244:8|223:26,1,56.9999982604981,0|8,1:0|0:0,0:0:0:0:
206,117,106187,1,0,0:0:0:0:
86,137,106335,1,8,0:0:0:0:
83,117,106409,1,8,0:0:0:0:
80,98,106484,1,8,0:0:0:0:
78,78,106558,1,8,0:0:0:0:
76,59,106632,1,8,0:0:0:0:
0,130,106781,1,2,0:0:0:0:
185,136,106929,6,0,P|182:173|170:201,2,47.5,2|0|2,1:2|0:0|1:2,0:0:0:0:
68,307,107375,2,0,P|53:261|49:214,1,95,2|0,0:0|0:0,0:0:0:0:
146,223,107820,1,2,1:2:0:0:
184,319,107969,6,0,P|225:333|248:334,1,47.5,2|0,0:0|0:0,0:0:0:0:
313,220,108266,2,0,P|289:224|268:234,1,47.5,2|0,0:0|1:0,0:0:0:0:
190,310,108563,2,0,P|231:324|254:325,1,47.5,2|0,0:0|0:0,0:0:0:0:
316,229,108860,2,0,P|292:233|271:243,1,47.5,2|0,0:0|1:0,0:0:0:0:
319,317,109157,1,2,0:0:0:0:
401,228,109305,6,0,P|405:205|414:183,1,47.5,2|0,0:0|0:0,0:0:0:0:
487,227,109602,1,2,1:2:0:0:
492,148,109751,2,0,P|487:124|479:102,1,47.5,2|0,0:0|0:0,0:0:0:0:
336,73,110048,1,2,0:0:0:0:
330,98,110197,1,2,1:2:0:0:
386,172,110345,6,0,P|348:194|280:182,1,95,2|2,0:0|0:0,0:0:0:0:
198,123,110791,1,2,1:2:0:0:
190,140,110939,2,0,P|206:174|209:203,1,47.5,2|0,0:0|0:0,0:0:0:0:
135,267,111236,1,2,0:2:0:0:
127,265,111310,1,0,0:2:0:0:
131,255,111385,1,2,1:2:0:0:
143,257,111459,1,0,0:2:0:0:
142,266,111533,6,0,P|185:280|195:278,2,47.5,2|2|2,0:0|0:2|0:0,0:0:0:0:
55,185,111979,1,2,1:2:0:0:
39,273,112127,2,0,P|25:313|24:335,1,47.5,2|0,0:0|0:0,0:0:0:0:
153,255,112424,2,0,P|148:231|138:210,1,47.5,2|0,0:0|1:0,0:0:0:0:
158,349,112721,6,0,P|207:336|267:341,1,95,2|2,0:0|0:0,0:0:0:0:
358,358,113167,2,0,P|343:323|337:301,1,47.5,2|0,1:2|0:0,0:0:0:0:
420,230,113464,1,8,0:0:0:0:
250,337,113687,5,8,0:0:0:0:
312,191,113909,5,8,0:0:0:0:
310,168,114058,1,8,0:0:0:0:
387,73,114281,5,8,0:0:0:0:
180,189,114503,5,8,0:0:0:0:
176,212,114652,1,8,0:0:0:0:
249,61,114800,1,0,1:0:0:0:
249,61,114875,1,0,1:0:0:0:
249,61,114949,1,0,1:0:0:0:
57,93,115098,6,0,P|44:132|34:186,1,95,14|0,0:0|0:0,0:0:0:0:
90,268,115692,1,0,0:0:0:0:
90,268,115989,1,2,0:0:0:0:
281,157,116137,1,10,0:2:0:0:
328,239,116286,1,2,0:0:0:0:
299,310,116434,6,0,P|300:266|311:227,1,66.4999979705811,6|0,1:2|0:0,0:0:0:0:
390,174,116731,1,10,0:0:0:0:
276,322,116880,2,0,L|199:309,1,66.4999979705811,2|0,0:0|1:2,0:0:0:0:
39,280,117177,2,0,L|116:267,1,66.4999979705811,2|2,1:2|0:0,0:0:0:0:
221,136,117474,1,10,0:0:0:0:
236,51,117622,6,0,P|247:96|246:145,1,66.4999979705811,2|0,0:0|1:0,0:0:0:0:
139,102,117919,1,10,0:0:0:0:
112,184,118068,2,0,P|115:150|124:118,1,66.4999979705811,2|0,0:0|1:0,0:0:0:0:
183,235,118365,1,2,1:2:0:0:
200,246,118513,2,0,P|199:288|188:315,1,66.4999979705811,10|2,0:0|1:2,0:0:0:0:
84,323,118810,5,2,1:2:0:0:
86,350,118959,1,0,0:0:0:0:
26,237,119107,1,10,0:0:0:0:
180,323,119256,2,0,P|239:319|276:320,1,66.4999979705811,2|0,0:0|1:0,0:0:0:0:
366,356,119553,1,2,1:2:0:0:
359,343,119701,1,2,0:0:0:0:
413,214,119850,6,0,P|401:280|397:346,1,132.999995941162,10|2,0:0|1:2,0:0:0:0:
308,250,120296,1,10,0:0:0:0:
323,234,120444,2,0,P|308:186|291:157,1,66.4999979705811,2|0,1:2|1:0,0:0:0:0:
212,263,120741,1,2,1:2:0:0:
91,150,120890,2,0,P|146:172|204:166,1,99.7499969558717,10|0,0:0|0:0,0:0:0:0:
206,181,121187,6,0,P|191:211|183:243,1,66.4999979705811,2|2,1:2|0:0,0:0:0:0:
207,337,121484,1,10,0:0:0:0:
75,278,121632,1,2,0:2:0:0:
75,278,121706,1,0,0:2:0:0:
75,278,121781,1,0,1:2:0:0:
29,182,121929,2,0,P|31:150|44:113,1,66.4999979705811,2|0,1:2|0:0,0:0:0:0:
138,35,122226,6,0,P|157:79|180:180,1,132.999995941162,10|0,0:0|1:0,0:0:0:0:
32,96,122672,1,10,0:0:0:0:
172,172,122820,2,0,P|216:157|265:159,1,66.4999979705811,2|0,0:0|1:0,0:0:0:0:
138,246,123117,1,0,1:0:0:0:
126,263,123266,2,0,L|116:346,1,66.4999979705811,10|2,0:0|0:0,0:0:0:0:
248,243,123563,6,0,L|230:166,1,66.4999979705811,2|2,1:2|1:2,0:0:0:0:
126,263,123860,1,10,0:0:0:0:
240,340,124008,2,0,P|279:336|321:326,1,66.4999979705811,2|8,0:0|3:0,0:0:0:0:
321,315,124231,1,8,3:0:0:0:
340,301,124305,1,8,3:0:0:0:
363,298,124380,1,8,3:0:0:0:
386,299,124454,1,8,3:0:0:0:
467,349,124602,1,12,0:0:0:0:
348,61,124899,6,0,P|343:108|331:155,1,76,0|8,1:2|0:0,0:0:0:0:
199,285,125197,1,8,0:0:0:0:
198,267,125271,1,8,0:0:0:0:
196,248,125345,1,8,0:0:0:0:
195,229,125419,1,8,0:0:0:0:
193,210,125494,1,8,0:0:0:0:
192,191,125568,1,8,0:0:0:0:
190,172,125642,6,0,L|140:159,4,38,0|0|2|0|4,1:0|1:0|1:2|1:0|2:0,0:0:0:0:
153,162,126236,1,10,0:0:0:0:
145,144,126385,1,2,0:0:0:0:
10,219,126533,1,2,1:2:0:0:
3,142,126682,2,0,P|24:194|35:233,1,76,2|8,1:2|0:0,0:0:0:0:
153,347,126979,6,0,P|169:291|228:210,1,152,2|0,1:2|1:0,0:0:0:0:
328,154,127424,1,10,0:0:0:0:
412,197,127573,2,0,P|350:182|320:152,1,76,2|0,0:2|1:0,0:0:0:0:
303,80,127870,1,2,1:2:0:0:
340,273,128018,1,10,0:0:0:0:
482,139,128167,1,2,0:2:0:0:
335,295,128315,6,0,P|385:228|468:218,1,170.999994781494,6|8,1:2|0:0,0:0:0:0:
317,308,128761,2,0,P|263:291|218:288,1,85.4999973907472,2|0,0:2|1:0,0:0:0:0:
150,350,129058,1,0,1:2:0:0:
217,267,129206,1,10,0:0:0:0:
60,189,129355,6,0,B|159:169|126:246|227:232,1,170.999994781494,2|0,1:2|1:0,0:0:0:0:
377,130,129800,1,10,0:0:0:0:
279,119,129949,2,0,P|284:167|312:210,1,85.4999973907472,2|0,0:0|1:0,0:0:0:0:
402,298,130246,2,0,P|421:260|425:218,1,85.4999973907472,10|0,0:0|1:0,0:0:0:0:
386,121,130543,1,10,0:0:0:0:
301,199,130692,6,0,P|257:200|210:172,1,85.4999973907472,2|0,1:2|0:0,0:0:0:0:
165,67,130989,1,10,0:0:0:0:
153,96,131137,1,2,0:0:0:0:
52,197,131286,1,2,1:2:0:0:
25,175,131434,2,0,P|94:160|144:161,1,85.4999973907472,2|8,1:2|0:0,0:0:0:0:
301,199,131731,6,0,B|198:214|259:287|145:306,1,190,6|0,1:2|1:0,0:0:0:0:
306,289,132177,1,10,0:0:0:0:
81,237,132325,2,0,P|74:181|62:135,1,95,2|0,1:2|1:0,0:0:0:0:
0,53,132622,1,2,1:2:0:0:
157,117,132771,1,10,0:0:0:0:
35,308,132919,6,0,P|74:244|206:247,1,190,2|8,1:2|0:0,0:0:0:0:
277,330,133365,1,10,0:0:0:0:
386,177,133513,1,8,0:0:0:0:
386,177,133588,1,8,0:0:0:0:
386,177,133662,2,0,P|406:230|408:299,1,95,10|8,0:0|3:0,0:0:0:0:
494,190,133959,1,8,0:3:0:0:
284,120,134107,1,8,0:3:0:0:
220,52,134404,5,8,0:0:0:0:
255,31,134479,1,8,0:0:0:0:
296,27,134553,1,8,0:0:0:0:
335,41,134627,1,8,0:0:0:0:
363,71,134701,1,10,0:0:0:0:
376,110,134776,1,8,0:0:0:0:
371,151,134850,1,10,0:0:0:0:
348,186,134924,1,8,0:0:0:0:
314,208,134999,5,10,0:0:0:0:
294,141,135073,1,8,0:0:0:0:
325,79,135147,1,10,0:0:0:0:
390,54,135221,1,8,0:0:0:0:
454,81,135296,1,10,0:0:0:0:
482,145,135370,1,8,0:0:0:0:
460,210,135444,6,0,B|368:212|416:290|305:289,1,170.999994781494,14|0,1:2|0:0,0:0:0:0:
165,234,135741,2,0,P|237:203|284:231,1,113.999996520996,10|0,0:0|0:0,0:0:0:0:
123,304,136038,1,2,1:2:0:0:
288,325,136187,2,0,P|280:279|259:189,1,113.999996520996,2|8,1:2|0:0,0:0:0:0:
110,43,136484,6,0,P|89:126|86:212,1,170.999994781494,6|0,1:2|0:0,0:0:0:0:
12,311,136781,2,0,P|64:295|106:239,1,113.999996520996,2|8,1:2|0:0,0:0:0:0:
14,113,137078,1,2,0:0:0:0:
257,179,137226,1,2,1:2:0:0:
184,294,137375,1,2,1:2:0:0:
253,24,137523,1,10,0:0:0:0:
439,260,137672,1,2,0:0:0:0:
333,257,137820,6,0,P|368:178|476:161,1,170.999994781494,6|0,1:2|0:0,0:0:0:0:
453,29,138117,2,0,P|481:115|454:155,1,113.999996520996,10|0,0:0|0:0,0:0:0:0:
269,328,138414,2,0,P|248:275|253:219,1,113.999996520996,2|0,1:2|1:0,0:0:0:0:
350,344,138711,1,10,0:0:0:0:
293,102,138860,6,0,P|208:97|142:181,1,170.999994781494,6|0,1:2|0:0,0:0:0:0:
77,262,139157,2,0,P|52:201|7:149,2,113.999996520996,2|10|0,1:2|0:0|0:0,0:0:0:0:
23,345,139602,1,2,1:2:0:0:
151,167,139751,1,2,1:2:0:0:
256,360,139899,1,10,0:0:0:0:
466,112,140048,1,0,1:0:0:0:
453,129,140122,1,0,1:0:0:0:
443,148,140197,6,0,P|378:153|349:259,1,170.999994781494,6|0,1:2|0:0,0:0:0:0:
213,260,140494,2,0,P|302:278|342:259,1,113.999996520996,10|0,0:0|0:0,0:0:0:0:
350,123,140791,1,2,1:2:0:0:
459,267,140939,1,2,1:2:0:0:
510,43,141088,1,10,0:0:0:0:
321,271,141236,6,0,P|312:176|274:69,1,170.999994781494,6|0,1:2|0:0,0:0:0:0:
164,104,141533,2,0,P|232:124|281:100,1,113.999996520996,2|0,1:2|0:0,0:0:0:0:
66,49,141830,1,8,0:0:0:0:
66,49,141904,1,8,0:0:0:0:
66,49,141979,2,0,L|46:154,1,56.9999982604981,6|0,1:2|0:0,0:0:0:0:
11,243,142127,2,0,P|80:216|107:215,1,56.9999982604981,6|0,1:2|0:0,0:0:0:0:
203,367,142276,2,0,P|176:357|151:343,1,56.9999982604981,6|0,1:2|0:0,0:0:0:0:
7,338,142424,6,0,P|59:266|155:316,1,199.499993911743,14|0,1:2|0:0,0:0:0:0:
152,344,142721,1,2,1:2:0:0:
277,163,142870,1,10,0:0:0:0:
311,273,143018,1,2,0:0:0:0:
151,99,143167,1,2,1:2:0:0:
366,93,143315,2,0,P|297:178|266:178,1,132.999995941162,10|0,0:2|1:0,0:0:0:0:
20,150,143612,6,0,P|122:127|194:118,1,132.999995941162,10|0,0:0|1:0,0:0:0:0:
369,310,143909,2,0,P|303:298|238:282,1,132.999995941162,10|0,0:0|1:0,0:0:0:0:
392,85,144206,1,8,0:0:0:0:
395,122,144281,1,8,0:0:0:0:
344,165,144355,2,0,P|359:100|385:39,1,132.999995941162,10|0,0:2|1:0,0:0:0:0:
487,155,144652,2,0,P|500:188|506:256,1,66.4999979705811,2|0,1:2|0:0,0:0:0:0:
353,358,144800,2,0,P|359:325|371:294,1,66.4999979705811,10|0,0:2|0:0,0:0:0:0:
500,248,144949,6,0,P|451:312|353:265,1,170.999994781494,6|0,1:2|0:0,0:0:0:0:
189,235,145246,2,0,P|253:223|313:224,1,113.999996520996,10|0,0:0|0:0,0:0:0:0:
121,317,145543,1,2,1:2:0:0:
225,336,145692,2,0,P|216:265|164:222,1,113.999996520996,2|8,1:2|0:2,0:2:0:0:
20,98,145989,6,0,B|106:82|91:170|195:136,1,170.999994781494,6|0,1:2|0:0,0:0:0:0:
337,162,146286,2,0,P|302:139|269:68,1,113.999996520996,2|8,1:2|0:0,0:0:0:0:
368,66,146583,1,2,0:0:0:0:
210,224,146731,1,2,1:2:0:0:
165,115,146880,1,2,1:2:0:0:
356,266,147028,1,10,0:0:0:0:
43,371,147177,1,2,1:2:0:0:
253,191,147325,6,0,P|230:276|219:378,1,170.999994781494,6|0,1:2|0:0,0:0:0:0:
355,380,147622,2,0,P|302:358|235:355,1,113.999996520996,10|0,0:0|0:0,0:0:0:0:
40,204,147919,2,0,P|62:245|132:243,1,113.999996520996,2|0,1:2|1:0,0:0:0:0:
11,123,148216,1,2,1:2:0:0:
249,125,148365,6,0,P|250:208|254:244,1,113.999996520996,14|0,0:0|1:0,0:0:0:0:
163,346,148662,1,8,3:0:0:0:
372,191,148810,1,8,3:0:0:0:
129,69,148959,1,8,3:0:0:0:
245,370,149107,1,8,3:0:0:0:
315,333,149256,1,8,3:0:0:0:
329,342,149330,1,8,3:0:0:0:
321,342,149404,2,0,P|260:329|187:338,1,113.999996520996,8|2,3:0|0:0,0:0:0:0:
73,371,149701,5,2,1:2:0:0:
31,294,149850,2,0,P|41:261|48:215,1,76,2|8,0:2|0:0,0:0:0:0:
154,130,150147,2,0,P|159:167|170:203,1,76,2|0,0:2|1:0,0:0:0:0:
293,248,150444,1,2,1:2:0:0:
293,248,150741,6,0,B|382:236|351:300|438:290,1,152,10|0,0:0|1:0,0:0:0:0:
477,194,151187,1,10,0:0:0:0:
472,211,151335,1,2,0:0:0:0:
365,339,151484,2,0,P|359:301|361:246,1,76,2|0,1:2|1:0,0:0:0:0:
302,183,151781,1,10,0:0:0:0:
288,207,151929,1,2,0:0:0:0:
161,290,152078,5,2,1:2:0:0:
78,274,152226,2,0,P|134:271|169:262,1,76,2|10,0:0|0:0,0:0:0:0:
216,164,152523,2,0,P|178:157|140:156,1,76,2|0,0:0|1:0,0:0:0:0:
167,253,152820,1,2,1:2:0:0:
88,88,152969,1,10,0:0:0:0:
300,210,153117,6,0,P|308:191|311:172,1,38,8|8,3:0|3:0,0:0:0:0:
384,123,153563,1,8,3:0:0:0:
274,224,153711,1,8,3:0:0:0:
334,280,153860,1,8,3:0:0:0:
280,318,154008,1,8,3:0:0:0:
289,341,154157,1,8,3:0:0:0:
269,353,154305,1,8,3:0:0:0:
423,286,154454,2,0,P|420:267|421:249,1,38,8|0,3:0|0:0,0:0:0:0:
383,163,154899,6,0,L|401:156,1,19,2|0,0:0|0:0,0:0:0:0:
484,93,155197,1,2,0:0:0:0:
484,93,155345,2,0,L|466:85,1,19,2|0,0:0|0:0,0:0:0:0:
429,12,155642,1,2,0:0:0:0:
86,90,163810,5,10,0:0:0:0:
427,283,164107,5,10,0:0:0:0:
427,283,164404,5,0,1:2:0:0:
468,181,164553,1,10,0:0:0:0:
323,281,164701,5,8,3:0:0:0:
336,290,164751,5,8,3:0:0:0:
323,316,164850,5,8,3:0:0:0:
323,316,164999,6,0,L|213:310,1,95,10|0,0:0|1:0,0:0:0:0:
50,285,165296,1,8,0:0:0:0:
50,285,165370,1,8,0:0:0:0:
50,285,165444,1,8,0:0:0:0:
50,285,165518,1,8,0:0:0:0:
50,285,165593,5,10,0:0:0:0:
16,245,165667,1,8,0:0:0:0:
20,191,165741,1,10,0:0:0:0:
53,151,165815,1,8,0:0:0:0:
98,137,165890,5,10,0:0:0:0:
154,187,165964,1,8,0:0:0:0:
227,205,166038,1,10,0:0:0:0:
296,174,166112,1,8,0:0:0:0:
324,102,166187,1,10,0:0:0:0:
298,30,166261,1,8,0:0:0:0:
224,11,166335,6,0,P|171:62|258:94,1,170.999994781494,14|0,1:2|0:0,0:0:0:0:
426,134,166632,2,0,P|373:101|307:108,1,113.999996520996,10|0,0:0|0:0,0:0:0:0:
475,53,166929,1,2,1:2:0:0:
323,101,167078,2,0,P|296:174|289:213,1,113.999996520996,2|8,1:2|0:0,0:0:0:0:
477,343,167375,6,0,P|453:278|316:278,1,170.999994781494,6|0,1:2|0:0,0:0:0:0:
226,340,167672,2,0,P|295:348|328:316,1,113.999996520996,2|8,1:2|0:0,0:0:0:0:
180,230,167969,1,2,1:2:0:0:
180,230,168043,1,8,0:0:0:0:
180,230,168117,1,2,1:2:0:0:
29,338,168266,1,2,1:2:0:0:
197,349,168414,1,2,0:0:0:0:
0,159,168563,1,10,0:0:0:0:
68,376,168711,6,0,P|22:320|81:215,1,170.999994781494,6|0,1:2|0:0,0:0:0:0:
157,115,169008,2,0,P|154:174|145:235,1,113.999996520996,10|0,0:0|0:0,0:0:0:0:
4,297,169305,1,2,1:2:0:0:
250,172,169454,1,2,1:2:0:0:
4,28,169602,1,10,0:0:0:0:
101,295,169751,6,0,P|170:223|245:278,1,170.999994781494,6|0,1:2|0:0,0:2:0:0:
292,327,170048,1,2,1:2:0:0:
101,295,170197,2,0,P|144:260|156:205,1,113.999996520996,10|0,0:0|0:0,0:0:0:0:
90,120,170494,1,2,1:2:0:0:
179,15,170642,1,2,1:2:0:0:
0,79,170791,2,0,P|-17:146|28:189,1,113.999996520996,10|0,0:0|1:0,0:0:0:0:
374,124,171088,6,0,B|279:103|308:195|206:176,1,170.999994781494,6|0,1:2|0:0,0:2:0:0:
418,50,171385,2,0,P|449:85|457:160,1,113.999996520996,10|0,0:0|0:0,0:0:0:0:
260,281,171682,2,0,P|263:215|274:161,1,113.999996520996,2|0,1:2|1:2,0:2:0:0:
190,357,171979,1,10,0:0:0:0:
463,152,172127,6,0,P|431:143|377:255,1,170.999994781494,6|0,1:2|0:0,0:2:0:0:
443,384,172424,2,0,P|454:319|454:263,1,113.999996520996,2|10,1:2|0:0,0:0:0:0:
296,151,172721,1,8,0:0:0:0:
296,151,172796,1,8,0:0:0:0:
296,151,172870,2,0,P|264:170|229:172,1,56.9999982604981,6|0,1:2|0:0,0:0:0:0:
39,46,173018,2,0,P|66:52|90:68,1,56.9999982604981,6|0,1:2|0:0,0:0:0:0:
116,312,173167,2,0,P|140:285|146:260,1,56.9999982604981,6|0,1:2|0:0,0:0:0:0:
238,79,173315,6,0,P|195:96|182:247,1,199.499993911743,14|0,1:2|0:0,0:0:0:0:
268,273,173612,1,2,1:2:0:0:
47,177,173761,1,10,0:2:0:0:
151,88,173909,1,2,0:2:0:0:
76,327,174058,2,0,P|72:261|55:173,1,132.999995941162,2|8,1:2|0:0,0:0:0:0:
0,384,174355,1,2,1:2:0:0:
154,185,174503,6,0,P|227:180|285:163,1,132.999995941162,10|0,0:0|1:0,0:0:0:0:
440,362,174800,2,0,P|375:344|309:340,1,132.999995941162,10|0,1:2|0:0,0:0:0:0:
93,262,175098,1,8,0:0:0:0:
76,327,175172,1,8,0:0:0:0:
130,375,175246,2,0,P|130:298|75:278,1,132.999995941162,10|0,0:0|1:1,0:0:0:0:
34,190,175543,2,0,P|66:177|104:177,1,66.4999979705811,2|0,1:2|0:0,0:0:0:0:
280,299,175692,2,0,P|247:297|217:285,1,66.4999979705811,10|0,0:0|0:0,0:0:0:0:
316,42,175840,6,0,P|289:156|267:210,1,170.999994781494,6|0,1:2|0:0,0:0:0:0:
157,342,176137,2,0,P|138:261|186:203,1,113.999996520996,10|0,0:0|0:0,0:0:0:0:
402,185,176434,1,2,1:2:0:0:
206,63,176583,1,2,1:2:0:0:
268,205,176731,1,10,0:0:0:0:
68,164,176880,6,0,P|98:76|181:63,1,170.999994781494,6|0,1:2|0:0,0:0:0:0:
234,258,177177,2,8,P|240:189|234:130,1,113.999996520996,2|8,1:2|0:0,0:0:0:0:
290,37,177474,1,2,0:0:0:0:
290,37,177548,1,0,0:0:0:0:
290,37,177622,1,2,1:2:0:0:
159,215,177771,1,2,1:2:0:0:
105,75,177919,1,10,0:0:0:0:
401,204,178068,1,2,1:2:0:0:
313,164,178216,6,0,P|375:110|457:126,1,170.999994781494,6|0,1:2|0:0,0:0:0:0:
400,329,178513,2,0,P|404:272|419:217,1,113.999996520996,10|0,0:0|0:0,0:0:0:0:
212,75,178810,2,0,P|232:180|229:222,1,113.999996520996,2|0,1:2|1:0,0:0:0:0:
129,152,179107,1,2,1:2:0:0:
439,116,179256,6,0,P|382:108|327:94,1,113.999996520996,14|0,0:0|0:0,0:0:0:0:
477,19,179553,1,8,3:0:0:0:
336,216,179701,1,8,3:0:0:0:
501,277,179850,1,8,3:0:0:0:
319,75,179999,1,8,3:0:0:0:
219,314,180147,1,8,3:0:0:0:
205,309,180221,1,8,3:0:0:0:
204,328,180296,2,0,P|267:332|334:344,1,113.999996520996,8|2,3:0|0:0,0:0:0:0:
237,376,180593,5,2,1:2:0:0:
404,275,180741,2,0,P|421:328|429:377,1,76,2|8,0:0|0:0,0:0:0:0:
295,247,181038,2,0,P|303:210|316:174,1,76,2|0,0:0|1:0,0:0:0:0:
434,83,181335,1,2,1:2:0:0:
434,83,181632,6,0,P|379:138|305:87,1,152,10|0,0:0|1:0,0:0:0:0:
218,63,182078,1,10,0:0:0:0:
209,89,182226,1,2,0:0:0:0:
80,176,182375,2,0,P|106:138|118:86,1,76,2|0,1:2|1:0,0:0:0:0:
11,79,182672,1,10,0:0:0:0:
19,101,182820,1,2,0:2:0:0:
37,267,182969,5,2,1:2:0:0:
46,286,183117,2,0,P|79:290|137:252,1,76,2|8,0:0|0:0,0:0:0:0:
253,309,183414,2,0,P|227:271|215:219,1,76,2|0,0:0|0:0,0:0:0:0:
312,142,183711,1,2,1:2:0:0:
312,142,184008,6,0,P|350:91|451:91,1,152,10|2,0:0|1:2,0:0:0:0:
500,153,184454,1,10,0:0:0:0:
423,213,184602,1,2,1:2:0:0:
481,149,184751,1,2,1:2:0:0:
507,259,184899,1,2,1:2:0:0:
489,135,185048,1,10,0:2:0:0:
438,320,185197,1,2,1:2:0:0:
438,320,185271,1,2,1:2:0:0:
438,320,185345,6,0,B|359:312|377:367|286:349,1,152,2|8,1:2|0:0,0:0:0:0:
217,229,185791,1,2,1:2:0:0:
51,375,186088,1,2,1:2:0:0:
51,375,186385,6,0,P|85:328|28:228,1,152,10|2,0:0|1:2,0:0:0:0:
149,138,186830,1,10,0:0:0:0:
67,211,186979,1,2,0:0:0:0:
26,79,187127,2,0,P|73:82|117:40,1,76,10|0,0:0|1:2,0:0:0:0:
123,20,187350,1,0,1:2:0:0:
123,20,187424,1,0,1:2:0:0:
219,201,187573,1,12,0:0:0:0:
418,92,189503,5,0,0:0:0:0:
418,92,189578,1,0,0:0:0:0:
418,92,189652,2,0,L|414:140,1,47.5
203,97,190098,6,0,B|314:95|277:206|397:172,1,209.000006378174,4|8,1:2|0:0,0:0:0:0:
487,100,190543,2,0,P|502:140|502:166,1,52.2500015945435,8|8,0:0|0:0,0:0:0:0:
351,291,190692,1,0,1:0:0:0:
295,207,190840,1,0,1:0:0:0:
495,305,190989,1,8,0:0:0:0:
231,350,191137,6,0,P|259:303|161:196,1,209.000006378174,4|0,1:2|1:0,0:0:0:0:
104,291,191583,1,8,0:0:0:0:
17,127,191731,1,8,0:0:0:0:
17,127,191805,1,8,0:0:0:0:
17,127,191880,2,0,P|61:150|117:142,1,104.500003189087,0|0,1:0|1:0,0:0:0:0:
284,190,192177,2,0,P|232:183|187:206,1,104.500003189087,8|0,0:0|1:0,0:0:0:0:
320,384,192474,6,0,P|310:292|302:171,1,209.000006378174,4|8,1:2|0:0,0:0:0:0:
354,46,192919,1,0,0:0:0:0:
163,220,193068,1,0,1:0:0:0:
281,177,193216,1,0,1:0:0:0:
120,11,193365,1,8,0:0:0:0:
364,128,193513,6,0,P|280:74|197:128,1,209.000006378174,4|0,1:2|1:0,0:0:0:0:
434,208,193959,2,0,P|419:258|415:310,1,104.500003189087,8|0,0:0|0:0,0:0:0:0:
512,149,194256,1,0,1:0:0:0:
467,50,194404,1,0,1:0:0:0:
264,196,194553,1,8,0:0:0:0:
309,97,194701,1,0,1:0:0:0:
401,187,194850,6,0,B|288:176|324:270|203:251,1,209.000006378174,4|8,1:2|0:0,0:0:0:0:
72,114,195296,1,8,0:0:0:0:
72,114,195370,1,8,0:0:0:0:
72,114,195444,2,0,P|82:140|100:219,1,104.500003189087,0|0,1:2|1:0,0:0:0:0:
24,309,195741,1,8,0:0:0:0:
229,354,195890,6,0,P|226:283|352:268,1,209.000006378174,4|0,1:2|1:0,0:0:0:0:
221,371,196335,1,8,0:0:0:0:
327,160,196484,1,0,0:0:0:0:
327,160,196558,1,0,0:0:0:0:
327,160,196632,1,0,1:0:0:0:
235,219,196781,1,0,1:0:0:0:
420,335,196929,1,8,0:0:0:0:
463,81,197078,1,0,1:0:0:0:
463,81,197152,1,0,1:0:0:0:
463,81,197226,6,0,B|432:32|385:13|385:13|336:32|304:80,1,209.000006378174,4|8,1:2|0:0,0:0:0:0:
389,210,197672,1,0,0:0:0:0:
204,144,197820,1,0,1:2:0:0:
288,86,197969,1,0,1:2:0:0:
75,299,198117,1,8,0:0:0:0:
124,166,198266,6,0,B|104:145|110:119|110:119|148:110|185:126|208:159|212:226,1,209.000006378174,4|0,1:2|1:0,0:0:0:0:
192,358,198711,5,8,0:0:0:0:
317,135,198860,1,0,1:0:0:0:
351,316,199008,1,8,0:0:0:0:
212,80,199157,1,0,1:0:0:0:
448,319,199305,2,0,P|408:286|336:289,1,104.500003189087,8|0,0:0|1:0,0:0:0:0:
162,255,199602,6,0,P|213:250|252:217,1,104.500003189087,8|0,0:0|1:0,0:0:0:0:
46,30,199899,2,0,P|43:86|34:150,1,104.500003189087,8|0,0:0|1:0,0:0:0:0:
91,195,200122,1,8,0:0:0:0:
147,166,200197,1,8,0:0:0:0:
208,175,200271,1,8,0:0:0:0:
253,217,200345,1,8,3:0:0:0:
282,253,200419,1,8,3:0:0:0:
329,258,200494,1,8,3:0:0:0:
378,252,200568,1,8,3:0:0:0:
414,222,200642,6,0,P|319:206|348:299,1,209.000006378174,12|0,1:2|1:0,0:0:0:0:
509,29,201088,2,0,P|492:77|446:99,1,104.500003189087,8|8,0:0|0:0,0:0:0:0:
312,76,201310,1,8,0:0:0:0:
312,76,201385,2,0,P|357:71|455:103,1,104.500003189087,0|0,1:0|1:0,0:0:0:0:
366,183,201682,1,8,0:0:0:0:
191,38,201830,1,0,1:0:0:0:
27,173,201979,6,0,P|16:109|6:64,1,104.500003189087,4|0,1:2|0:0,0:0:0:0:
232,160,202276,2,0,P|221:211|212:262,1,104.500003189087,8|0,0:0|0:0,0:0:0:0:
3,330,202573,1,0,1:0:0:0:
3,330,202647,1,0,1:0:0:0:
3,330,202721,1,0,1:0:0:0:
236,257,202870,1,8,0:0:0:0:
0,81,203018,6,0,B|118:66|68:161|210:128,1,209.000006378174,4|0,1:2|1:0,0:0:0:0:
358,63,203464,2,0,P|338:94|307:163,1,104.500003189087,8|0,0:0|0:0,0:0:0:0:
509,334,203761,2,0,P|488:286|460:241,1,104.500003189087,0|8,1:0|0:0,0:0:0:0:
420,223,203984,1,8,0:0:0:0:
420,223,204058,1,8,0:0:0:0:
169,374,204206,1,8,0:0:0:0:
169,374,204281,1,8,0:0:0:0:
169,374,204355,6,0,P|204:377|255:229,1,209.000006378174,12|8,1:2|0:0,0:0:0:0:
376,357,204800,1,0,0:0:0:0:
134,256,204949,1,0,1:0:0:0:
134,256,205023,1,0,1:0:0:0:
134,256,205098,2,0,P|96:204|106:154,1,104.500003189087,0|8,1:2|0:0,0:0:0:0:
250,15,205395,6,0,B|230:81|191:104|191:104|145:95|102:43,1,209.000006378174,4|0,1:2|1:0,0:0:0:0:
36,0,205840,2,0,P|23:28|18:68,1,52.2500015945435,8|0,0:0|0:0,0:0:0:0:
203,149,205989,2,0,P|197:123|185:100,1,52.2500015945435,0|0,1:2|0:0,0:0:0:0:
32,241,206137,2,0,P|102:258|177:240,1,104.500003189087,0|0,1:0|1:0,0:0:0:0:
213,159,206434,1,8,0:0:0:0:
388,282,206583,1,0,0:0:0:0:
285,309,206731,6,0,P|305:262|303:210,1,104.500003189087,4|0,1:2|0:0,0:0:0:0:
203,149,207028,1,0,1:0:0:0:
456,150,207177,1,8,0:3:0:0:
456,150,207251,1,8,0:3:0:0:
456,150,207325,1,8,0:3:0:0:
203,35,207474,1,8,0:0:0:0:
319,244,207622,1,0,1:0:0:0:
463,21,207771,1,8,0:0:0:0:
463,296,207919,5,0,1:0:0:0:
330,61,208068,1,8,0:0:0:0:
218,344,208216,1,8,0:0:0:0:
370,170,208365,2,0,P|402:228|398:300,1,104.500003189087,8|8,0:0|0:0,0:0:0:0:
89,101,208662,2,0,P|101:44|121:10,2,52.2500015945435,0|0|4,1:0|1:0|1:2,0:0:0:0:
89,101,209107,6,0,L|96:187,1,85.4999973907472,0|0,1:0|0:0,0:0:0:0:
29,319,209404,1,8,0:0:0:0:
29,319,209553,2,0,L|73:301,2,42.7499986953736,0|0|0,0:0|0:0|1:0,0:0:0:0:
155,238,209850,1,0,1:0:0:0:
155,238,210147,6,0,P|170:286|276:303,1,170.999994781494,8|0,0:0|1:0,0:0:0:0:
317,219,210593,1,8,0:0:0:0:
417,316,210741,1,0,0:0:0:0:
401,305,210890,2,0,L|408:219,1,85.4999973907472,0|0,1:0|1:0,0:0:0:0:
301,137,211187,1,8,0:0:0:0:
290,127,211335,6,0,L|281:68,2,42.7499986953736,0|0|0,0:0|0:0|1:0,0:0:0:0:
278,3,211632,1,0,0:0:0:0:
278,3,211706,1,0,0:0:0:0:
278,3,211781,1,8,0:0:0:0:
407,128,211929,2,0,L|400:170,2,42.7499986953736,0|0|0,0:0|0:0|1:0,0:0:0:0:
321,127,212226,2,0,P|262:128|206:231,1,170.999994781494,0|8,1:0|0:0,0:0:0:0:
203,214,212820,6,0,L|103:202,1,85.4999973907472,0|8,1:0|0:0,0:0:0:0:
267,271,213117,2,0,L|167:259,1,85.4999973907472,0|0,0:0|1:0,0:0:0:0:
115,172,213414,1,0,1:0:0:0:
31,299,213563,1,8,0:0:0:0:
28,267,213637,1,8,0:0:0:0:
25,235,213711,1,8,0:0:0:0:
22,203,213786,1,0,1:0:0:0:
20,171,213860,5,0,1:0:0:0:
15,57,214008,1,0,0:0:0:0:
15,57,214083,1,0,0:0:0:0:
15,57,214157,1,8,0:0:0:0:
104,108,214305,2,0,L|164:92,2,42.7499986953736,0|0|0,0:0|0:0|1:0,0:0:0:0:
196,22,214602,1,0,1:0:0:0:
196,22,214899,6,0,P|148:54|221:133,1,170.999994781494,8|0,0:0|1:0,0:0:0:0:
297,84,215345,1,8,0:0:0:0:
397,173,215494,1,0,0:0:0:0:
397,173,215568,1,0,0:0:0:0:
397,173,215642,1,0,1:0:0:0:
454,85,215791,1,0,1:0:0:0:
300,248,215939,1,8,0:0:0:0:
300,248,216236,6,0,B|215:254|249:325|133:306,1,170.999994781494,4|8,1:2|0:0,0:0:0:0:
147,307,216830,1,0,1:0:0:0:
53,359,216979,2,0,P|47:290|30:236,1,85.4999973907472,0|8,1:0|0:0,0:0:0:0:
4,184,217276,1,0,1:0:0:0:
4,184,217573,6,0,P|68:172|104:141,1,85.4999973907472,0|8,1:0|0:0,0:0:0:0:
203,38,217870,2,0,P|165:18|122:15,1,85.4999973907472,0|8,0:0|3:0,0:0:0:0:
51,35,218093,1,8,0:0:0:0:
108,23,218167,1,8,0:0:0:0:
159,54,218241,1,8,0:0:0:0:
178,112,218315,1,8,0:0:0:0:
185,174,218390,1,8,3:0:0:0:
230,218,218464,1,8,3:0:0:0:
293,224,218538,1,8,3:0:0:0:
319,206,218612,1,8,3:0:0:0:
350,204,218687,1,8,3:0:0:0:
417,265,218761,5,12,0:0:0:0:
256,192,218835,12,0,219800,0:0:0:0:
