osu file format v14

[General]
AudioFilename: audio.mp3
AudioLeadIn: 0
PreviewTime: 74656
Countdown: 0
SampleSet: Soft
StackLeniency: 0.4
Mode: 0
LetterboxInBreaks: 0
WidescreenStoryboard: 1

[Editor]
Bookmarks: 7698,22698,37698,45198,60198,103323,133323,194111,195238
DistanceSpacing: 1.2
BeatDivisor: 3
GridSize: 4
TimelineZoom: 1.9

[Metadata]
Title:Yobanashi Deceive
TitleUnicode:夜咄ディセイブ
Artist:JIN feat. LiSA & MARiA from GARNiDELiA
ArtistUnicode:じん feat. LiSA & メイリア from GARNiDELiA
Creator:Nevo
Version:Seto's Normal
Source:カゲロウプロジェクト
Tags:byd bite you death vocaloid Mekakucity メカクシティアクターズ Actors reload project カゲロウプロジェ 自然の敵P Shizen no Teki P Teki-P TekiP じん Blindfold daze kagerou seto kousuke airincat smokelind kano shuuya
BeatmapID:2004347
BeatmapSetID:952047

[Difficulty]
HPDrainRate:4
CircleSize:3
OverallDifficulty:3
ApproachRate:5
SliderMultiplier:0.7
SliderTickRate:1

[Events]
//Background and Video events
0,0,"9 yobanana.jpg",0,0
//Break Periods
2,37864,43979
2,88554,102098
2,146675,148524
2,150674,152278
2,154426,155987
2,177348,183670
//Storyboard Layer 0 (Background)
//Storyboard Layer 1 (Fail)
//Storyboard Layer 2 (Pass)
//Storyboard Layer 3 (Foreground)
//Storyboard Sound Samples

[TimingPoints]
190,232.558139534884,4,2,2,50,1,0
190,-100,4,2,2,50,0,0
2980,240,4,2,2,50,1,0
3678,232.558139534884,4,2,2,50,1,0
3940,233.463035019455,4,2,2,50,1,0
5574,224.719101123595,4,2,2,55,1,0
5579,-100,4,2,2,55,0,0
5798,255.31914893617,4,2,2,55,1,0
6054,234.375,4,2,2,60,1,0
6405,244.897959183673,4,2,2,60,1,0
6772,217.391304347826,4,2,2,60,1,0
6989,235.294117647059,4,2,2,60,1,0
7695,233.918128654971,4,2,2,70,1,0
10502,222.222222222222,4,2,2,70,1,0
10724,243.90243902439,4,2,2,70,1,0
11211,233.463035019455,4,2,2,70,1,0
11678,222.222222222222,4,2,2,70,1,0
11789,235.294117647059,4,2,2,70,1,0
11906,239.043824701195,4,2,2,70,1,0
12385,230.769230769231,4,2,2,70,1,0
12615,233.690360272639,4,2,2,70,1,0
13549,232.558139534884,4,2,2,70,1,0
14944,222.222222222222,4,2,2,70,1,0
15166,234.375,4,2,2,70,1,0
18916,238.000793335978,4,2,2,70,1,0
21058,203.389830508475,4,2,2,70,1,0
21262,240,4,2,2,70,1,0
21502,236.220472440944,4,2,2,70,1,0
21975,275.229357798165,4,2,2,70,1,0
22112,225.563909774436,4,2,2,70,1,0
22563,270.27027027027,4,2,2,70,1,0
22698,230.769230769231,4,2,2,60,1,0
22698,-100,4,2,2,60,0,0
23621,233.463035019455,4,2,2,60,1,0
24554,235.294117647059,4,2,2,60,1,0
25730,226.415094339623,4,2,2,60,1,0
26182,244.897959183673,4,2,2,60,1,0
26426,236.220472440945,4,2,2,60,1,0
29260,230.769230769231,4,2,2,60,1,0
30644,240,4,2,2,60,1,0
31124,232.558139534884,4,2,2,60,1,0
32054,234.375,4,2,2,60,1,0
32991,230.769230769231,4,2,2,60,1,0
33914,238.095238095238,4,2,2,60,1,0
34866,234.375,4,2,2,60,1,0
36623,222.222222222222,4,2,2,60,1,0
36734,232.558139534884,4,2,2,60,1,0
37664,230.769230769231,4,2,2,70,1,0
38125,238.095238095238,4,2,2,70,1,0
38601,238.095238095238,4,2,2,70,1,0
39553,236.220472440945,4,2,2,70,1,0
41206,230.769230769231,4,2,2,70,1,0
41436,234.375,4,2,2,70,1,0
44951,228.136882129278,4,2,2,60,1,0
45179,234.833659491194,4,2,2,60,1,0
45198,-100,4,2,2,60,0,0
47527,230.769230769231,4,2,2,60,1,0
47988,233.463035019455,4,2,2,60,1,0
48688,229.007633587786,4,2,2,60,1,0
48917,238.095238095238,4,2,2,60,1,0
49393,240,4,2,2,60,1,0
49873,234.375,4,2,2,60,1,0
51279,229.007633587786,4,2,2,60,1,0
51966,235.294117647059,4,2,2,60,1,0
52436,230.769230769231,4,2,2,60,1,0
52666,235.294117647059,4,2,2,60,1,0
53136,235.294117647059,4,2,2,60,1,0
53606,260.869565217391,4,2,2,60,1,0
53736,226.415094339623,4,2,2,60,1,0
54188,235.294117647059,4,2,2,60,1,0
54423,285.714285714286,4,2,2,60,1,0
54565,234.375,4,2,2,60,1,0
55502,227.272727272727,4,2,2,60,1,0
56410,241.935483870968,4,2,2,60,1,0
56893,240,4,2,2,60,1,0
57133,234.375,4,2,2,60,1,0
57367,234.375,4,2,2,60,1,0
58304,230.769230769231,4,2,2,60,1,0
58765,238.095238095238,4,2,2,60,1,0
59241,236.220472440945,4,2,2,60,1,0
59949,230.769230769231,4,2,2,60,1,0
60179,235.294117647059,4,2,2,55,1,0
61826,221.40221402214,4,2,2,55,1,0
62047,235.294117647059,4,2,2,55,1,0
63223,234.375,4,2,2,55,1,0
63926,234.375,4,2,2,55,1,0
65976,-100,4,2,2,5,0,0
66035,-100,4,2,2,55,0,0
66211,-100,4,2,2,5,0,0
66269,-100,4,2,2,55,0,0
66445,-100,4,2,2,5,0,0
66504,-100,4,2,2,55,0,0
67207,240,4,2,2,55,1,0
67687,235.294117647059,4,2,2,55,1,0
68392,230.769230769231,4,2,2,55,1,0
68622,230.769230769231,4,2,2,55,1,0
69545,230.769230769231,4,2,2,55,1,0
70237,236.686390532544,4,2,2,55,1,0
70473,236.686390532544,4,2,2,55,1,0
71419,245.901639344262,4,2,2,60,1,0
71910,222.222222222222,4,2,2,60,1,0
72354,240,4,2,2,60,1,0
73074,241.935483870968,4,2,3,60,1,0
73315,-100,4,2,2,60,0,0
73437,223.880597014925,4,2,2,60,1,0
73772,240,4,2,2,60,1,0
74012,230.769230769231,4,2,2,60,1,0
74473,242.914979757085,4,2,2,50,1,0
74715,235.294117647059,4,2,2,55,1,0
74729,-100,4,2,2,55,0,0
74832,-100,4,2,2,5,0,0
74950,-100,4,2,2,55,0,0
75067,-100,4,2,2,5,0,0
75186,230.769230769231,4,2,2,75,1,0
75186,-100,4,2,2,75,0,1
76109,236.686390532544,4,2,2,75,1,1
78002,233.690360272639,4,2,2,75,1,1
81741,230.769230769231,4,2,2,75,1,1
82434,230.769230769231,4,2,2,75,1,1
82664,234.833659491194,4,2,2,75,1,1
84307,233.463035019455,4,2,2,75,1,1
84540,233.463035019455,4,2,2,75,1,1
85240,238.095238095238,4,2,2,75,1,1
85478,238.095238095238,4,2,2,75,1,1
86192,228.136882129278,4,2,2,75,1,1
86420,236.220472440945,4,2,2,75,1,1
87482,-100,4,2,3,75,0,1
87837,230.769230769231,4,2,2,75,1,1
88298,236.220472440945,4,2,2,60,1,1
88298,-100,4,2,2,60,0,0
90187,234.375,4,2,2,60,1,0
93468,226.415094339623,4,2,2,60,1,0
93920,232.558139534884,4,2,2,60,1,0
95296,259.74025974026,4,2,2,60,1,0
95354,-100,4,2,2,60,0,0
95750,-100,4,2,2,5,0,0
95816,232.558139534884,4,2,2,70,1,0
95823,-100,4,2,2,70,0,0
96978,-100,4,2,3,70,0,0
97095,-100,4,2,2,70,0,0
97443,-100,4,2,3,70,0,0
97560,-100,4,2,2,70,0,0
97676,235.756385068762,4,2,2,70,1,0
98383,-100,4,2,3,70,0,0
98501,-100,4,2,2,70,0,0
98972,-100,4,2,3,70,0,0
99090,-100,4,2,2,70,0,0
100269,-100,4,2,3,70,0,0
100387,-100,4,2,2,70,0,0
100505,233.463035019455,4,2,2,70,1,0
102372,231.660231660232,4,2,2,70,1,0
103298,236.686390532544,4,2,2,60,1,0
103323,-100,4,2,2,60,0,0
104718,230.769230769231,4,2,2,60,1,0
105179,230.769230769231,4,2,2,60,1,0
105640,236.220472440945,4,2,2,60,1,0
105994,-100,4,2,3,60,0,0
106112,236.220472440945,4,2,2,60,1,0
106584,-100,4,2,3,50,0,0
107057,244.897959183673,4,2,2,60,1,0
107301,230.769230769231,4,2,2,60,1,0
107531,228.136882129278,4,2,2,60,1,0
108215,250,4,2,2,60,1,0
108465,232.558139534884,4,2,2,60,1,0
108930,234.375,4,2,2,60,1,0
109164,-100,4,2,3,60,0,0
109398,230.769230769231,4,2,2,60,1,0
109801,-100,4,2,2,5,0,0
109860,232.558139534884,4,2,2,60,1,0
110034,-100,4,2,2,5,0,0
110092,-100,4,2,2,60,0,0
110266,-100,4,2,2,5,0,0
110325,-100,4,2,2,60,0,0
110790,237.154150197628,4,2,2,60,1,0
112687,236.220472440945,4,2,2,60,1,0
113395,229.007633587786,4,2,2,60,1,0
113853,235.294117647059,4,2,2,60,1,0
114558,235.294117647059,4,2,2,60,1,0
115500,222.222222222222,4,2,2,60,1,0
115722,232.558139534884,4,2,2,60,1,0
116187,238.095238095238,4,2,2,60,1,0
116425,232.558139534884,4,2,2,60,1,0
117355,236.220472440945,4,2,2,60,1,0
117924,236.220472440945,4,2,2,60,1,0
118299,236.220472440945,4,2,2,60,1,0
118299,-100,4,2,2,50,0,0
118323,-100,4,2,2,50,0,0
120189,234.375,4,2,2,50,1,0
121595,243.90243902439,4,2,2,50,1,0
121838,270.27027027027,4,2,2,50,1,0
121973,234.375,4,2,2,50,1,0
121973,-99.009900990099,4,2,2,50,0,0
122090,230.769230769231,4,2,2,50,1,0
123013,227.272727272727,4,2,2,50,1,0
123183,-100,4,2,2,5,0,0
123240,244.897959183673,4,2,2,50,1,0
123423,-100,4,2,2,5,0,0
123484,232.558139534884,4,2,2,50,1,0
123658,-100,4,2,2,5,0,0
123716,247.933884297521,4,2,2,50,1,0
123901,-100,4,2,2,5,0,0
123936,234.375,4,2,2,50,1,0
124639,-99.009900990099,4,2,2,50,0,0
124873,238.095238095238,4,2,2,50,1,0
125587,220.588235294118,4,2,2,50,1,0
125807,236.220472440945,4,2,2,55,1,0
126515,263.157894736842,4,2,2,55,1,0
126777,223.880597014925,4,2,2,55,1,0
127224,234.375,4,2,2,55,1,0
128161,241.935483870968,4,2,2,55,1,0
128886,235.294117647059,4,2,2,55,1,0
128887,-100,4,2,2,55,0,0
129121,215.05376344086,4,2,3,55,1,0
129121,-100,4,2,3,55,0,0
129551,234.375,4,2,2,60,1,0
129551,-100,4,2,2,60,0,0
131543,263.157894736842,4,2,2,60,1,0
131806,234.375,4,2,2,60,1,0
132274,217.391304347826,4,2,2,60,1,0
132600,234.375,4,2,2,50,1,0
132834,-100,4,2,2,55,0,0
132951,-100,4,2,2,5,0,0
133068,-100,4,2,2,55,0,0
133185,-100,4,2,2,5,0,0
133305,232.558139534884,4,2,2,75,1,0
133305,-100,4,2,2,75,0,1
134002,235.294117647059,4,2,2,75,1,1
134237,235.294117647059,4,2,2,75,1,1
135413,232.558139534884,4,2,2,75,1,1
136110,238.095238095238,4,2,2,75,1,1
136824,232.558139534884,4,2,2,75,1,1
137056,232.558139534884,4,2,2,75,1,1
138451,250,4,2,2,75,1,1
138701,225.563909774436,4,2,2,75,1,1
138926,230.769230769231,4,2,2,75,1,1
139618,-101.010101010101,4,2,2,75,0,1
139849,236.220472440945,4,2,2,75,1,1
140793,260.869565217391,4,2,2,75,1,1
141056,222.222222222222,4,2,2,75,1,1
141278,-99.009900990099,4,2,2,75,0,1
141500,232.558139534884,4,2,2,75,1,1
141965,245.901639344262,4,2,2,75,1,1
142456,232.558139534884,4,2,2,75,1,1
143854,252.100840336134,4,2,2,75,1,1
144232,224.719101123595,4,2,2,75,1,1
144569,222.222222222222,4,2,2,75,1,1
144569,-99.009900990099,4,2,2,75,0,1
144791,234.375,4,2,2,75,1,1
145376,-100,4,2,3,75,0,1
145962,-100,4,2,2,75,0,1
146443,252.100840336134,4,2,2,70,1,1
146695,223.880597014925,4,2,2,60,1,0
147142,291.26213592233,4,2,2,60,1,0
147433,387.096774193548,4,2,2,60,1,0
147755,238.095238095238,4,2,2,60,1,0
147993,230.769230769231,4,2,2,60,1,0
148223,215.827338129496,4,2,2,60,1,0
148330,234.375,4,2,2,60,1,0
149619,210.526315789474,4,2,2,60,1,0
149723,-100,4,2,2,60,0,0
149724,221.40221402214,4,2,2,60,1,0
150277,276.497695852535,4,2,2,60,1,0
150415,225.563909774436,4,2,2,60,1,0
150640,234.375,4,2,2,60,1,0
150991,238.095238095238,4,2,2,60,1,0
151229,230.769230769231,4,2,2,60,1,0
151690,265.486725663717,4,2,2,60,1,0
151955,220.588235294118,4,2,2,60,1,0
152176,267.857142857143,4,2,2,60,1,0
152309,230.769230769231,4,2,2,60,1,0
153001,209.79020979021,4,2,2,60,1,0
153158,320.855614973262,4,2,2,60,1,0
153238,238.095238095238,4,2,2,60,1,0
153463,-100,4,2,2,60,0,0
153478,230.769230769231,4,2,2,60,1,0
154170,222.222222222222,4,2,2,60,1,0
154503,234.375,4,2,2,60,1,0
155440,234.375,4,2,2,60,1,0
155674,258.620689655172,4,2,2,60,1,0
155803,230.769230769231,4,2,2,60,1,0
156495,225.563909774436,4,2,2,60,1,0
156841,230.769230769231,4,2,2,60,1,0
156956,230.769230769231,4,2,2,60,1,0
157591,222.222222222222,4,2,2,60,1,0
157924,243.90243902439,4,2,2,60,1,0
158167,283.018867924528,4,2,2,30,1,0
158237,-100,4,2,2,40,0,0
158450,-100,4,2,2,50,0,0
158591,-100,4,2,2,60,0,0
158749,232.558139534884,4,2,2,60,1,0
158945,283.018867924528,4,2,2,60,1,0
159244,218.181818181818,4,2,2,60,1,0
159586,230.769230769231,4,2,2,60,1,0
159593,-100,4,2,2,60,0,0
160855,222.222222222222,4,2,2,60,1,0
161410,267.857142857143,4,2,2,80,1,0
161410,-100,4,2,2,80,0,1
161677,230.769230769231,4,2,2,80,1,1
162371,230.769230769231,4,2,2,80,1,1
163294,238.095238095238,4,2,2,80,1,1
163532,228.136882129278,4,2,2,80,1,1
163871,270.27027027027,4,2,2,80,1,1
164123,234.375,4,2,2,80,1,1
164256,225.563909774436,4,2,2,80,1,1
165158,235.294117647059,4,2,2,80,1,1
166099,238.095238095238,4,2,2,80,1,1
167051,236.220472440945,4,2,2,80,1,1
168468,232.558139534884,4,2,2,80,1,1
168933,238.095238095238,4,2,2,80,1,1
169885,232.558139534884,4,2,2,80,1,1
171745,230.769230769231,4,2,2,80,1,1
172668,234.375,4,2,2,80,1,1
173605,235.294117647059,4,2,2,80,1,1
175016,-100,4,2,3,80,0,1
175505,253.164556962025,4,2,2,80,1,1
175505,-100,4,2,2,80,0,1
176012,260.869565217391,4,2,2,70,1,0
176404,236.220472440945,4,2,2,70,1,0
177360,256.410256410256,4,2,2,70,1,0
177361,-100,4,2,2,70,0,0
178066,300,4,2,2,70,1,0
178216,225.563909774436,4,2,2,70,1,0
178216,-100,4,2,2,70,0,0
178328,225.563909774436,4,2,2,70,1,0
179118,243.90243902439,4,2,2,70,1,0
179239,243.90243902439,4,2,2,70,1,0
179482,234.375,4,2,2,70,1,0
180185,234.375,4,2,2,70,1,0
181120,-100,4,2,2,70,0,0
181122,235.294117647059,4,2,2,70,1,0
183710,-100,4,2,3,70,0,0
183827,-100,4,2,2,70,0,0
184416,227.272727272727,4,2,2,70,1,0
184870,240,4,2,2,70,1,0
186310,232.558139534884,4,2,2,70,1,0
186775,229.007633587786,4,2,2,70,1,0
186789,-100,4,2,2,70,0,0
188607,240.963855421687,4,2,2,70,1,0
188621,-100,4,2,2,70,0,0
189570,232.558139534884,4,2,2,70,1,0
190376,238.095238095238,4,2,2,70,1,0
190495,237.154150197628,4,2,2,70,1,0
190495,-100,4,2,2,70,0,0
192866,225.563909774436,4,2,2,70,1,0
193204,234.375,4,2,2,70,1,0
194120,275.229357798165,4,2,2,70,1,0
195220,250,4,2,2,70,1,0
195386,216.606498194946,4,2,2,70,1,0
195458,232.558139534884,4,2,2,70,1,0

[Colours]
Combo1 : 206,0,0
Combo2 : 255,157,26
Combo3 : 199,199,199

[HitObjects]
256,192,3940,12,6,6054,3:0:0:0:
99,93,7224,5,2,3:2:0:0:
266,34,7695,6,0,P|301:70|277:163,1,140,4|12,3:2|0:0,0:0:0:0:
239,221,8396,1,0,1:0:0:0:
157,199,8630,2,0,L|10:208,1,140,0|8,0:0|0:0,0:0:0:0:
14,375,9566,2,0,L|157:381,1,140,0|8,3:0|0:0,0:0:0:0:
217,325,10268,1,0,1:0:0:0:
150,266,10502,2,0,P|145:237|159:195,1,70,0|2,0:0|3:0,0:0:0:0:
216,139,10967,1,8,0:0:0:0:
312,280,11444,6,0,P|360:291|387:287,1,70,0|2,3:0|3:0,0:0:0:0:
449,247,11906,1,8,0:0:0:0:
482,75,12385,2,0,P|445:56|398:62,1,70,0|2,0:0|3:0,0:0:0:0:
336,78,12848,1,8,0:0:0:0:
286,238,13316,2,0,P|230:241|201:229,1,70,0|2,3:0|3:0,0:0:0:0:
137,261,13781,2,0,L|151:376,2,105,8|0|2,0:0|3:0|3:0,0:0:0:0:
77,201,14711,1,8,0:0:0:0:
157,50,15166,6,0,P|242:81|222:153,1,140,4|8,3:2|0:0,0:0:0:0:
262,205,15869,1,0,1:0:0:0:
319,266,16103,2,0,L|487:266,1,140,0|8,0:0|0:0,0:0:0:0:
470,97,17041,2,0,L|330:97,1,140,0|8,3:0|0:0,0:0:0:0:
274,170,17744,1,0,1:0:0:0:
193,193,17978,2,0,P|153:190|104:150,2,70,0|2|8,0:0|3:0|0:0,0:0:0:0:
213,28,18916,6,0,P|129:18|61:41,1,140,0|8,3:0|0:0,0:0:0:0:
25,99,19630,1,0,1:0:0:0:
59,175,19868,2,0,L|58:346,1,140,0|8,0:0|0:0,0:0:0:0:
216,371,20820,2,0,L|304:370,1,70,0|0,3:0|3:0,0:0:0:0:
368,351,21262,5,12,0:0:0:0:
463,211,21738,1,8,0:0:0:0:
354,89,22224,1,8,0:0:0:0:
181,98,22698,5,6,3:2:0:0:
77,233,23159,2,0,P|109:254|141:257,1,70,10|2,0:0|0:0,0:0:0:0:
216,213,23621,2,0,P|300:253|293:311,1,140,2|8,0:0|0:0,0:0:0:0:
156,371,24554,6,0,L|62:368,2,70,2|2|8,3:2|3:2|0:0,0:0:0:0:
228,328,25259,1,0,0:0:0:0:
301,368,25495,2,0,B|389:363,1,70,0|2,0:0|3:2,0:0:0:0:
451,342,25956,1,10,0:0:0:0:
458,118,26426,5,2,3:2:0:0:
301,38,26898,2,0,L|204:44,1,70,10|2,0:0|0:0,0:0:0:0:
148,28,27370,2,0,P|51:42|48:92,1,140,2|8,0:0|0:0,0:0:0:0:
36,153,28079,1,2,0:0:0:0:
95,207,28315,2,0,L|184:205,1,70,2|2,3:2|3:2,0:0:0:0:
228,261,28788,2,0,P|230:303|217:352,2,70,10|0|0,0:0|0:0|0:0,0:0:0:0:
289,204,29490,2,0,L|292:121,1,70,0|8,3:0|0:0,0:0:0:0:
446,23,30183,5,2,3:2:0:0:
490,193,30644,2,0,L|473:290,1,70,10|2,0:0|0:0,0:0:0:0:
418,325,31124,2,0,B|378:318|350:338|350:338|325:318|276:329,1,140,2|8,0:0|0:0,0:0:0:0:
118,341,32054,6,0,P|85:356|29:361,2,70,2|2|8,3:2|3:2|0:0,0:0:0:0:
146,261,32757,1,0,0:0:0:0:
99,189,32991,2,0,P|111:120|189:100,1,140,0|10,0:0|0:0,0:0:0:0:
372,49,33914,5,2,3:2:0:0:
291,196,34390,2,0,L|302:290,1,70,10|2,0:0|0:0,0:0:0:0:
359,335,34866,2,0,P|418:368|471:314,1,140,2|8,0:2|0:0,0:0:0:0:
478,159,35803,6,0,L|410:94,1,70,2|2,3:2|3:2,0:0:0:0:
361,58,36272,2,0,P|328:51|272:61,1,70,14|0,0:0|0:0,0:0:0:0:
236,115,36734,1,0,0:0:0:0:
279,186,36966,2,0,L|360:189,2,70,0|8|8,0:0|0:0|0:3,0:0:0:0:
210,239,37664,1,4,3:2:0:0:
80,192,45179,6,0,B|116:212|116:212|169:179|238:204,1,140,6|10,3:2|0:0,0:0:0:0:
283,238,45883,1,2,0:0:0:0:
330,168,46118,2,0,P|334:121|313:71,2,70,2|0|8,0:0|3:0|0:0,0:0:0:0:
385,231,46822,1,2,0:0:0:0:
352,308,47057,2,0,P|277:333|194:303,1,140,2|8,3:2|0:0,0:0:0:0:
140,291,47757,1,0,0:0:0:0:
57,296,47988,2,0,L|80:135,1,140,0|10,0:0|0:0,0:0:0:0:
230,40,48917,6,0,P|297:59|380:45,1,140,2|10,3:2|0:0,0:0:0:0:
447,29,49633,1,2,0:0:0:0:
491,102,49873,2,0,L|485:192,1,70,2|0,0:0|3:0,0:0:0:0:
482,255,50341,1,8,0:0:0:0:
319,246,50810,6,0,P|251:242|191:317,1,140,2|10,3:2|0:0,0:0:0:0:
127,331,51508,1,0,0:0:0:0:
63,275,51737,2,0,L|57:192,1,70,0|0,0:0|3:0,0:0:0:0:
46,122,52201,1,8,0:0:0:0:
217,124,52666,6,0,P|283:148|352:121,1,140,6|10,3:2|0:0,0:0:0:0:
470,212,53606,1,2,0:0:0:0:
411,351,54075,1,8,0:0:0:0:
256,267,54565,2,0,P|159:257|121:301,1,140,2|10,3:2|0:0,0:0:0:0:
50,300,55268,1,0,0:0:0:0:
12,220,55502,2,0,L|67:58,1,140,0|10,0:0|0:0,0:0:0:0:
226,31,56410,6,0,P|251:102|223:173,1,140,2|10,3:2|0:0,0:0:0:0:
163,212,57133,1,2,0:0:0:0:
199,287,57367,2,0,B|238:293|265:311|265:311|291:293|338:300,1,140,2|8,0:0|0:0,0:0:0:0:
414,313,58070,1,2,0:0:0:0:
471,249,58304,6,0,P|491:183|434:113,1,140,2|14,3:2|0:0,0:0:0:0:
387,77,59003,1,0,0:0:0:0:
329,138,59241,2,0,P|275:139|234:129,1,70,8|0,0:0|0:0,0:0:0:0:
196,80,59713,2,0,P|161:77|118:104,1,70,8|8,0:3|0:3,0:0:0:0:
49,109,60179,6,0,B|36:186|36:186|42:223,2,105,6|2|10,3:2|0:0|0:0,0:0:0:0:
167,228,61355,1,2,3:2:0:0:
236,181,61590,2,0,P|296:172|329:183,1,70,10|2,0:0|0:0,0:0:0:0:
372,226,62047,2,0,P|379:290|359:349,2,105,2|2|10,3:2|0:0|0:0,0:0:0:0:
452,77,63223,5,2,3:2:0:0:
369,93,63457,2,0,P|321:93|278:76,1,70,10|0,0:0|0:0,0:0:0:0:
231,38,63926,2,0,P|160:39|112:103,1,140,0|2,3:0|0:0,0:0:0:0:
41,126,64629,2,0,P|30:205|70:279,1,140,10|2,0:0|3:2,0:0:0:0:
126,298,65332,1,10,0:0:0:0:
261,198,65801,6,0,L|272:366,1,140,2|2,3:2|3:2,0:0:0:0:
346,372,66504,2,0,P|421:378|460:316,1,140,14|8,0:0|0:3,0:0:0:0:
459,249,67207,1,2,3:2:0:0:
347,118,67687,6,0,B|313:106|313:106|275:118|275:118|219:105,2,105,6|2|10,3:2|0:0|0:0,0:0:0:0:
255,253,68852,2,0,L|165:248,1,70,2|10,3:2|0:0,0:0:0:0:
105,219,69314,1,2,0:0:0:0:
32,261,69545,2,0,P|12:332|81:370,1,140,2|0,3:2|0:0,0:0:0:0:
141,358,70237,2,0,P|218:358|295:366,1,140,10|2,0:0|3:2,0:0:0:0:
362,379,70946,1,10,0:0:0:0:
488,226,71419,6,0,L|459:137,1,70,4|10,3:2|0:0,0:0:0:0:
396,107,71910,2,0,P|352:103|302:127,1,70,0|10,3:2|0:0,0:0:0:0:
288,184,72354,2,0,P|218:219|142:183,1,140,0|10,0:0|0:0,0:0:0:0:
56,72,73315,5,8,0:0:0:0:
402,76,75186,6,0,P|423:116|407:169,1,70,6|10,3:0|1:2,0:0:0:0:
379,212,75647,2,0,L|249:210,1,105,2|2,3:2|3:2,0:0:0:0:
179,128,76345,1,10,1:2:0:0:
99,156,76582,2,0,L|76:251,1,70,2|10,3:2|1:2,0:0:0:0:
104,305,77055,6,0,P|148:319|180:314,1,70,2|10,3:2|1:2,0:0:0:0:
245,277,77529,2,0,P|313:269|368:297,1,105,2|2,3:2|3:2,0:0:0:0:
462,232,78235,1,10,1:2:0:0:
462,147,78469,2,0,L|402:98,1,70,2|10,3:2|1:2,0:0:0:0:
324,89,78936,6,0,P|251:111|191:63,1,140,2|2,3:2|3:2,0:0:0:0:
60,121,79754,2,0,L|45:245,1,105,2|10,3:2|1:2,0:0:0:0:
80,302,80338,1,2,3:2:0:0:
163,311,80572,1,10,1:2:0:0:
219,248,80806,6,0,L|219:149,2,70,2|10|2,3:2|1:2|3:2,0:0:0:0:
281,304,81507,2,0,P|321:311|359:304,1,70,10|0,1:2|0:0,0:0:0:0:
468,188,82202,1,2,3:2:0:0:
375,48,82664,6,0,L|273:47,1,70,6|10,3:2|1:2,0:0:0:0:
218,91,83133,2,0,P|169:110|118:73,1,105,2|2,3:2|3:2,0:0:0:0:
25,163,83838,1,10,1:2:0:0:
35,246,84073,2,0,L|67:327,1,70,2|10,3:2|1:2,0:0:0:0:
135,351,84540,6,0,B|186:350|211:331|211:331|236:348|293:352,1,140,0|2,3:0|3:2,0:0:0:0:
376,288,85359,2,0,L|376:155,1,105,2|10,3:2|1:2,0:0:0:0:
344,105,85954,1,2,3:2:0:0:
261,106,86192,1,8,1:2:0:0:
195,160,86420,6,0,L|201:327,1,140,4|2,3:2|3:2,0:0:0:0:
33,283,87364,2,0,L|19:190,1,70,0|10,0:0|3:0,0:0:0:0:
29,129,87837,2,0,L|79:48,1,70,10|10,0:0|0:0,0:0:0:0:
139,33,88298,1,2,3:2:0:0:
413,84,103298,6,0,L|409:255,1,140,6|10,3:2|0:0,0:0:0:0:
385,304,104008,1,2,0:0:0:0:
305,330,104244,2,0,P|269:334|221:323,2,70,2|2|8,0:0|3:0|0:0,0:0:0:0:
269,165,105179,6,0,L|105:166,1,140,2|8,0:0|0:0,0:0:0:0:
40,75,105994,1,6,3:0:0:0:
40,75,107057,5,2,3:2:0:0:
203,14,107531,1,10,0:0:0:0:
286,21,107759,1,0,0:0:0:0:
324,101,107987,2,0,L|321:182,1,70,2|2,0:0|3:0,0:0:0:0:
320,256,108465,1,8,0:0:0:0:
480,293,108930,2,0,P|505:256|498:201,2,70,2|10|8,3:2|0:3|0:3,0:0:0:0:
383,374,109744,5,2,3:2:0:0:
13,348,110790,6,0,P|32:284|2:197,1,140,6|10,3:2|0:0,0:0:0:0:
113,78,111738,2,0,P|164:92|211:89,1,70,2|2,0:0|3:0,0:0:0:0:
241,34,112212,2,0,P|282:27|329:50,1,70,8|2,0:0|0:0,0:0:0:0:
385,70,112687,6,0,L|384:241,1,140,2|8,3:2|0:0,0:0:0:0:
327,275,113395,2,0,P|237:262|178:285,1,140,0|10,0:0|0:0,0:0:0:0:
129,333,114088,1,10,0:0:0:0:
41,189,114558,6,0,P|114:181|169:125,1,140,2|10,3:2|0:0,0:0:0:0:
208,68,115263,1,2,0:0:0:0:
289,90,115500,2,0,L|293:172,1,70,2|2,0:0|3:0,0:0:0:0:
294,243,115954,1,8,0:0:0:0:
151,364,116425,6,0,P|90:359|102:269,1,140,2|14,3:0|0:0,0:0:0:0:
164,275,117122,1,0,0:0:0:0:
232,331,117355,2,0,P|296:328|390:323,1,140,0|8,3:0|0:0,0:0:0:0:
475,170,118299,6,0,B|467:92|467:92|491:41,2,105,2|2|2,3:2|0:0|1:2,0:0:0:0:
315,222,119480,2,0,L|304:140,1,70,2|2,1:2|1:2,0:0:0:0:
264,79,119953,1,2,1:2:0:0:
192,123,120189,2,0,L|107:130,1,70,2|0,1:2|1:0,0:0:0:0:
56,185,120657,2,0,L|63:281,1,70,0|0,1:0|1:0,0:0:0:0:
193,358,121360,6,0,L|272:356,1,70,2|2,1:2|1:2,0:0:0:0:
394,321,121973,2,0,B|419:255|366:224|405:156,1,140,10|2,0:0|0:0,0:0:0:0:
406,58,122782,2,0,P|372:80|317:92,1,70,2|2,1:2|1:2,0:0:0:0:
257,98,123240,1,10,1:2:0:0:
197,41,123484,2,0,B|157:33|157:33|114:51,1,70,2|2,1:2|1:2,0:0:0:0:
56,82,123936,6,0,L|54:243,1,140,10|2,1:2|1:2,0:0:0:0:
96,299,124639,2,0,P|197:343|287:294,1,214,10|0,1:2|0:0,0:0:0:0:
390,178,125807,6,0,P|454:192|486:244,2,105,6|2|2,3:2|0:0|1:2,0:0:0:0:
220,243,127000,2,0,L|183:177,1,70,2|2,1:2|1:2,0:0:0:0:
155,103,127458,1,2,1:2:0:0:
227,61,127692,2,0,P|301:50|373:69,1,140,2|0,3:2|3:2,0:0:0:0:
423,124,128402,6,0,L|422:289,1,140,2|2,3:2|3:2,0:0:0:0:
355,327,129121,1,10,0:3:0:0:
272,313,129336,1,8,0:3:0:0:
192,348,129551,6,0,P|127:347|112:274,1,140,4|0,3:2|3:0,0:0:0:0:
124,201,130254,1,10,0:0:0:0:
207,194,130488,2,0,L|369:200,1,140,0|10,0:0|0:0,0:0:0:0:
482,46,131426,5,8,0:0:0:0:
382,302,133303,6,0,P|341:312|297:303,1,70,0|10,0:0|1:2,0:0:0:0:
233,253,133770,2,0,L|256:131,1,105,2|2,3:2|3:2,0:0:0:0:
189,34,134472,1,10,1:2:0:0:
105,61,134707,2,0,L|65:139,1,70,2|10,3:2|1:2,0:0:0:0:
21,189,135178,6,0,P|7:227|12:274,1,70,2|10,3:2|1:2,0:0:0:0:
59,321,135645,2,0,L|188:329,1,105,2|2,3:2|3:2,0:0:0:0:
264,252,136348,1,10,1:2:0:0:
323,310,136586,2,0,L|420:312,1,70,2|10,3:2|1:2,0:0:0:0:
464,267,137056,6,0,P|486:223|487:185,1,70,2|10,3:2|1:2,0:0:0:0:
476,119,137521,2,0,L|349:113,1,105,2|2,3:2|3:2,0:0:0:0:
268,43,138218,1,10,1:2:0:0:
200,89,138451,2,0,L|196:170,1,70,2|10,3:2|1:2,0:0:0:0:
140,226,138926,2,0,P|95:213|49:219,2,70,2|10|2,3:2|1:2|3:2,0:0:0:0:
181,301,139618,2,0,P|238:318|339:290,1,140,10|8,1:2|1:2,0:0:0:0:
391,266,140321,1,2,3:2:0:0:
308,138,140793,6,0,L|217:138,1,70,6|0,3:2|0:0,0:0:0:0:
163,180,141278,1,2,3:2:0:0:
95,130,141500,2,0,P|79:79|147:18,1,140,10|10,1:2|1:2,0:0:0:0:
215,15,142210,1,2,3:2:0:0:
281,73,142456,1,10,1:2:0:0:
364,73,142688,6,0,L|355:172,1,70,0|10,3:0|1:2,0:0:0:0:
292,197,143153,2,0,P|268:255|299:311,1,105,2|2,3:2|3:2,0:0:0:0:
393,324,143854,2,0,P|429:287|419:220,1,105,10|2,1:2|3:2,0:0:0:0:
398,111,144569,5,4,3:2:0:0:
268,11,145025,1,2,3:2:0:0:
150,109,145494,2,0,L|73:108,1,70,0|10,0:0|3:0,0:0:0:0:
22,169,145962,2,0,P|11:208|17:266,1,70,10|10,0:0|0:0,0:0:0:0:
46,317,146444,5,6,3:2:0:0:
379,258,149724,6,0,B|406:229|406:229|405:203|405:203|442:148,1,105,12|4,0:0|3:2,0:0:0:0:
133,258,153478,6,0,B|106:229|106:229|107:203|107:203|70:148,1,105,4|4,3:2|3:2,0:0:0:0:
312,56,157187,6,0,B|273:47|273:47|251:60|251:60|185:56,1,105,4|0,3:2|0:0,0:0:0:0:
401,300,159586,6,0,P|265:344|124:292,1,280,6|2,3:2|0:0,0:0:0:0:
157,32,161410,5,6,3:0:0:0:
201,107,161677,1,10,1:2:0:0:
276,70,161907,2,0,P|340:54|402:79,1,105,2|2,3:2|3:2,0:0:0:0:
481,134,162601,1,10,1:2:0:0:
432,202,162832,2,0,L|427:303,1,70,2|10,3:2|1:2,0:0:0:0:
370,330,163294,6,0,L|271:330,1,70,2|10,3:2|1:2,0:0:0:0:
236,274,163760,1,2,3:2:0:0:
129,349,164123,1,2,3:2:0:0:
15,279,164481,1,10,1:2:0:0:
13,194,164707,2,0,L|13:74,1,105,2|2,3:2|0:0,0:0:0:0:
130,49,165393,5,10,1:2:0:0:
198,97,165628,2,0,P|238:102|328:95,1,105,2|2,3:2|3:2,0:0:0:0:
421,59,166337,1,10,1:2:0:0:
475,123,166575,2,0,L|476:204,1,70,2|10,3:2|1:2,0:0:0:0:
436,268,167051,6,0,P|441:311|455:344,2,70,2|10|2,3:2|1:2|3:2,0:0:0:0:
365,223,167759,2,0,P|295:220|220:272,1,140,10|8,1:2|1:2,0:0:0:0:
158,294,168468,1,2,3:2:0:0:
82,254,168700,1,10,1:2:0:0:
54,176,168933,6,0,L|94:81,1,70,6|10,3:2|1:2,0:0:0:0:
143,55,169409,2,0,P|202:37|261:67,1,105,2|2,3:2|3:2,0:0:0:0:
321,170,170117,1,10,1:2:0:0:
260,228,170350,2,0,L|180:224,1,70,2|10,3:2|1:2,0:0:0:0:
114,261,170815,6,0,P|103:301|117:352,1,70,2|10,3:2|1:2,0:0:0:0:
177,374,171280,2,0,L|308:377,1,105,2|2,3:2|3:2,0:0:0:0:
406,373,171975,1,10,1:2:0:0:
453,299,172206,2,0,L|456:168,1,105,2|2,3:2|0:0,0:0:0:0:
420,51,172902,6,0,P|364:67|231:56,1,175,10|6,1:2|3:2,0:0:0:0:
57,337,174428,2,0,P|128:349|141:248,1,175,6|10,3:2|3:3,0:0:0:0:
62,131,175505,5,6,3:2:0:0:
382,95,184870,6,0,L|382:175,1,70,4|8,3:2|1:2,0:0:0:0:
438,231,185350,2,0,L|436:311,1,70,2|8,3:0|1:2,0:0:0:0:
368,350,185830,1,0,1:0:0:0:
295,307,186070,1,8,1:2:0:0:
222,354,186310,2,0,P|178:352|125:331,1,70,2|8,3:0|1:2,0:0:0:0:
96,280,186775,6,0,L|118:181,1,70,2|8,3:0|1:2,0:0:0:0:
173,155,187233,2,0,L|268:149,1,70,2|8,3:0|1:2,0:0:0:0:
244,66,187691,2,0,L|148:60,1,70,0|8,1:0|1:2,0:0:0:0:
97,26,188149,1,2,3:0:0:0:
31,79,188378,1,8,1:2:0:0:
28,166,188607,6,0,L|63:330,1,140,4|2,3:2|3:0,0:0:0:0:
123,354,189329,1,8,1:2:0:0:
189,296,189570,2,0,P|274:272|354:290,1,140,2|8,3:0|0:3,0:0:0:0:
485,189,190495,6,0,B|479:145|479:145|453:125|453:125|442:65,2,105,8|8|8,0:0|0:0|0:0,0:0:0:0:
478,314,191562,1,0,0:0:0:0:
213,189,192392,6,0,B|219:145|219:145|245:125|245:125|259:65,1,105,8|8,0:0|0:0,0:0:0:0:
141,32,193091,1,8,0:0:0:0:
37,101,193438,2,0,B|43:145|43:145|69:165|69:165|78:220,1,105,8|8,0:0|0:0,0:0:0:0:
256,192,194120,12,0,195220,0:0:0:0:
