osu file format v14

[General]
AudioFilename: audio.mp3
AudioLeadIn: 0
PreviewTime: 65250
Countdown: 0
SampleSet: Soft
StackLeniency: 0.7
Mode: 0
LetterboxInBreaks: 0
WidescreenStoryboard: 1

[Editor]
DistanceSpacing: 1.5
BeatDivisor: 4
GridSize: 32
TimelineZoom: 1.9

[Metadata]
Title:Children Record
TitleUnicode:チルドレンレコード
Artist:JIN feat. 96neko
ArtistUnicode:じん feat. 96猫
Creator:Lasse
Version:Insane
Source:カゲロウプロジェクト
Tags:kagerou project kagepro utaite cover japanese pop rock novelty female vocals full version アイリス Iris
BeatmapID:1944897
BeatmapSetID:931072

[Difficulty]
HPDrainRate:6
CircleSize:4
OverallDifficulty:8
ApproachRate:9
SliderMultiplier:1.8
SliderTickRate:0.5

[Events]
//Background and Video events
0,0,"b.jpg",0,0
//Break Periods
2,81379,88864
2,145522,153864
//Storyboard Layer 0 (Background)
//Storyboard Layer 1 (Fail)
//Storyboard Layer 2 (Pass)
//Storyboard Layer 3 (Foreground)
//Storyboard Sound Samples

[TimingPoints]
1322,285.714285714286,4,2,1,60,1,0
18322,-133.333333333333,4,2,1,60,0,0
18464,-133.333333333333,4,2,1,70,0,0
18893,-133.333333333333,4,2,1,50,0,0
19107,-133.333333333333,4,2,1,5,0,0
19179,-133.333333333333,4,2,1,50,0,0
19322,-133.333333333333,4,2,1,40,0,0
19464,-133.333333333333,4,2,1,60,0,0
28179,-200,4,2,1,50,0,0
28607,-133.333333333333,4,2,1,60,0,0
28822,-133.333333333333,4,2,1,30,0,0
28893,-133.333333333333,4,2,1,60,0,0
31107,-133.333333333333,4,2,1,30,0,0
31178,-133.333333333333,4,2,1,60,0,0
32036,-400,4,2,1,65,0,0
33036,-400,4,2,1,55,0,0
33179,-133.333333333333,4,2,1,60,0,0
33393,-133.333333333333,4,2,1,30,0,0
33464,-133.333333333333,4,2,1,60,0,0
35679,-133.333333333333,4,2,1,30,0,0
35750,-133.333333333333,4,2,1,60,0,0
36607,-100,4,2,1,65,0,0
36822,-100,4,2,1,30,0,0
36893,-125,4,2,1,65,0,0
37179,-100,4,2,1,65,0,0
37750,-100,4,2,1,70,0,0
39464,-133.333333333333,4,2,1,70,0,0
39750,-100,4,2,1,70,0,0
41393,-100,4,2,1,35,0,0
41464,-100,4,2,1,70,0,0
44036,-133.333333333333,4,2,1,70,0,0
44322,-100,4,2,1,70,0,0
46893,-200,4,2,1,60,0,0
60750,-133.333333333333,4,2,1,65,0,0
64750,-200,4,2,1,70,0,0
65036,-200,4,2,1,60,0,0
65322,-100,4,2,1,75,0,1
65536,-100,4,2,1,45,0,1
65607,-100,4,2,1,75,0,1
68107,-100,4,2,1,45,0,1
68178,-100,4,2,1,75,0,1
72679,-100,4,2,1,45,0,1
72750,-100,4,2,1,75,0,1
74464,-100,4,2,1,75,0,1
74679,-100,4,2,1,45,0,1
74750,-100,4,2,1,75,0,1
74964,-100,4,2,1,45,0,1
75035,-100,4,2,1,75,0,1
76179,-133.333333333333,4,2,1,75,0,1
76607,-100,4,2,1,75,0,1
78607,-133.333333333333,4,2,1,75,0,1
78893,-100,4,2,1,75,0,1
80250,-100,4,2,1,45,0,1
80321,-100,4,2,1,75,0,1
81179,-153.846153846153,4,2,1,70,0,0
81464,-153.846153846153,4,2,1,60,0,0
84607,-250,4,2,1,55,0,0
85750,-153.846153846153,4,2,1,60,0,0
89464,-200,4,2,1,50,0,0
90322,-133.333333333333,4,2,1,60,0,0
90536,-133.333333333333,4,2,1,30,0,0
90607,-133.333333333333,4,2,1,60,0,0
92822,-133.333333333333,4,2,1,30,0,0
92893,-133.333333333333,4,2,1,60,0,0
93750,-400,4,2,1,65,0,0
94750,-400,4,2,1,55,0,0
94893,-133.333333333333,4,2,1,60,0,0
95107,-133.333333333333,4,2,1,30,0,0
95178,-133.333333333333,4,2,1,60,0,0
96250,-133.333333333333,4,2,1,30,0,0
96321,-133.333333333333,4,2,1,60,0,0
97393,-133.333333333333,4,2,1,30,0,0
97464,-133.333333333333,4,2,1,60,0,0
98322,-100,4,2,1,65,0,0
98608,-125,4,2,1,65,0,0
98893,-100,4,2,1,65,0,0
99464,-100,4,2,1,70,0,0
101179,-133.333333333333,4,2,1,70,0,0
101465,-100,4,2,1,70,0,0
103107,-100,4,2,1,35,0,0
103179,-100,4,2,1,70,0,0
105750,-133.333333333333,4,2,1,70,0,0
106036,-100,4,2,1,70,0,0
107607,-100,4,2,1,66,0,0
108179,-100,4,2,1,63,0,0
108750,-166.666666666667,4,2,1,60,0,0
126464,-166.666666666667,4,2,1,65,0,0
127036,-100,4,2,1,70,0,1
127250,-100,4,2,1,40,0,1
127322,-100,4,2,1,70,0,1
129536,-100,4,2,1,40,0,1
129608,-100,4,2,1,70,0,1
131822,-100,4,2,1,40,0,1
131894,-100,4,2,1,70,0,1
133893,-100,4,2,1,70,0,1
134107,-100,4,2,1,40,0,1
134179,-100,4,2,1,70,0,1
136179,-90.9090909090909,4,2,1,75,0,1
136393,-90.9090909090909,4,2,1,45,0,1
136464,-90.9090909090909,4,2,1,75,0,1
139679,-90.9090909090909,4,2,1,45,0,1
139750,-90.9090909090909,4,2,1,75,0,1
143036,-90.9090909090909,4,2,1,75,0,0
143107,-90.9090909090909,4,2,1,50,0,0
143322,-90.9090909090909,4,2,1,45,0,0
143607,-90.9090909090909,4,2,1,40,0,0
143893,-90.9090909090909,4,2,1,35,0,0
144179,-90.9090909090909,4,2,1,30,0,0
144464,-90.9090909090909,4,2,1,25,0,0
144750,-90.9090909090909,4,2,1,20,0,0
145036,-90.9090909090909,4,2,1,15,0,0
145322,-90.9090909090909,4,2,1,40,0,0
154464,-200,4,2,1,45,0,0
160750,-200,4,2,1,50,0,0
161036,285.714285714286,4,2,1,80,1,1
161036,-90.9090909090909,4,2,1,80,0,1
161250,-90.9090909090909,4,2,1,50,0,1
161321,-90.9090909090909,4,2,1,80,0,1
170178,-90.9090909090909,4,2,1,80,0,1
170393,-90.9090909090909,4,2,1,50,0,1
170464,-90.9090909090909,4,2,1,80,0,1
170678,-90.9090909090909,4,2,1,50,0,1
170749,-90.9090909090909,4,2,1,80,0,1
172036,-133.333333333333,4,2,1,80,0,1
172321,-90.9090909090909,4,2,1,80,0,1
174321,-133.333333333333,4,2,1,80,0,1
174607,-90.9090909090909,4,2,1,80,0,1
175750,-83.3333333333333,4,2,1,80,0,1
175964,-83.3333333333333,4,2,1,50,0,1
176035,-83.3333333333333,4,2,1,80,0,1
176893,-76.9230769230769,4,2,1,80,0,1
177107,-76.9230769230769,4,2,1,50,0,1
177178,-76.9230769230769,4,2,1,80,0,1
178036,-71.4285714285714,4,2,1,80,0,1
179178,-500,4,2,1,70,0,0
179321,-500,4,2,1,5,0,0
179607,-500,4,2,1,30,0,0

[Colours]
Combo1 : 255,188,128
Combo2 : 255,149,149
Combo3 : 255,220,140
Combo4 : 255,128,128

[HitObjects]
0,130,18322,5,8,0:1:0:0:
0,130,18393,1,8,0:1:0:0:
0,130,18464,2,0,B|23:125|23:125|39:130|39:130|89:122,1,67.5000025749208,10|8,0:0|0:0,0:0:0:0:
66,126,18893,6,0,P|77:163|83:194,1,67.5000025749208,2|0,0:0|0:0,0:0:0:0:
152,259,19179,2,0,P|158:225|168:193,1,67.5000025749208,2|8,0:0|0:3,0:0:0:0:
249,110,19464,5,2,0:0:0:0:
324,139,19607,2,0,P|361:137|391:128,1,67.5000025749208,14|10,0:1|0:1,0:0:0:0:
441,69,19893,1,10,0:0:0:0:
502,121,20036,2,0,L|521:163,2,33.7500012874604,10|8|8,0:1|0:1|0:1,0:0:0:0:
427,50,20322,5,10,0:1:0:0:
390,128,20464,1,10,0:0:0:0:
386,215,20607,2,0,L|401:280,1,67.5000025749208,2|8,0:0|0:1,0:0:0:0:
309,171,20893,2,0,L|236:161,1,67.5000025749208,10|10,0:1|0:0,0:0:0:0:
112,87,21179,6,0,L|98:46,2,33.7500012874604,10|8|8,0:1|0:1|0:1,0:0:0:0:
107,174,21464,2,0,P|98:215|84:251,1,67.5000025749208,10|8,0:1|0:0,0:0:0:0:
0,301,21750,5,2,0:0:0:0:
76,259,21893,1,10,0:1:0:0:
146,311,22036,2,0,P|193:315|235:310,1,67.5000025749208,10|8,0:1|0:0,0:0:0:0:
331,250,22322,6,0,P|348:235|364:225,2,33.7500012874604,10|8|8,0:1|0:1|0:1,0:0:0:0:
244,232,22607,2,0,P|231:193|228:154,1,67.5000025749208,10|8,0:1|0:0,0:0:0:0:
214,47,22893,6,0,B|188:68|188:68|153:66,1,67.5000025749208,2|8,0:0|0:1,0:0:0:0:
301,98,23179,2,0,B|327:77|327:77|361:78,1,67.5000025749208,10|8,0:1|0:0,0:0:0:0:
153,66,23464,6,0,L|106:58,2,33.7500012874604,10|8|8,0:1|0:1|0:1,0:0:0:0:
305,102,23750,1,10,0:1:0:0:
305,102,23893,2,0,B|339:103|339:103|363:76,1,67.5000025749208,10|8,0:0|0:1,0:0:0:0:
480,27,24179,5,14,0:1:0:0:
480,27,24322,2,0,P|467:61|472:112,1,67.5000025749208,10|8,0:1|0:0,0:0:0:0:
495,174,24607,2,0,L|517:213,2,33.7500012874604,10|8|8,0:1|0:1|0:1,0:0:0:0:
408,155,24893,1,10,0:1:0:0:
337,207,25036,2,0,P|314:209|266:194,1,67.5000025749208,14|0,0:0|0:0,0:0:0:0:
200,107,25322,5,10,0:1:0:0:
263,175,25464,2,0,P|292:175|341:157,1,67.5000025749208,10|8,0:1|0:0,0:0:0:0:
190,86,25750,2,0,L|140:65,2,33.7500012874604,10|8|8,0:1|0:1|0:1,0:0:0:0:
347,148,26036,2,0,P|361:122|370:71,1,67.5000025749208,10|8,0:1|0:0,0:0:0:0:
237,0,26322,1,10,0:1:0:0:
158,72,26464,5,8,1:3:0:0:
102,0,26607,1,8,1:3:0:0:
5,301,28179,2,0,L|-2:244,2,45,0|0|0,3:0|3:0|3:0,0:0:0:0:
6,300,28607,6,0,B|63:296|42:325|102:331,1,101.250003862381,14|0,0:1|0:0,0:0:0:0:
120,331,28893,2,0,L|130:241,1,67.5000025749208,2|8,0:0|0:0,0:0:0:0:
233,307,29179,2,0,L|243:217,1,67.5000025749208,2|8,0:0|0:1,0:0:0:0:
327,364,29464,2,0,L|337:274,1,67.5000025749208,10|8,0:1|0:0,0:0:0:0:
496,283,29750,6,0,B|459:292|431:275|431:275|425:242|395:217,1,135.000005149842,14|8,0:1|0:1,0:0:0:0:
310,177,30179,1,10,0:0:0:0:
240,239,30322,1,2,0:0:0:0:
158,192,30464,2,0,L|91:183,1,67.5000025749208,10|8,0:1|0:1,0:0:0:0:
240,239,30750,1,10,0:0:0:0:
154,172,30893,6,0,P|136:124|164:51,1,101.250003862381,14|0,0:1|0:0,0:0:0:0:
160,62,31179,2,0,P|191:47|226:53,1,67.5000025749208,10|8,0:1|0:0,0:0:0:0:
271,145,31464,2,0,P|300:159|333:155,1,67.5000025749208,2|8,0:0|0:1,0:0:0:0:
361,43,31750,2,0,P|385:20|418:16,1,67.5000025749208,10|8,0:1|0:0,0:0:0:0:
512,84,32036,6,2,L|486:80,1,22.5,14|0,0:1|0:0,0:1:0:0:
499,161,32322,2,2,L|473:157,1,22.5,10|8,0:1|0:0,0:1:0:0:
486,238,32607,2,2,L|460:234,1,22.5,10|0,0:1|0:0,0:1:0:0:
473,315,32893,2,2,L|447:311,1,22.5,10|8,0:1|2:0,0:1:0:0:
477,319,33179,6,0,L|348:299,1,101.250003862381,14|0,0:1|0:0,0:0:0:0:
363,318,33464,2,0,L|353:223,1,67.5000025749208,2|8,0:0|0:0,0:0:0:0:
259,349,33750,2,0,L|249:254,1,67.5000025749208,2|8,0:0|0:1,0:0:0:0:
155,366,34036,2,0,L|145:271,1,67.5000025749208,10|8,0:1|0:0,0:0:0:0:
16,271,34322,6,0,P|51:271|86:187,1,135.000005149842,14|8,0:1|0:1,0:0:0:0:
43,107,34750,1,10,0:0:0:0:
109,40,34893,1,2,0:0:0:0:
193,82,35036,2,0,L|258:66,1,67.5000025749208,10|8,0:1|0:1,0:0:0:0:
109,40,35322,1,10,0:0:0:0:
209,94,35464,6,0,B|244:98|244:98|274:125|274:125|298:130,1,101.250003862381,14|0,0:1|0:0,0:0:0:0:
319,129,35750,2,0,L|334:63,1,67.5000025749208,10|8,0:1|0:0,0:0:0:0:
417,191,36036,2,0,L|432:125,1,67.5000025749208,2|8,0:0|0:1,0:0:0:0:
299,130,36322,2,0,L|314:64,1,67.5000025749208,10|8,0:1|0:0,0:0:0:0:
429,277,36607,6,0,P|405:220|332:215,1,135,14|0,0:1|0:1,0:0:0:0:
327,230,36893,2,0,L|313:311,1,72,10|8,0:1|0:0,0:0:0:0:
244,364,37179,1,2,0:0:0:0:
143,308,37322,6,0,L|200:287,1,45,0|0,1:0|1:0,0:0:0:0:
220,223,37464,2,0,L|173:184,1,45,0|0,1:0|1:0,0:0:0:0:
108,199,37607,2,0,L|97:258,1,45,0|0,1:0|1:0,0:0:0:0:
145,328,37750,6,0,B|216:306|216:306|341:344,1,180,14|8,0:1|0:1,0:0:0:0:
475,384,38179,2,0,L|493:255,1,90,10|0,0:0|0:0,0:0:0:0:
475,163,38464,5,10,0:1:0:0:
379,112,38607,1,8,0:1:0:0:
471,54,38750,1,8,0:0:0:0:
490,185,38893,5,10,0:1:0:0:
394,134,39036,1,8,0:1:0:0:
318,210,39179,1,10,0:1:0:0:
226,154,39322,1,8,0:0:0:0:
145,225,39464,2,0,L|77:219,1,67.5000025749208,2|8,0:1|0:1,0:0:0:0:
226,154,39750,5,10,0:1:0:0:
166,243,39893,1,10,0:0:0:0:
62,195,40036,6,0,P|40:127|99:24,1,180,14|8,0:1|0:1,0:0:0:0:
190,11,40464,1,10,0:0:0:0:
277,74,40607,1,8,0:1:0:0:
387,15,40750,5,10,0:1:0:0:
284,47,40893,1,8,0:1:0:0:
364,120,41036,1,8,0:0:0:0:
469,111,41179,6,0,B|420:88|365:120|365:120|388:132,1,135,14|0,0:1|0:0,0:0:0:0:
410,146,41464,2,0,P|425:172|419:243,1,90,10|8,0:1|0:0,0:0:0:0:
341,342,41750,1,10,0:1:0:0:
355,366,42036,5,10,0:1:0:0:
455,315,42179,1,10,0:0:0:0:
312,260,42322,6,0,B|248:257|248:257|210:293|210:293|123:301,1,180,14|8,0:1|0:1,0:0:0:0:
17,373,42750,2,0,L|28:251,1,90,10|0,0:0|0:0,0:0:0:0:
64,110,43036,5,10,0:1:0:0:
161,157,43179,1,8,0:1:0:0:
155,49,43322,1,10,0:0:0:0:
41,122,43464,6,0,B|-1:170|-1:170|30:307,1,180,14|8,0:1|0:1,0:0:0:0:
103,358,43893,1,10,0:0:0:0:
199,309,44036,2,0,P|234:295|288:295,1,67.5000025749208,2|8,0:0|0:1,0:0:0:0:
103,358,44322,5,10,0:1:0:0:
206,335,44464,1,10,0:0:0:0:
117,238,44607,6,0,P|99:151|180:62,1,180,14|8,0:1|0:1,0:0:0:0:
235,17,45036,1,10,0:0:0:0:
325,76,45179,1,8,0:1:0:0:
222,149,45322,5,10,0:1:0:0:
240,43,45464,1,8,0:1:0:0:
330,102,45607,1,8,0:0:0:0:
210,174,45750,6,0,B|99:156|99:156|44:205,1,180,14|8,0:1|0:1,0:0:0:0:
7,301,46179,1,10,0:0:0:0:
99,356,46322,1,8,0:1:0:0:
99,356,46393,1,8,0:1:0:0:
99,356,46464,2,0,L|194:344,1,90,10|8,0:2|0:1,0:0:0:0:
294,368,46750,1,8,0:0:0:0:
360,280,46893,6,0,L|370:172,1,90,14|0,0:1|0:0,0:0:0:0:
429,136,47322,2,0,P|470:141|517:114,1,90,8|8,0:1|0:0,0:0:0:0:
510,99,48036,2,0,L|403:86,1,90,8|8,0:1|0:0,0:0:0:0:
268,32,48607,1,8,0:1:0:0:
268,32,48750,2,0,L|163:46,1,90,8|0,0:0|0:0,0:0:0:0:
108,104,49179,6,0,P|94:149|122:197,1,90,14|8,0:1|0:0,0:0:0:0:
181,224,49607,2,0,P|197:264|183:306,1,90,10|8,0:1|0:0,0:0:0:0:
174,325,50322,2,0,L|278:314,1,90,8|8,0:1|0:0,0:0:0:0:
418,364,50893,1,8,0:1:0:0:
418,364,51036,2,0,L|422:262,1,90,8|0,0:0|0:0,0:0:0:0:
512,205,51464,6,0,P|468:205|433:179,1,90,14|8,0:1|0:0,0:0:0:0:
385,112,51893,2,0,P|349:85|305:85,1,90,8|8,0:1|0:0,0:0:0:0:
294,102,52607,2,0,L|281:197,1,90,8|8,0:1|0:0,0:0:0:0:
242,262,53036,1,8,0:1:0:0:
166,233,53179,1,8,0:1:0:0:
100,281,53322,2,0,P|54:282|10:250,1,90,8|8,0:0|0:0,0:0:0:0:
0,165,53750,6,0,L|27:66,1,90,10|8,0:1|0:0,0:0:0:0:
90,30,54179,2,0,P|136:29|180:61,1,90,8|8,0:1|0:0,0:0:0:0:
180,70,54893,2,0,P|218:92|262:91,1,90,8|0,0:0|1:0,0:0:0:0:
281,81,55250,1,0,1:0:0:0:
299,71,55322,2,0,P|328:57|357:54,1,45,0|0,1:0|1:0,0:0:0:0:
418,93,55607,2,0,P|447:107|476:110,2,45,8|8|4,3:3|3:3|3:3,0:0:0:0:
326,39,56036,6,0,P|298:24|226:34,1,90,14|8,0:1|0:0,0:0:0:0:
191,90,56464,2,0,L|183:196,1,90,8|8,0:1|0:0,0:0:0:0:
191,199,57179,2,0,P|219:214|291:204,1,90,8|8,0:1|0:0,0:0:0:0:
375,84,57750,1,8,0:1:0:0:
375,84,57893,2,0,P|403:69|475:79,1,90,8|0,0:0|0:0,0:0:0:0:
512,152,58322,6,0,L|501:261,1,90,14|8,0:1|0:0,0:0:0:0:
449,302,58750,2,0,P|421:287|349:297,1,90,8|8,0:1|0:0,0:0:0:0:
354,306,59464,2,0,P|313:323|269:318,1,90,8|8,0:1|0:0,0:0:0:0:
134,225,60036,1,10,0:1:0:0:
134,225,60179,2,0,L|142:173,1,45,8|8,0:0|0:1,0:0:0:0:
59,181,60464,2,0,L|53:126,1,45,2|0,3:1|3:0,0:0:0:0:
0,58,60750,6,0,B|42:48|42:48|81:66|81:66|146:64,1,135.000005149842,14|8,0:1|0:0,0:0:0:0:
233,155,61179,2,0,L|242:74,1,67.5000025749208,2|8,0:0|0:1,0:0:0:0:
379,91,61464,2,0,L|372:23,1,67.5000025749208,10|8,0:1|0:0,0:0:0:0:
498,153,61750,6,0,P|458:102|393:106,1,135.000005149842,10|8,0:1|0:1,0:0:0:0:
324,209,62179,2,0,P|296:237|255:242,1,67.5000025749208,10|0,0:0|0:0,0:0:0:0:
151,147,62464,5,10,0:1:0:0:
165,240,62607,1,8,0:1:0:0:
136,133,62750,5,10,0:0:0:0:
87,265,62893,1,8,0:1:0:0:
122,118,63036,6,0,P|182:76|257:87,1,135.000005149842,10|8,0:1|0:0,0:0:0:0:
102,26,63464,2,0,L|18:7,1,67.5000025749208,2|8,0:0|0:1,0:0:0:0:
247,99,63750,5,10,0:1:0:0:
323,43,63893,1,10,0:0:0:0:
385,113,64036,2,0,L|400:185,1,67.5000025749208,2|8,0:0|0:1,0:0:0:0:
479,292,64322,6,0,L|513:288,3,33.7500012874604,2|0|0|0,1:0|1:0|1:0|1:0,0:0:0:0:
405,263,64607,2,0,L|368:255,1,33.7500012874604,2|0,1:0|1:0,0:0:0:0:
285,324,64750,2,0,B|316:358|316:358|328:314,1,90,10|8,1:1|0:3,0:0:0:0:
328,316,65322,6,0,B|341:274|341:274|338:232|338:232|355:169,1,135,14|0,0:1|0:0,0:0:0:0:
374,174,65607,2,0,P|398:136|389:93,1,90,10|0,0:0|0:0,0:0:0:0:
258,19,65893,2,0,L|168:10,1,90,10|8,0:1|0:1,0:0:0:0:
27,59,66179,1,10,0:0:0:0:
139,187,66322,6,0,B|195:147|195:147|176:37,1,180,10|10,2:1|0:1,0:0:0:0:
116,201,66750,1,10,0:0:0:0:
239,235,66893,2,0,L|338:213,1,90,2|8,0:0|0:1,0:0:0:0:
483,323,67179,5,10,0:1:0:0:
430,199,67322,1,10,0:0:0:0:
350,307,67464,1,10,2:1:0:0:
506,335,67607,6,0,P|527:286|504:234,1,90,8|8,2:1|0:1,0:0:0:0:
418,116,67893,2,0,P|410:160|430:199,1,90,10|0,0:0|0:0,0:0:0:0:
332,54,68179,2,0,P|297:29|251:24,1,90,10|8,0:1|0:1,0:0:0:0:
104,70,68464,1,10,0:0:0:0:
184,181,68607,6,0,L|190:78,1,90,10|8,2:1|2:1,0:0:0:0:
59,243,68893,2,0,L|65:140,1,90,10|8,0:1|0:0,0:0:0:0:
267,309,69179,2,0,L|273:206,1,90,2|8,0:0|0:1,0:0:0:0:
129,384,69464,2,0,L|135:281,1,90,10|8,0:1|0:0,0:0:0:0:
371,362,69750,5,14,0:1:0:0:
371,362,70036,1,10,0:1:0:0:
267,309,70179,1,10,0:0:0:0:
362,241,70322,1,2,0:0:0:0:
268,172,70464,2,0,P|240:117|319:29,1,180,10|8,0:1|0:0,0:0:0:0:
492,0,70893,5,14,0:1:0:0:
492,0,71179,1,10,0:1:0:0:
409,95,71322,1,10,0:0:0:0:
304,31,71464,1,2,0:0:0:0:
210,114,71607,2,0,B|177:107|177:107|150:119|150:119|110:110,1,90,10|8,0:1|0:1,0:0:0:0:
13,177,71893,1,10,0:0:0:0:
104,94,72036,6,0,B|211:114|211:114|263:167,1,180,14|8,0:1|0:1,0:0:0:0:
398,260,72464,2,0,B|364:245|352:210|352:210|338:243|304:254,1,135,10|0,0:0|0:0,0:0:0:0:
279,255,72750,1,10,0:1:0:0:
389,345,72893,2,0,P|406:302|385:241,1,90,10|8,0:1|0:0,0:0:0:0:
269,172,73179,5,10,3:1:0:0:
269,172,73250,1,8,3:1:0:0:
269,172,73322,1,8,1:1:0:0:
204,281,73464,1,2,3:0:0:0:
135,174,73607,1,10,1:1:0:0:
79,287,73750,1,2,3:2:0:0:
2,181,73893,6,0,L|6:128,3,45,2|0|0|0,3:0|3:0|3:0|3:0,0:0:0:0:
62,71,74179,5,2,1:2:0:0:
84,66,74250,1,0,1:2:0:0:
106,62,74322,1,0,1:2:0:0:
128,58,74393,1,0,1:2:0:0:
150,54,74464,6,0,B|196:58|196:58|220:86|220:86|283:102,1,135,14|0,0:1|0:0,0:0:0:0:
292,91,74750,2,0,P|317:53|299:1,1,90,10|0,0:0|0:0,0:0:0:0:
202,191,75036,2,0,P|188:232|211:277,1,90,10|8,0:1|0:1,0:0:0:0:
412,353,75322,5,10,0:0:0:0:
412,353,75464,1,8,0:1:0:0:
484,215,75607,5,2,0:0:0:0:
418,329,75750,1,8,0:1:0:0:
402,178,75893,5,10,0:0:0:0:
426,303,76036,1,8,0:1:0:0:
499,194,76179,5,10,0:1:0:0:
499,194,76322,2,0,L|496:121,1,67.5000025749208,2|8,0:0|0:2,0:0:0:0:
298,0,76607,6,0,P|258:81|151:88,1,180,14|8,0:1|0:1,0:0:0:0:
0,172,77036,2,0,P|54:151|93:154,1,90,10|0,0:0|0:0,0:0:0:0:
204,262,77322,5,10,0:1:0:0:
110,162,77464,1,8,0:1:0:0:
206,288,77607,5,10,0:0:0:0:
131,178,77750,1,8,0:1:0:0:
209,314,77893,5,2,0:0:0:0:
148,198,78036,1,8,0:1:0:0:
211,340,78179,5,10,0:0:0:0:
160,221,78322,1,8,0:1:0:0:
301,253,78464,5,10,0:1:0:0:
301,253,78607,2,0,B|372:258,1,67.5000025749208,2|8,0:0|0:0,0:0:0:0:
512,312,78893,6,0,B|480:354|480:354|443:215,1,180,14|8,0:1|0:1,0:0:0:0:
399,110,79322,2,0,B|408:20,1,90,10|0,0:0|0:0,0:0:0:0:
268,163,79607,2,0,B|250:74,1,90,10|8,0:1|0:1,0:0:0:0:
396,137,79893,1,10,0:0:0:0:
241,48,80036,6,0,P|197:20|105:29,1,135,14|0,0:1|0:0,0:0:0:0:
94,38,80322,2,0,L|84:134,1,90,10|8,0:1|0:0,0:0:0:0:
0,265,80607,2,0,B|69:254|69:254|103:270,1,90,10|0,0:1|0:0,0:0:0:0:
250,359,80893,2,0,B|347:344,1,90,10|8,0:1|0:0,0:0:0:0:
512,244,81179,5,14,0:1:0:0:
8,355,89464,6,0,P|33:353|59:343,1,45,0|0,3:0|3:0,0:0:0:0:
109,275,89750,2,0,P|89:266|65:264,1,45,0|0,3:0|3:0,0:0:0:0:
8,195,90036,2,0,P|-1:167|3:136,1,45,0|0,1:0|3:0,0:0:0:0:
56,61,90322,6,0,B|93:64|93:64|110:83|110:83|165:89,1,101.250003862381,14|0,0:1|0:0,0:0:0:0:
168,89,90607,2,0,L|182:5,1,67.5000025749208,2|8,0:0|0:0,0:0:0:0:
268,152,90893,2,0,L|282:68,1,67.5000025749208,2|8,0:0|0:1,0:0:0:0:
385,126,91179,2,0,L|396:59,1,67.5000025749208,10|8,0:1|0:0,0:0:0:0:
510,163,91464,6,0,B|478:134|478:134|437:120|390:145,1,135.000005149842,14|8,0:1|0:1,0:0:0:0:
320,210,91893,1,10,0:0:0:0:
354,298,92036,1,2,0:0:0:0:
276,351,92179,2,0,L|209:342,1,67.5000025749208,10|8,0:1|0:1,0:0:0:0:
354,298,92464,1,10,0:0:0:0:
195,357,92607,6,0,P|175:310|199:247,1,101.250003862381,14|0,0:1|0:0,0:0:0:0:
203,251,92893,2,0,P|218:218|203:171,1,67.5000025749208,10|8,0:1|0:0,0:0:0:0:
94,176,93179,2,0,P|79:143|94:96,1,67.5000025749208,2|8,0:0|0:1,0:0:0:0:
268,125,93464,2,0,P|283:92|268:45,1,67.5000025749208,10|8,0:1|0:0,0:0:0:0:
94,34,93750,6,2,L|73:30,1,22.5,14|0,0:1|0:0,0:1:0:0:
81,111,94036,2,2,L|60:107,1,22.5,10|8,0:1|0:0,0:1:0:0:
68,188,94322,2,2,L|47:184,1,22.5,10|0,0:1|0:0,0:1:0:0:
55,265,94607,2,2,L|34:261,1,22.5,10|8,0:1|2:0,0:1:0:0:
38,265,94893,6,0,B|77:271|77:271|93:287|93:287|150:304,1,101.250003862381,14|0,0:1|0:0,0:0:0:0:
150,294,95179,2,0,L|170:211,1,67.5000025749208,2|8,0:0|0:0,0:0:0:0:
274,289,95464,2,0,L|294:206,1,67.5000025749208,2|8,0:0|0:1,0:0:0:0:
369,367,95750,2,0,L|389:284,1,67.5000025749208,10|8,0:1|0:0,0:0:0:0:
512,241,96036,6,0,B|488:236|459:243|459:243|443:224|410:201,1,101.250003862381,14|0,0:1|0:0,0:0:0:0:
403,210,96322,2,0,L|392:128,1,67.5000025749208,10|8,0:1|0:0,0:0:0:0:
325,77,96607,1,2,0:0:0:0:
257,143,96750,2,0,L|248:209,1,67.5000025749208,10|8,0:1|0:1,0:0:0:0:
325,77,97036,1,10,0:0:0:0:
234,225,97179,6,0,P|185:241|133:197,1,101.250003862381,14|0,0:1|0:0,0:0:0:0:
127,206,97464,2,0,L|123:128,1,67.5000025749208,10|8,0:1|0:0,0:0:0:0:
245,130,97750,2,0,L|241:52,1,67.5000025749208,2|8,0:0|0:1,0:0:0:0:
103,135,98036,2,0,L|99:57,1,67.5000025749208,10|8,0:1|0:0,0:0:0:0:
250,44,98322,6,0,B|304:31|304:31|340:72|340:72|412:92,1,180,14|8,0:1|0:1,0:0:0:0:
512,228,98750,2,0,L|503:154,1,72,10|0,0:0|0:0,0:0:0:0:
431,15,99036,6,0,L|384:5,1,45,0|0,1:0|1:0,0:0:0:0:
321,48,99179,2,0,P|309:72|305:101,1,45,0|0,1:0|1:0,0:0:0:0:
340,160,99322,2,0,L|387:170,1,45,0|0,1:0|1:0,0:0:0:0:
512,183,99464,6,0,B|448:160|448:160|411:174|411:174|338:159,1,180,14|8,0:1|0:1,0:0:0:0:
251,259,99893,2,0,L|244:170,1,90,10|0,0:0|0:0,0:0:0:0:
111,40,100179,5,10,0:1:0:0:
50,129,100322,1,8,0:1:0:0:
3,31,100464,1,8,0:0:0:0:
133,23,100607,5,10,0:1:0:0:
176,122,100750,1,8,0:1:0:0:
265,61,100893,1,10,0:1:0:0:
324,150,101036,1,8,0:0:0:0:
416,88,101179,2,0,L|435:3,1,67.5000025749208,2|8,0:1|0:1,0:0:0:0:
512,186,101464,5,10,0:1:0:0:
432,109,101607,1,10,0:0:0:0:
322,176,101750,6,0,B|268:169|268:169|225:206|225:206|149:199,1,180,14|8,0:1|0:1,0:0:0:0:
80,122,102179,1,10,0:0:0:0:
9,204,102322,1,8,0:1:0:0:
93,304,102464,5,10,0:1:0:0:
164,222,102607,1,8,0:1:0:0:
247,291,102750,1,8,0:0:0:0:
322,176,102893,6,0,B|337:130|337:130|328:99|328:99|342:41,1,135,14|0,0:1|0:0,0:0:0:0:
359,27,103179,2,0,P|396:10|445:22,1,90,10|8,0:1|0:0,0:0:0:0:
512,141,103464,1,10,0:1:0:0:
506,114,103750,5,10,0:1:0:0:
465,4,103893,1,10,0:0:0:0:
340,46,104036,6,0,B|276:43|276:43|242:84|242:84|151:87,1,180,14|8,0:1|0:1,0:0:0:0:
48,167,104464,2,0,L|32:78,1,90,10|0,0:0|0:0,0:0:0:0:
195,175,104750,2,0,L|179:86,1,90,10|8,0:1|0:1,0:0:0:0:
52,194,105036,1,10,0:0:0:0:
190,61,105179,6,0,B|248:64|248:64|281:106|281:106|360:133,1,180,14|8,0:1|0:1,0:0:0:0:
442,79,105607,1,10,0:0:0:0:
509,163,105750,2,0,P|517:198|503:256,1,67.5000025749208,2|8,0:0|0:1,0:0:0:0:
418,332,106036,5,10,0:1:0:0:
505,255,106179,1,10,0:0:0:0:
371,160,106322,6,0,B|283:136|298:212|200:199,1,180,14|8,0:1|0:1,0:0:0:0:
48,75,106750,5,10,0:0:0:0:
48,75,106893,1,8,0:1:0:0:
113,144,107036,5,10,0:1:0:0:
113,144,107179,1,8,0:1:0:0:
20,165,107322,5,10,0:0:0:0:
20,165,107464,1,8,0:1:0:0:
48,75,107607,5,10,0:0:0:0:
181,196,107798,1,8,0:3:0:0:
289,56,107988,1,4,0:3:0:0:
175,1,108179,5,10,0:0:0:0:
271,142,108369,1,8,0:3:0:0:
412,45,108560,1,4,0:3:0:0:
512,179,108750,5,14,0:1:0:0:
512,179,109036,2,0,L|446:168,1,53.9999983520508,2|8,0:0|0:1,0:0:0:0:
399,233,109322,1,10,0:0:0:0:
399,233,109464,2,0,L|333:222,1,53.9999983520508,2|8,0:0|0:1,0:0:0:0:
271,142,109750,6,0,P|242:103|171:104,1,107.999996704102,10|8,0:1|0:0,0:0:0:0:
105,121,110179,1,2,0:0:0:0:
105,121,110322,1,10,0:1:0:0:
61,194,110464,2,0,L|75:261,1,53.9999983520508,10|0,0:0|0:0,0:0:0:0:
136,327,110750,2,0,L|201:337,1,53.9999983520508,10|8,0:1|0:0,0:0:0:0:
189,335,110964,1,8,0:3:0:0:
189,335,111036,5,14,0:1:0:0:
189,335,111322,2,0,L|203:268,1,53.9999983520508,2|8,0:0|0:1,0:0:0:0:
276,241,111607,1,10,0:0:0:0:
276,241,111750,2,0,L|290:174,1,53.9999983520508,2|8,0:0|0:1,0:0:0:0:
353,106,112036,6,0,P|401:68|464:89,1,107.999996704102,10|8,0:1|0:0,0:0:0:0:
502,137,112464,2,0,L|492:215,1,53.9999983520508,2|8,0:0|0:1,0:0:0:0:
510,276,112750,2,0,L|500:354,1,53.9999983520508,10|2,0:0|0:0,0:0:0:0:
419,367,113036,1,10,0:1:0:0:
351,330,113179,1,8,2:0:0:0:
351,330,113250,1,8,2:3:0:0:
351,330,113322,5,14,2:1:0:0:
351,330,113607,2,0,L|338:252,1,53.9999983520508,2|8,0:0|0:1,0:0:0:0:
267,349,113893,1,10,0:0:0:0:
267,349,114036,2,0,L|254:271,1,53.9999983520508,2|8,0:0|0:1,0:0:0:0:
184,226,114322,6,0,B|147:213|147:213|117:231|117:231|62:220,1,107.999996704102,10|8,0:1|0:0,0:0:0:0:
20,174,114750,1,2,0:0:0:0:
20,174,114893,1,10,0:1:0:0:
69,102,115036,2,0,L|84:26,1,53.9999983520508,10|0,0:0|0:0,0:0:0:0:
171,27,115322,2,0,L|181:79,1,53.9999983520508,10|8,0:1|0:0,0:0:0:0:
181,79,115536,1,8,0:3:0:0:
181,79,115607,5,14,0:1:0:0:
181,79,115893,2,0,L|247:85,1,53.9999983520508,2|8,0:0|0:1,0:0:0:0:
300,149,116179,1,10,0:0:0:0:
300,149,116322,2,0,L|366:155,1,53.9999983520508,2|8,0:0|0:1,0:0:0:0:
461,120,116607,6,0,P|481:72|458:23,2,107.999996704102,10|8|8,0:1|0:0|0:1,0:0:0:0:
346,175,117322,5,2,1:0:0:0:
489,219,117512,1,2,1:0:0:0:
379,321,117702,1,2,1:0:0:0:
327,160,117893,5,14,0:1:0:0:
327,160,118179,2,0,L|326:88,1,53.9999983520508,2|8,0:0|0:1,0:0:0:0:
245,169,118464,1,10,0:0:0:0:
245,169,118607,2,0,L|244:97,1,53.9999983520508,2|8,0:0|0:1,0:0:0:0:
168,46,118893,6,0,B|125:15|125:15|68:42,1,107.999996704102,10|8,0:1|0:0,0:0:0:0:
13,99,119322,1,2,0:0:0:0:
13,99,119464,1,10,0:1:0:0:
39,180,119607,2,0,L|45:246,1,53.9999983520508,10|0,0:0|0:0,0:0:0:0:
115,309,119893,2,0,P|146:293|183:292,1,53.9999983520508,10|8,0:1|0:0,0:0:0:0:
164,290,120107,1,8,0:3:0:0:
164,290,120179,5,14,0:1:0:0:
164,290,120464,2,0,P|195:306|232:307,1,53.9999983520508,2|8,0:0|0:1,0:0:0:0:
293,354,120750,1,10,0:0:0:0:
293,354,120893,2,0,P|324:338|361:337,1,53.9999983520508,2|8,0:0|0:1,0:0:0:0:
446,376,121179,6,0,L|453:248,1,107.999996704102,10|8,0:1|0:0,0:0:0:0:
503,198,121607,2,0,P|510:159|502:124,1,53.9999983520508,2|8,0:1|0:1,0:0:0:0:
450,80,121893,2,0,P|424:80|388:62,1,53.9999983520508,10|2,0:0|0:0,0:0:0:0:
330,15,122179,1,8,0:1:0:0:
265,71,122322,1,10,0:0:0:0:
265,71,122393,1,8,0:3:0:0:
265,71,122464,5,14,0:1:0:0:
265,71,122750,2,0,L|248:142,1,53.9999983520508,2|8,0:0|0:1,0:0:0:0:
313,192,123036,1,10,0:0:0:0:
313,192,123179,2,0,L|296:263,1,53.9999983520508,2|8,0:0|0:1,0:0:0:0:
382,326,123464,6,0,B|343:317|343:317|312:330|312:330|260:320,1,107.999996704102,10|8,0:1|0:0,0:0:0:0:
201,362,123893,1,2,0:0:0:0:
201,362,124036,1,10,0:1:0:0:
131,310,124179,2,0,L|123:232,1,53.9999983520508,10|0,0:0|0:0,0:0:0:0:
58,304,124464,2,0,L|50:226,1,53.9999983520508,10|8,0:1|0:0,0:0:0:0:
52,250,124679,1,8,0:3:0:0:
52,250,124750,5,14,0:1:0:0:
52,250,125036,2,0,L|44:172,1,53.9999983520508,2|8,0:0|0:1,0:0:0:0:
114,142,125322,1,10,0:0:0:0:
114,142,125464,2,0,L|106:64,1,53.9999983520508,2|8,0:0|0:1,0:0:0:0:
195,29,125750,6,0,B|226:27|226:27|256:55|294:59,1,107.999996704102,10|8,0:1|0:0,0:0:0:0:
381,27,126179,1,2,0:0:0:0:
401,122,126322,1,10,0:1:0:0:
488,70,126464,1,2,1:0:0:0:
512,187,126607,1,0,1:0:0:0:
512,187,126679,1,0,1:0:0:0:
512,187,126750,2,0,L|506:257,1,53.9999983520508,8|4,3:3|1:3,0:0:0:0:
501,321,127036,6,0,L|512:186,1,135,14|0,0:1|0:0,0:0:0:0:
508,159,127322,2,0,P|468:134|404:140,1,90,10|0,0:0|0:0,0:0:0:0:
375,271,127607,2,0,P|335:296|271:290,1,90,10|8,0:1|0:1,0:0:0:0:
160,222,127893,5,8,0:2:0:0:
268,285,128036,1,8,0:1:0:0:
151,196,128179,6,0,L|143:80,1,90,2|8,0:0|0:1,0:0:0:0:
29,122,128464,1,10,0:0:0:0:
171,178,128607,2,0,L|165:89,1,90,2|8,0:0|0:1,0:0:0:0:
266,0,128893,5,10,0:1:0:0:
184,70,129036,1,8,0:0:0:0:
101,0,129179,1,8,0:1:0:0:
18,97,129322,6,0,B|-3:145|-3:145|34:243,1,135,14|0,0:1|0:0,0:0:0:0:
40,243,129607,2,0,P|78:221|123:219,1,90,10|0,0:0|0:0,0:0:0:0:
187,327,129893,2,0,P|225:349|270:351,1,90,10|8,0:1|0:1,0:0:0:0:
418,280,130179,5,10,0:0:0:0:
293,337,130322,1,8,0:1:0:0:
316,217,130464,5,2,0:0:0:0:
444,282,130607,2,0,P|458:238|445:182,1,90,10|8,0:1|0:0,0:0:0:0:
349,89,130893,2,0,L|248:71,1,90,2|8,0:0|0:1,0:0:0:0:
127,0,131179,5,10,0:1:0:0:
233,66,131322,1,8,0:0:0:0:
122,124,131464,1,2,0:1:0:0:
260,73,131607,6,0,L|429:50,1,135,14|0,0:1|0:0,0:0:0:0:
417,67,131893,1,10,0:0:0:0:
502,175,132036,2,0,L|513:82,1,90,2|8,0:0|0:1,0:0:0:0:
404,256,132322,2,0,L|393:163,1,90,10|8,0:1|0:0,0:0:0:0:
512,328,132607,6,0,B|408:288|408:288|332:332,1,180,10|8,0:1|0:1,0:0:0:0:
197,373,133036,2,0,L|206:260,1,90,10|0,0:0|0:0,0:0:0:0:
365,343,133322,2,0,L|372:253,1,90,10|8,0:1|0:1,0:0:0:0:
179,295,133607,2,0,L|188:182,1,90,10|0,0:0|0:0,0:0:0:0:
386,99,133893,6,0,P|340:149|254:118,1,135,14|0,0:1|0:0,0:0:0:0:
256,126,134179,2,0,P|233:94|159:87,1,90,8|0,0:0|0:0,0:0:0:0:
111,242,134464,2,0,P|154:235|185:204,1,90,10|8,0:1|0:1,0:0:0:0:
83,57,134750,2,0,P|65:98|77:141,1,90,10|0,0:0|0:0,0:0:0:0:
260,130,135036,5,10,0:1:0:0:
260,130,135179,1,8,0:1:0:0:
105,43,135322,2,0,L|13:26,1,90,8|0,0:0|0:0,0:0:0:0:
260,130,135607,2,0,L|352:147,1,90,10|0,0:0|0:0,0:0:0:0:
505,106,135893,5,8,1:2:0:0:
502,95,135964,1,0,1:0:0:0:
500,84,136036,1,0,1:0:0:0:
497,73,136107,1,0,1:0:0:0:
495,62,136179,6,0,B|477:237,1,148.50000453186,14|0,0:1|0:0,0:0:0:0:
470,237,136464,2,0,P|437:254|363:214,1,99.0000030212403,8|0,0:0|0:0,0:0:0:0:
260,130,136750,2,0,P|221:100|173:105,1,99.0000030212403,10|8,0:1|0:1,0:0:0:0:
0,211,137036,5,10,0:0:0:0:
0,211,137179,1,8,0:1:0:0:
73,97,137322,5,2,0:0:0:0:
73,97,137464,1,8,0:1:0:0:
136,258,137607,5,10,0:0:0:0:
136,258,137750,2,0,P|184:262|222:233,1,99.0000030212403,2|8,0:0|0:1,0:0:0:0:
298,97,138036,5,10,0:1:0:0:
224,202,138179,1,8,0:0:0:0:
300,67,138322,1,8,0:1:0:0:
385,274,138464,6,0,L|368:176,1,99.0000030212403,14|8,0:1|0:1,0:0:0:0:
491,191,138750,2,0,L|474:93,1,99.0000030212403,8|0,0:0|0:0,0:0:0:0:
360,291,139036,2,0,L|344:194,1,99.0000030212403,10|8,0:1|0:1,0:0:0:0:
511,213,139322,1,10,0:0:0:0:
322,86,139464,6,0,B|278:78|278:78|243:103|243:103|155:93,1,148.50000453186,10|0,0:1|0:0,0:0:0:0:
159,115,139750,2,0,L|143:-3,1,99.0000030212403,10|8,0:1|0:0,0:0:0:0:
18,198,140036,2,0,L|4:99,1,99.0000030212403,2|8,0:0|0:1,0:0:0:0:
207,236,140322,5,10,0:1:0:0:
136,134,140464,1,8,0:0:0:0:
41,216,140607,1,8,0:1:0:0:
194,262,140750,6,0,B|231:261|231:261|254:273|254:273|290:274,1,99.0000030212403,14|0,0:1|0:0,0:0:0:0:
500,338,141036,2,0,B|463:337|463:337|440:349|440:349|403:350,1,99.0000030212403,8|0,0:0|0:0,0:0:0:0:
285,244,141322,5,10,0:1:0:0:
312,121,141464,1,8,0:1:0:0:
435,148,141607,1,8,0:0:0:0:
408,271,141750,1,8,0:1:0:0:
262,262,141893,6,0,B|237:236|237:236|240:154,1,99.0000030212403,14|8,0:1|0:1,0:0:0:0:
457,167,142179,2,0,B|482:141|482:141|479:59,1,99.0000030212403,8|8,0:0|0:1,0:0:0:0:
467,50,142393,1,8,2:1:0:0:
452,24,142464,6,0,L|344:7,1,99.0000030212403,10|4,0:0|0:3,0:0:0:0:
238,143,142750,2,0,L|346:126,1,99.0000030212403,10|4,0:0|0:3,0:0:0:0:
122,13,143036,5,14,0:1:0:0:
256,192,143107,12,14,145322,0:1:0:0:
0,110,154464,6,0,B|170:100|98:253|273:255,1,315,2|0,0:0|0:0,0:0:0:0:
460,343,156036,2,0,P|446:290|461:248,1,90,0|0,0:0|0:0,0:0:0:0:
497,193,156464,2,0,P|504:174|506:133,1,45,0|0,0:0|0:0,0:0:0:0:
472,80,156750,5,2,0:0:0:0:
472,80,157036,2,0,L|413:68,1,45,0|0,0:0|0:0,0:0:0:0:
369,221,157607,2,0,L|310:209,1,45,0|0,0:0|0:0,0:0:0:0:
261,31,158179,2,0,L|202:19,1,45,0|0,0:0|0:0,0:0:0:0:
98,123,158607,2,0,L|39:111,2,45,0|0|0,0:0|0:0|0:0,0:0:0:0:
146,182,159036,5,2,0:0:0:0:
81,18,159322,1,0,0:0:0:0:
31,135,159607,5,2,0:0:0:0:
228,106,159893,1,0,0:0:0:0:
0,250,160750,5,4,1:3:0:0:
0,250,161036,6,0,B|48:249|48:249|73:280|73:280|136:297,1,148.50000453186,14|0,0:1|0:0,0:0:0:0:
160,301,161321,2,0,L|159:202,1,99.0000030212403,10|0,0:0|0:0,0:0:0:0:
323,364,161607,2,0,L|324:258,1,99.0000030212403,10|8,0:1|0:1,0:0:0:0:
162,331,161893,1,10,0:0:0:0:
327,235,162036,6,0,B|374:197|439:230|439:230|483:217|482:161,1,198.000006042481,10|10,2:1|0:1,0:0:0:0:
420,312,162464,1,10,0:0:0:0:
486,141,162607,2,0,L|469:30,1,99.0000030212403,2|8,0:0|0:1,0:0:0:0:
307,0,162893,5,10,0:1:0:0:
358,133,163036,1,10,0:0:0:0:
449,22,163178,1,10,2:1:0:0:
292,25,163321,6,0,L|193:12,1,99.0000030212403,8|8,2:1|0:1,0:0:0:0:
66,135,163607,2,0,L|165:122,1,99.0000030212403,10|0,0:0|0:0,0:0:0:0:
307,210,163893,5,10,0:1:0:0:
193,129,164036,1,10,0:1:0:0:
180,269,164178,1,10,0:0:0:0:
333,223,164321,6,0,P|344:179|325:118,1,99.0000030212403,10|8,2:1|2:1,0:0:0:0:
104,174,164607,2,0,P|91:126|102:78,1,99.0000030212403,10|8,0:1|0:0,0:0:0:0:
362,226,164893,6,0,P|373:178|360:131,1,99.0000030212403,2|8,0:0|0:1,0:0:0:0:
72,170,165178,2,0,P|59:122|70:74,1,99.0000030212403,10|8,0:1|0:0,0:0:0:0:
307,1,165464,5,14,0:1:0:0:
307,1,165750,1,10,0:1:0:0:
357,108,165893,1,10,0:0:0:0:
453,38,166036,1,2,0:0:0:0:
509,141,166178,2,0,B|527:193|527:193|515:242|515:242|522:283|522:283|495:342,1,198.000006042481,10|8,0:1|0:0,0:0:0:0:
329,350,166607,5,14,0:1:0:0:
329,350,166893,1,10,0:1:0:0:
248,249,167036,1,10,0:0:0:0:
190,363,167178,1,2,0:0:0:0:
115,258,167321,2,0,B|104:136,1,99.0000030212403,10|8,0:1|0:1,0:0:0:0:
0,259,167607,1,10,0:0:0:0:
104,129,167750,6,0,B|174:119|174:119|216:163|216:163|299:158,1,198.000006042481,14|8,0:1|0:1,0:0:0:0:
461,251,168178,2,0,L|478:122,1,99.0000030212403,10|0,0:0|0:0,0:0:0:0:
298,184,168464,2,0,L|315:55,1,99.0000030212403,10|8,0:1|0:1,0:0:0:0:
484,269,168750,2,0,L|497:171,1,99.0000030212403,10|8,0:0|3:1,0:0:0:0:
505,142,168964,1,8,3:1:0:0:
511,112,169036,5,10,1:1:0:0:
436,17,169178,1,2,3:0:0:0:
393,172,169321,5,10,1:1:0:0:
409,31,169464,1,2,3:2:0:0:
281,82,169607,6,0,P|253:83|226:68,3,49.5000015106202,2|0|0|0,3:0|3:0|3:0|3:0,0:0:0:0:
168,20,169893,5,2,1:2:0:0:
146,7,169964,1,0,1:2:0:0:
122,1,170036,1,0,1:2:0:0:
98,1,170107,1,0,1:2:0:0:
74,7,170178,6,0,B|49:175,1,148.50000453186,14|0,0:1|0:0,0:0:0:0:
61,182,170464,2,0,P|110:166|162:205,1,99.0000030212403,10|0,0:0|0:0,0:0:0:0:
238,339,170750,2,0,P|189:355|137:316,1,99.0000030212403,10|8,0:1|0:1,0:0:0:0:
305,193,171036,5,10,0:0:0:0:
305,193,171178,1,8,0:1:0:0:
380,341,171321,5,2,0:0:0:0:
312,222,171464,1,8,0:1:0:0:
260,359,171607,5,10,0:0:0:0:
318,251,171750,1,8,0:1:0:0:
411,357,171893,5,10,0:1:0:0:
411,357,172036,2,0,L|498:340,1,67.5000025749208,2|8,0:0|0:2,0:0:0:0:
312,222,172321,6,0,B|248:205|248:205|194:241|194:241|101:221,1,198.000006042481,14|8,0:1|0:1,0:0:0:0:
15,328,172750,2,0,L|0:214,1,99.0000030212403,10|0,0:0|0:0,0:0:0:0:
66,68,173036,5,10,0:1:0:0:
13,202,173178,1,8,0:1:0:0:
95,65,173321,5,10,0:0:0:0:
128,226,173464,1,8,0:1:0:0:
213,90,173607,5,2,0:0:0:0:
155,238,173750,1,8,0:1:0:0:
241,99,173893,5,10,0:0:0:0:
270,261,174036,1,8,0:1:0:0:
377,176,174178,5,10,0:1:0:0:
377,176,174321,2,0,B|390:97,1,67.5000025749208,2|8,0:0|0:0,0:0:0:0:
512,42,174607,6,0,B|460:77|460:77|302:46,1,198.000006042481,14|8,0:1|0:1,0:0:0:0:
477,262,175036,2,0,P|490:209|475:162,1,99.0000030212403,10|0,0:0|0:0,0:0:0:0:
305,310,175321,2,0,P|291:263|303:216,1,99.0000030212403,10|8,0:1|0:1,0:0:0:0:
456,370,175607,1,10,0:0:0:0:
304,188,175750,6,0,P|260:150|151:170,1,161.999995056153,14|0,0:1|0:0,0:0:0:0:
140,181,176036,2,0,L|116:65,1,107.999996704102,10|8,0:1|0:0,0:0:0:0:
379,141,176321,2,0,L|355:25,1,107.999996704102,10|0,0:1|0:0,0:0:0:0:
118,202,176607,2,0,L|94:86,1,107.999996704102,10|8,0:1|0:0,0:0:0:0:
300,293,176893,6,0,B|404:267|380:343|469:321,1,175.499991966248,14|0,0:1|0:0,0:0:0:0:
494,315,177178,2,0,L|512:193,1,116.999994644165,10|8,0:1|0:1,0:0:0:0:
279,313,177464,2,0,L|297:191,1,116.999994644165,10|8,0:1|0:0,0:0:0:0:
61,253,177750,2,0,L|79:131,1,116.999994644165,10|8,0:1|0:1,0:0:0:0:
412,13,178036,6,0,P|361:123|222:132,1,251.999992309571,14|8,0:1|0:1,0:0:0:0:
97,27,178464,5,10,2:2:0:0:
220,121,178607,1,10,2:1:0:0:
64,173,178750,1,10,2:1:0:0:
215,264,178893,1,10,2:1:0:0:
35,324,179036,1,10,2:0:0:0:
230,373,179178,6,0,B|256:364|256:364|225:354,1,54,14|0,0:1|0:0,0:0:0:0:
