osu file format v14

[General]
AudioFilename: audio.mp3
AudioLeadIn: 0
PreviewTime: 152799
Countdown: 0
SampleSet: Soft
StackLeniency: 0.5
Mode: 0
LetterboxInBreaks: 0
WidescreenStoryboard: 1

[Editor]
Bookmarks: 161,2690,9697,23711,37726,55244
DistanceSpacing: 1
BeatDivisor: 2
GridSize: 8
TimelineZoom: 1

[Metadata]
Title:Imaginary Reload
TitleUnicode:イマジナリーリロード
Artist:JIN
ArtistUnicode:じん
Creator:YelloJello
Version:YelloJello
Source:
Tags:Kagerou Project Mekakucity Actors Vocaloid Hatsune Miku
BeatmapID:2698804
BeatmapSetID:879583

[Difficulty]
HPDrainRate:5
CircleSize:5
OverallDifficulty:8.5
ApproachRate:9.4
SliderMultiplier:2
SliderTickRate:0.5

[Events]
//Background and Video events
0,0,"bg.png",0,0
//Break Periods
//Storyboard Layer 0 (Background)
//Storyboard Layer 1 (Fail)
//Storyboard Layer 2 (Pass)
//Storyboard Layer 3 (Foreground)
//Storyboard Layer 4 (Overlay)
//Storyboard Sound Samples

[TimingPoints]
164,315.789473684211,4,2,1,45,1,0
164,-1000,4,2,1,45,0,0
2374,-1000,4,2,1,5,0,0
2690,218.978102189781,4,2,1,65,1,0
2691,-125,4,2,1,65,0,0
9697,-83.3333333333333,4,2,1,65,0,0
23711,-142.857142857143,4,2,1,65,0,0
37726,-200,4,2,1,65,0,0
54806,-500,4,2,1,65,0,0
55244,-142.857142857143,4,2,1,65,0,0
69259,-100,4,2,1,65,0,1
83273,-125,4,2,1,65,0,1
89624,-90.9090909090908,4,2,1,65,0,1
97178,-166.666666666667,4,2,1,65,0,0
104186,-100,4,2,1,65,0,0
111302,-142.857142857143,4,2,1,65,0,0
125317,-250,4,2,1,65,0,0
139332,-125,4,2,1,65,0,0
165609,-100,4,2,1,65,0,1
179624,-125,4,2,1,65,0,1
186631,-90.9090909090909,4,2,1,65,0,1
197033,-125,4,2,1,65,0,0
200536,-100,4,2,1,65,0,0

[Colours]
Combo1 : 17,254,176
Combo2 : 173,255,95
Combo3 : 255,88,100
Combo4 : 255,94,55

[HitObjects]
0,344,164,6,2,L|136:376,1,140,2|0,0:1|0:0,0:1:0:0:
40,104,2690,5,4,1:2:0:0:
96,48,2799,2,0,P|120:80|120:128,1,80,8|0,0:0|0:0,0:0:0:0:
72,184,3018,1,0,1:0:0:0:
103,261,3127,2,0,P|159:301|255:277,1,160,8|0,0:0|0:0,0:0:0:0:
280,208,3456,2,0,P|317:192|373:200,1,80,0|0,1:0|0:0,0:0:0:0:
416,248,3675,1,8,0:0:0:0:
488,216,3784,2,0,P|503:179|496:122,1,80,0|0,1:0|0:0,0:0:0:0:
440,112,4004,1,8,0:0:0:0:
376,80,4113,2,0,P|360:43|367:-13,1,80,0|0,1:0|0:0,0:0:0:0:
280,88,4332,5,8,0:0:0:0:
200,72,4441,1,0,1:0:0:0:
128,112,4551,2,0,P|96:184|136:272,1,160,8|0,0:0|1:0,0:0:0:0:
224,216,4879,1,8,0:0:0:0:
328,255,4989,2,0,P|360:287|376:343,1,80,0|0,1:0|0:0,0:0:0:0:
320,376,5208,1,8,0:0:0:0:
240,384,5317,1,2,1:2:0:0:
184,328,5427,2,0,P|152:312|96:320,1,80,10|0,0:0|0:0,0:0:0:0:
24,304,5646,2,0,P|40:272|80:240,1,80,2|8,1:2|0:0,0:0:0:0:
136,192,5865,2,0,P|104:168|56:160,1,80,2|0,1:2|0:0,0:0:0:0:
0,96,6084,5,8,0:0:0:0:
64,32,6193,1,6,1:2:0:0:
152,40,6303,2,0,P|192:56|224:96,1,80,8|0,0:0|0:0,0:0:0:0:
240,160,6522,1,0,1:0:0:0:
312,216,6631,1,8,0:0:0:0:
408,200,6741,2,0,P|448:176|472:64,1,160,0|8,1:0|0:0,0:0:0:0:
424,8,7069,1,0,1:0:0:0:
344,16,7179,2,0,P|312:39|296:79,1,80,8|0,0:0|0:0,0:0:0:0:
288,160,7398,1,0,1:0:0:0:
320,240,7507,1,8,0:0:0:0:
392,288,7617,2,0,P|432:304|472:304,1,80,0|0,1:0|0:0,0:0:0:0:
344,352,7835,5,8,0:0:0:0:
272,384,7944,1,0,1:0:0:0:
200,368,8054,2,0,P|168:344|168:216,1,160,8|0,0:0|1:0,0:0:0:0:
192,160,8383,1,8,0:0:0:0:
152,88,8492,2,0,P|120:64|64:56,1,80,0|0,1:0|0:0,0:0:0:0:
8,80,8711,5,10,0:0:0:0:
64,184,8821,1,2,1:2:0:0:
192,160,8930,1,10,0:0:0:0:
240,280,9040,5,10,1:2:0:0:
152,88,9346,1,2,1:3:0:0:
349,258,9697,6,0,P|298:286|239:279,1,119.999996337891,6|0,1:2|0:0,0:0:0:0:
90,209,9916,2,0,P|132:168|191:159,1,119.999996337891,8|0,0:0|0:0,0:0:0:0:
272,192,10135,1,0,1:0:0:0:
352,176,10244,1,0,1:0:0:0:
408,112,10354,1,8,0:0:0:0:
408,32,10463,2,0,P|368:96|376:152,1,119.999996337891,6|0,1:2|0:0,0:0:0:0:
408,224,10682,1,0,1:0:0:0:
384,320,10792,2,0,P|332:375|276:381,1,119.999996337891,8|0,0:2|0:0,0:0:0:0:
224,344,11011,1,0,1:0:0:0:
152,312,11120,1,0,1:0:0:0:
72,328,11230,1,8,0:0:0:0:
24,384,11339,6,0,P|88:336|96:288,1,119.999996337891,6|0,1:2|0:0,0:0:0:0:
72,232,11558,1,0,1:0:0:0:
0,244,11668,2,0,P|20:299|72:328,1,119.999996337891,8|0,0:0|0:0,0:0:0:0:
152,312,11887,1,0,1:0:0:0:
200,256,11996,1,0,1:0:0:0:
200,184,12106,1,8,0:0:0:0:
144,136,12215,2,0,P|104:80|120:24,1,119.999996337891,4|0,1:2|0:0,0:0:0:0:
192,0,12434,1,0,1:0:0:0:
272,24,12544,2,0,P|328:40|400:40,1,119.999996337891,8|0,0:0|0:0,0:0:0:0:
456,8,12762,1,0,1:0:0:0:
496,80,12872,1,0,1:0:0:0:
480,160,12981,1,8,0:0:0:0:
416,208,13091,6,0,P|359:193|316:141,1,119.999996337891,4|0,1:2|0:0,0:0:0:0:
