osu file format v14

[General]
AudioFilename: audio.mp3
AudioLeadIn: 0
PreviewTime: 152799
Countdown: 0
SampleSet: Soft
StackLeniency: 0.5
Mode: 0
LetterboxInBreaks: 0
WidescreenStoryboard: 0

[Editor]
Bookmarks: 164,2690,9610,23624,37639,55157
DistanceSpacing: 1
BeatDivisor: 2
GridSize: 8
TimelineZoom: 0.8

[Metadata]
Title:Imaginary Reload
TitleUnicode:イマジナリーリロード
Artist:JIN
ArtistUnicode:じん
Creator:YelloJello
Version:Reload 2018
Source:
Tags:Kagerou Project Mekakucity Actors
BeatmapID:1839415
BeatmapSetID:879583

[Difficulty]
HPDrainRate:4
CircleSize:3.5
OverallDifficulty:9.5
ApproachRate:9.5
SliderMultiplier:1
SliderTickRate:1

[Events]
//Background and Video events
0,0,"bg.png",0,0
//Break Periods
//Storyboard Layer 0 (Background)
//Storyboard Layer 1 (Fail)
//Storyboard Layer 2 (Pass)
//Storyboard Layer 3 (Foreground)
//Storyboard Layer 4 (Overlay)
//Storyboard Sound Samples

[TimingPoints]
164,315.789473684211,4,2,1,10,1,0
164,-666.666666666667,4,2,1,10,0,0
2690,218.978102189781,4,2,1,65,1,0
2799,-66.6666666666667,4,2,1,65,0,0
8876,-66.6666666666667,4,2,1,15,0,0
8930,-66.6666666666667,4,2,1,65,0,0
8985,-66.6666666666667,4,2,1,15,0,0
9040,-57.1428571428571,4,2,1,45,0,0
9697,-33.3333333333333,4,2,1,70,0,1
9916,-50,4,2,1,70,0,1
13967,-33.3333333333333,4,2,1,70,0,1
14295,-50,4,2,1,70,0,1
15719,-40,4,2,1,70,0,1
16595,-33.3333333333333,4,2,1,70,0,1
16814,-50,4,2,1,70,0,1
23711,-66.6666666666667,4,2,1,55,0,0
30719,-33.3333333333333,4,2,1,55,0,0
30938,-66.6666666666667,4,2,1,55,0,0
37288,-57.1428571428571,4,2,1,55,0,0
37726,-80,4,2,1,55,0,0
39533,-80,4,2,1,5,0,0
39587,-80,4,2,1,55,0,0
43036,-80,4,2,1,5,0,0
43091,-80,4,2,1,55,0,0
46540,-80,4,2,1,5,0,0
46595,-80,4,2,1,55,0,0
50044,-80,4,2,1,5,0,0
50098,-80,4,2,1,55,0,0
54806,-200,4,2,1,55,0,0
55244,-50,4,2,1,55,0,0
55463,-66.6666666666667,4,2,1,55,0,0

[Colours]
Combo1 : 82,82,82
Combo2 : 192,192,192
Combo3 : 255,0,0
Combo4 : 255,128,255
Combo5 : 0,108,217
Combo6 : 255,128,0
Combo7 : 0,128,64
Combo8 : 255,255,0

[HitObjects]
40,141,164,6,2,P|49:129|133:106,1,104.999996795654,0|0,0:0|0:0,0:2:0:0:
494,94,2698,5,4,3:2:0:0:
423,217,2799,2,0,L|416:141,1,75.0000028610231,8|0,0:0|0:0,0:0:0:0:
374,47,3018,5,0,3:0:0:0:
303,170,3127,2,0,L|296:94,2,75.0000028610231,8|0|2,0:0|0:0|0:0,0:0:0:0:
110,126,3456,2,0,L|185:119,1,75.0000028610231,0|0,3:0|0:0,0:0:0:0:
199,332,3675,5,8,0:0:0:0:
53,215,3784,2,0,L|128:208,1,75.0000028610231,0|0,3:0|0:0,0:0:0:0:
251,251,4003,5,8,0:0:0:0:
370,88,4113,2,0,L|295:95,1,75.0000028610231,0|2,3:0|0:0,0:0:0:0:
251,251,4332,5,8,0:0:0:0:
290,352,4441,1,0,3:0:0:0:
357,268,4551,2,0,L|363:192,1,75.0000028610231,8|2,0:0|0:0,0:0:0:0:
155,247,4770,1,0,3:0:0:0:
200,71,4879,1,8,0:0:0:0:
320,167,4989,2,0,L|240:160,1,75.0000028610231,0|2,3:0|0:0,0:0:0:0:
34,83,5208,5,8,0:0:0:0:
34,83,5317,2,0,L|41:167,2,75.0000028610231,0|8|2,3:0|0:0|0:0,0:0:0:0:
275,64,5646,2,0,L|200:70,1,75.0000028610231,0|8,3:0|0:0,0:0:0:0:
319,166,5865,2,0,L|394:173,1,75.0000028610231,0|2,3:0|0:0,0:0:0:0:
468,91,6084,1,0,3:0:0:0:
502,245,6193,5,4,3:2:0:0:
502,245,6303,2,0,L|509:171,1,75.0000028610231,8|2,0:0|0:0,0:0:0:0:
416,278,6522,1,0,3:0:0:0:
512,350,6631,1,8,0:0:0:0:
512,350,6741,2,0,L|429:357,1,75.0000028610231,0|2,3:0|0:0,0:0:0:0:
324,357,6960,5,8,0:0:0:0:
416,278,7069,1,0,3:0:0:0:
226,294,7179,2,0,L|143:301,1,75.0000028610231,8|2,0:0|0:0,0:0:0:0:
62,342,7398,1,0,3:0:0:0:
172,141,7507,1,8,0:0:0:0:
39,240,7617,2,0,L|113:229,1,75.0000028610231,0|2,3:0|0:0,0:0:0:0:
321,164,7836,5,8,0:0:0:0:
288,20,7945,1,0,3:0:0:0:
440,102,8055,2,0,L|366:85,1,75.0000028610231,8|2,0:0|0:0,0:0:0:0:
208,46,8273,1,0,3:0:0:0:
237,227,8383,1,8,0:0:0:0:
97,151,8492,2,0,P|134:147|170:157,1,75.0000028610231,0|2,3:0|0:0,0:0:0:0:
313,238,8711,1,8,0:0:0:0:
150,283,8821,6,0,P|127:288|106:290,1,37.5000014305115,10|0,3:0|0:0,0:0:0:0:
304,251,8930,2,0,P|325:247|349:239,1,37.5000014305115,10|0,3:0|0:0,0:0:0:0:
200,133,9040,2,0,L|208:41,1,87.500000834465,8|2,0:0|3:2,0:0:0:0:
167,369,9369,5,10,3:2:0:0:
0,151,9697,86,0,B|93:142|44:189|138:178,1,150.000005722046,4|0,3:2|0:0,0:0:0:0:
322,138,9916,2,0,L|312:250,1,100,8|0,0:0|0:0,0:0:0:0:
167,369,10135,2,0,L|157:256,1,100,2|0,3:2|0:0,0:0:0:0:
143,91,10354,1,8,0:0:0:0:
322,138,10463,6,0,P|276:156|228:149,1,100,4|0,3:2|0:0,0:0:0:0:
286,60,10682,1,0,3:0:0:0:
490,178,10792,2,0,L|391:186,1,100,10|0,0:0|0:0,0:0:0:0:
227,147,11011,1,0,3:0:0:0:
393,95,11120,1,0,3:0:0:0:
269,242,11230,1,8,0:0:0:0:
222,127,11339,6,0,P|174:119|128:137,1,100,4|2,3:2|0:1,0:0:0:0:
17,223,11558,1,0,3:0:0:0:
96,35,11668,2,0,L|104:134,1,100,10|0,0:0|0:0,0:0:0:0:
121,325,11887,1,0,3:0:0:0:
121,325,11996,1,0,3:0:0:0:
106,151,12106,1,8,0:0:0:0:
269,242,12215,6,0,P|314:247|372:214,1,100,4|0,3:2|0:0,0:0:0:0:
400,138,12434,1,0,3:0:0:0:
470,309,12544,2,0,L|479:207,1,100,10|0,0:0|0:0,0:0:0:0:
496,46,12762,1,0,3:0:0:0:
326,84,12872,1,0,3:0:0:0:
488,123,12981,1,8,0:0:0:0:
289,5,13091,6,0,P|255:34|240:93,1,100,4|0,3:2|0:0,0:0:0:0:
208,215,13310,1,0,3:0:0:0:
3,124,13419,2,0,P|47:120|99:151,1,100,10|0,0:0|0:0,0:0:0:0:
164,323,13638,1,0,3:0:0:0:
164,323,13748,1,0,3:0:0:0:
31,205,13857,1,8,0:0:0:0:
208,215,13967,6,0,B|302:216|244:263|350:265,1,150.000005722046,4|2,3:2|0:1,0:0:0:0:
512,223,14186,1,0,3:0:0:0:
342,76,14295,2,0,L|334:176,1,100,10|0,0:0|0:0,0:0:0:0:
316,351,14514,1,0,3:0:0:0:
428,270,14624,1,0,3:0:0:0:
208,215,14733,1,8,0:0:0:0:
345,273,14843,6,0,L|354:164,1,100,4|0,3:2|0:0,0:0:0:0:
272,16,15062,1,0,3:0:0:0:
185,118,15171,2,0,P|229:139|279:135,1,100,10|0,0:0|0:0,0:0:0:0:
411,65,15390,1,0,3:0:0:0:
293,125,15500,1,0,3:0:0:0:
449,47,15609,1,8,0:0:0:0:
417,298,15719,6,0,B|433:317|433:317|440:217,1,125,4|0,3:2|0:0,0:0:0:0:
449,47,15938,1,0,3:0:0:0:
346,257,16047,5,10,0:0:0:0:
293,125,16157,1,0,3:0:0:0:
262,347,16266,5,10,0:0:0:0:
281,205,16376,1,0,3:0:0:0:
144,382,16485,5,10,0:0:0:0:
346,257,16595,6,0,B|399:261|399:261|436:287|436:287|506:293,1,150.000005722046,4|0,3:2|0:0,0:0:0:0:
457,94,16814,1,0,3:0:0:0:
215,139,16923,2,0,P|235:183|280:204,1,100,10|0,0:0|0:0,0:0:0:0:
384,168,17142,1,0,3:0:0:0:
384,168,17252,1,0,3:0:0:0:
194,245,17361,1,8,0:0:0:0:
294,27,17471,6,0,B|303:74|303:74|292:124,1,100,4|0,3:2|0:0,0:0:0:0:
194,245,17690,1,0,3:0:0:0:
150,74,17799,2,0,P|194:94|215:139,1,100,10|0,0:0|0:0,0:0:0:0:
194,245,18018,1,0,3:0:0:0:
138,148,18127,1,0,3:0:0:0:
307,246,18237,1,8,0:0:0:0:
136,342,18346,6,0,B|101:353|101:353|29:346,1,100,4|2,3:2|0:1,0:0:0:0:
81,244,18565,1,0,3:0:0:0:
250,345,18675,2,0,P|298:362|351:354,1,100,10|0,0:0|0:0,0:0:0:0:
478,211,18894,1,0,3:0:0:0:
478,211,19003,1,0,3:0:0:0:
307,246,19113,1,8,0:0:0:0:
362,80,19222,6,0,B|379:131|379:131|370:180,1,100,4|0,3:2|0:0,0:0:0:0:
307,246,19441,1,0,3:0:0:0:
195,127,19551,2,0,L|295:136,1,100,10|0,0:0|0:0,0:0:0:0:
462,145,19770,1,0,3:0:0:0:
362,80,19879,1,0,3:0:0:0:
408,282,19989,1,8,3:0:0:0:
472,132,20098,6,0,L|371:140,1,100,4|0,3:2|0:0,0:0:0:0:
237,138,20317,1,0,3:0:0:0:
298,7,20427,2,0,P|316:52|305:101,1,100,10|0,0:0|0:0,0:0:0:0:
181,223,20646,1,0,3:0:0:0:
181,223,20755,1,0,3:0:0:0:
301,111,20865,1,8,0:0:0:0:
337,270,20974,6,0,B|346:322|346:322|330:372,1,100,4|2,3:2|0:1,0:0:0:0:
228,384,21193,1,0,3:0:0:0:
378,323,21303,2,0,L|477:332,1,100,10|0,0:0|0:0,0:0:0:0:
362,187,21522,1,0,3:0:0:0:
441,241,21631,1,0,3:0:0:0:
425,67,21741,1,8,3:0:0:0:
276,229,21850,6,0,B|247:241|247:241|168:234,1,100,4|0,3:2|0:0,0:0:0:0:
63,178,22069,1,0,3:0:0:0:
94,338,22179,2,0,L|103:239,1,100,10|0,0:0|0:0,0:0:0:0:
119,89,22398,1,0,3:0:0:0:
104,231,22507,1,0,3:0:0:0:
123,54,22617,1,8,0:0:0:0:
323,83,22726,6,0,L|224:92,1,100,2|0,0:0|3:0,0:0:0:0:
63,109,22945,1,0,3:0:0:0:
245,4,23054,5,10,0:0:0:0:
147,160,23164,1,0,3:0:0:0:
393,22,23273,5,10,0:0:0:0:
230,108,23383,1,0,3:0:0:0:
512,111,23492,6,0,L|501:225,1,100,10|0,0:0|0:0,0:0:0:0:
486,383,23711,5,4,3:2:0:0:
486,383,23930,2,0,L|406:388,1,75.0000028610231,10|0,0:0|0:0,0:0:0:0:
358,316,24149,1,0,3:0:0:0:
358,316,24259,1,0,3:0:0:0:
206,384,24368,2,0,L|213:296,1,75.0000028610231,10|0,0:0|3:0,0:0:0:0:
210,140,24587,5,2,0:1:0:0:
295,190,24697,1,0,3:0:0:0:
380,141,24806,2,0,P|378:184|372:231,1,75.0000028610231,10|0,0:0|0:0,0:0:0:0:
358,316,25025,1,0,3:1:0:0:
431,264,25135,1,0,3:0:0:0:
439,353,25244,2,0,P|398:351|350:345,1,75.0000028610231,10|0,0:0|0:0,0:0:0:0:
197,278,25463,6,0,P|238:276|285:270,1,75.0000028610231,2|0,3:1|0:0,0:0:0:0:
374,66,25682,2,0,P|378:103|380:141,1,75.0000028610231,10|0,0:0|0:0,0:0:0:0:
350,227,25901,1,0,3:0:0:0:
350,227,26011,1,0,3:0:0:0:
259,207,26120,1,10,0:0:0:0:
197,278,26230,6,0,P|198:315|206:365,1,75.0000028610231,0|2,3:0|0:1,0:0:0:0:
280,384,26449,1,0,3:0:0:0:
121,363,26558,2,0,P|81:363|43:374,1,75.0000028610231,10|0,0:0|0:0,0:0:0:0:
86,255,26777,1,0,3:0:0:0:
197,278,26887,1,0,3:0:0:0:
162,171,26996,2,0,L|138:96,1,75.0000028610231,10|0,0:0|0:0,0:0:0:0:
248,148,27215,6,0,P|286:162|342:161,1,75.0000028610231,2|0,3:1|0:0,0:0:0:0:
470,101,27434,2,0,L|463:186,1,75.0000028610231,10|0,0:0|0:0,0:0:0:0:
367,332,27653,1,0,3:0:0:0:
367,332,27762,1,0,3:0:0:0:
378,222,27872,1,10,0:0:0:0:
467,286,27981,6,0,P|469:251|467:204,1,75.0000028610231,0|2,3:0|0:1,0:0:0:0:
470,101,28200,1,0,3:0:0:0:
248,148,28310,2,0,P|283:150|330:148,1,75.0000028610231,10|0,0:0|0:0,0:0:0:0:
382,82,28529,1,0,3:0:0:0:
419,153,28638,1,0,3:0:0:0:
378,222,28748,2,0,P|343:224|296:222,1,75.0000028610231,10|0,0:0|0:0,0:0:0:0:
154,169,28967,6,0,B|165:211|165:211|161:280,1,75.0000028610231,2|0,3:1|0:0,0:0:0:0:
27,328,29186,2,0,B|57:297|57:297|119:266,1,75.0000028610231,10|0,0:0|0:0,0:0:0:0:
245,268,29405,1,0,3:0:0:0:
205,351,29514,1,0,3:0:0:0:
297,345,29624,2,0,P|333:344|380:346,1,75.0000028610231,10|0,0:0|0:0,0:0:0:0:
481,359,29843,5,2,3:1:0:0:
481,359,29952,1,0,3:0:0:0:
330,271,30062,1,10,0:0:0:0:
371,345,30171,2,0,P|394:325|413:273,1,75.0000028610231,0|0,3:0|0:0,0:0:0:0:
399,194,30390,1,0,3:0:0:0:
296,344,30500,2,0,P|267:321|251:288,1,75.0000028610231,10|0,0:0|0:0,0:0:0:0:
271,202,30719,6,0,B|185:190|224:240|122:224,1,150.000005722046,4|0,3:2|0:0,0:0:0:0:
34,125,30938,2,0,L|41:215,1,75.0000028610231,10|0,0:0|0:0,0:0:0:0:
81,320,31157,1,0,3:0:0:0:
81,320,31266,1,0,3:0:0:0:
126,224,31376,2,0,P|161:248|183:294,1,75.0000028610231,10|0,0:0|0:0,0:0:0:0:
170,384,31595,5,2,3:1:0:0:
170,384,31704,1,0,3:0:0:0:
222,285,31814,1,10,0:0:0:0:
281,379,31923,2,0,P|318:385|356:385,1,75.0000028610231,0|0,3:0|0:0,0:0:0:0:
468,359,32143,1,0,3:0:0:0:
333,280,32252,2,0,P|367:280|408:286,1,75.0000028610231,10|0,0:0|0:0,0:0:0:0:
477,369,32471,6,0,L|484:286,1,75.0000028610231,2|0,3:1|0:0,0:0:0:0:
330,195,32690,2,0,L|323:278,1,75.0000028610231,10|0,0:0|0:0,0:0:0:0:
313,372,32908,1,0,3:0:0:0:
313,372,33018,1,0,3:0:0:0:
222,285,33127,2,0,L|215:210,1,75.0000028610231,10|0,0:0|0:0,0:0:0:0:
205,108,33346,5,2,3:1:0:0:
205,108,33456,1,0,3:0:0:0:
135,191,33565,1,10,0:0:0:0:
98,88,33675,2,0,L|91:12,1,75.0000028610231,0|0,3:0|0:0,0:0:0:0:
28,172,33894,1,0,3:0:0:0:
65,274,34003,2,0,L|53:376,1,75.0000028610231,10|0,0:0|0:0,0:0:0:0:
172,294,34222,6,0,P|215:289|257:305,1,75.0000028610231,2|0,3:1|0:0,0:0:0:0:
398,239,34441,2,0,P|354:243|312:227,1,75.0000028610231,10|0,0:0|0:0,0:0:0:0:
201,137,34660,1,0,3:0:0:0:
201,137,34770,1,0,3:0:0:0:
376,86,34879,2,0,L|370:162,1,75.0000028610231,10|0,0:0|0:0,0:0:0:0:
243,297,35098,5,2,3:1:0:0:
243,297,35208,1,0,3:0:0:0:
311,374,35317,1,10,0:0:0:0:
324,234,35427,2,0,L|331:150,1,75.0000028610231,0|2,3:0|0:1,0:0:0:0:
376,86,35646,1,0,3:0:0:0:
201,137,35755,2,0,L|124:130,1,75.0000028610231,10|0,0:0|0:0,0:0:0:0:
0,0,35974,6,0,L|7:82,1,75.0000028610231,2|0,3:1|0:0,0:0:0:0:
144,296,36193,2,0,L|151:213,1,75.0000028610231,10|0,0:0|0:0,0:0:0:0:
164,52,36412,1,2,3:1:0:0:
201,137,36522,1,0,3:0:0:0:
293,147,36631,2,0,L|378:139,1,75.0000028610231,10|0,0:0|0:0,0:0:0:0:
512,273,36850,5,6,3:2:0:0:
417,220,36960,1,8,0:0:0:0:
312,249,37069,1,8,0:0:0:0:
258,343,37179,1,8,3:0:0:0:
153,371,37288,2,0,P|109:372|68:351,1,87.500000834465,8|0,3:0|3:0,0:0:0:0:
175,187,37507,2,0,P|197:224|200:270,1,87.500000834465,8|0,3:0|3:0,0:0:0:0:
4,259,37726,6,0,B|38:261|38:261|86:246,1,62.5,4|0,3:2|0:0,0:0:0:0:
236,180,37945,2,0,B|202:178|202:178|154:193,1,62.5,0|0,3:0|0:0,0:0:0:0:
423,282,38164,2,0,L|415:215,1,62.5,10|0,0:0|0:0,0:0:0:0:
319,136,38383,2,0,L|326:202,1,62.5,2|0,0:1|0:0,0:0:0:0:
402,92,38602,6,0,P|375:61|331:46,1,62.5,0|0,3:0|0:0,0:0:0:0:
180,47,38821,1,2,0:1:0:0:
206,106,38930,1,0,3:0:0:0:
258,139,39040,2,0,P|299:141|340:121,1,62.5,10|0,0:0|0:0,0:0:0:0:
210,217,39259,6,0,B|124:211|163:262|53:255,1,156.25,4|0,3:2|0:0,0:0:0:0:
62,255,39587,1,8,0:0:0:0:
91,172,39697,2,0,P|100:132|94:96,1,62.5,0|0,3:0|0:0,0:0:0:0:
0,40,39916,2,0,L|62:43,1,62.5,10|0,0:0|0:0,0:0:0:0:
160,114,40135,2,0,L|97:110,1,62.5,2|0,0:1|0:0,0:0:0:0:
226,48,40354,5,0,3:0:0:0:
254,98,40463,1,8,0:0:0:0:
252,158,40573,2,0,L|245:231,1,62.5,2|0,3:1|0:0,0:0:0:0:
383,83,40792,2,0,L|314:75,1,62.5,10|0,0:0|0:0,0:0:0:0:
160,114,41011,2,0,L|228:121,1,62.5,2|0,0:1|0:0,0:0:0:0:
444,12,41230,6,0,P|468:45|475:95,1,62.5,4|0,3:2|0:0,0:0:0:0:
352,136,41449,2,0,P|368:98|408:67,1,62.5,0|0,3:0|0:0,0:0:0:0:
443,225,41668,2,0,L|436:299,1,62.5,10|0,0:0|0:0,0:0:0:0:
360,384,41887,1,2,0:1:0:0:
312,345,41996,1,8,0:0:0:0:
251,345,42106,6,0,L|184:350,1,62.5,0|8,3:0|0:0,0:0:0:0:
72,265,42325,1,2,0:1:0:0:
132,257,42434,1,0,3:0:0:0:
176,215,42544,2,0,L|218:164,1,62.5,10|0,0:0|0:0,0:0:0:0:
433,65,42762,6,0,B|380:65|380:65|339:93|339:93|286:93,1,156.25,4|0,3:2|0:0,0:0:0:0:
286,93,43091,1,8,0:0:0:0:
174,33,43200,2,0,L|180:99,1,62.5,0|0,3:0|0:0,0:0:0:0:
402,212,43419,2,0,L|407:149,1,62.5,10|0,0:0|0:0,0:0:0:0:
252,252,43638,1,2,0:1:0:0:
311,247,43748,1,8,0:0:0:0:
349,293,43857,6,0,L|344:356,1,62.5,8|0,3:0|0:0,0:0:0:0:
507,292,44076,2,0,L|445:298,1,62.5,2|0,3:1|0:0,0:0:0:0:
263,375,44295,2,0,L|325:369,1,62.5,8|0,3:0|0:0,0:0:0:0:
252,252,44514,1,8,3:0:0:0:
189,257,44624,1,8,3:0:0:0:
127,262,44733,6,0,B|93:264|93:264|61:256,1,62.5,4|0,3:2|0:0,0:0:0:0:
179,95,44952,2,0,B|198:122|198:122|207:154,1,62.5,0|0,3:0|0:0,0:0:0:0:
368,100,45171,2,0,P|337:102|307:98,1,62.5,10|0,0:0|0:0,0:0:0:0:
469,47,45390,2,0,P|492:67|511:92,1,62.5,2|0,0:1|0:0,0:0:0:0:
452,203,45609,6,0,L|446:140,1,62.5,0|0,3:0|0:0,0:0:0:0:
362,236,45828,1,2,0:1:0:0:
356,298,45938,1,0,3:0:0:0:
351,360,46047,2,0,B|371:298,1,62.5,10|0,0:0|0:0,0:0:0:0:
259,299,46266,6,0,B|173:293|212:344|102:337,1,156.25,4|0,3:2|0:0,0:0:0:0:
111,337,46595,1,8,0:0:0:0:
0,275,46704,2,0,B|19:334,1,62.5,0|0,3:0|0:0,0:0:0:0:
153,183,46923,2,0,B|134:243,1,62.5,10|0,0:0|0:0,0:0:0:0:
99,107,47142,2,0,P|137:91|179:94,1,62.5,2|0,0:1|0:0,0:0:0:0:
365,188,47361,5,0,3:0:0:0:
306,204,47471,1,8,3:0:0:0:
247,187,47580,2,0,P|272:208|288:255,1,62.5,2|0,3:1|0:0,0:0:0:0:
110,332,47799,2,0,P|114:300|147:262,1,62.5,10|0,0:0|0:0,0:0:0:0:
307,374,48018,1,2,0:1:0:0:
247,382,48127,1,8,3:0:0:0:
211,334,48237,6,0,L|204:270,1,62.5,4|0,3:2|0:0,0:0:0:0:
312,142,48456,2,0,L|305:205,1,62.5,0|0,3:0|0:0,0:0:0:0:
211,75,48675,2,0,P|194:59|146:51,1,62.5,10|0,0:0|0:0,0:0:0:0:
312,142,48894,2,0,P|335:141|374:113,1,62.5,2|0,0:1|0:0,0:0:0:0:
445,0,49113,5,0,3:0:0:0:
401,40,49222,1,8,0:0:0:0:
418,97,49332,1,2,0:1:0:0:
476,108,49441,1,0,3:0:0:0:
512,61,49551,2,0,L|505:129,1,62.5,10|0,0:0|0:0,0:0:0:0:
443,271,49770,6,0,B|423:302|423:302|434:184,1,156.25,4|0,3:2|0:0,0:0:0:0:
434,184,50098,1,8,0:0:0:0:
336,246,50208,2,0,L|262:252,1,62.5,2|0,3:1|0:0,0:0:0:0:
112,318,50427,2,0,L|185:311,1,62.5,10|0,0:0|0:0,0:0:0:0:
104,227,50646,1,2,0:1:0:0:
49,254,50755,1,8,3:0:0:0:
26,310,50865,5,0,3:0:0:0:
33,250,50974,1,8,3:0:0:0:
0,200,51084,2,0,P|-14:167|-7:121,1,62.5,2|0,3:1|0:0,0:0:0:0:
103,30,51303,2,0,P|98:65|69:101,1,62.5,10|0,0:0|0:0,0:0:0:0:
183,140,51522,1,10,0:0:0:0:
255,113,51631,1,10,0:0:0:0:
331,129,51741,6,0,L|324:204,1,62.5,4|0,3:2|0:0,0:0:0:0:
383,298,51960,2,0,L|388:235,1,62.5,0|0,3:0|0:0,0:0:0:0:
216,350,52179,2,0,L|278:355,1,62.5,10|0,0:2|0:0,0:0:0:0:
507,309,52398,1,0,3:0:0:0:
445,303,52507,1,8,0:0:0:0:
383,298,52617,6,0,L|315:292,1,62.5,2|0,3:2|0:0,0:0:0:0:
227,218,52835,2,0,L|302:224,1,62.5,0|0,3:0|0:0,0:0:0:0:
429,157,53054,2,0,L|347:149,1,62.5,8|0,0:0|0:0,0:0:0:0:
202,41,53273,2,0,L|292:48,1,62.5,0|0,3:0|0:0,0:0:0:0:
512,1,53492,5,8,3:0:0:0:
512,1,53711,1,8,3:0:0:0:
512,1,54587,5,8,3:1:0:0:
493,37,54659,1,8,3:1:0:0:
493,78,54732,1,8,3:1:0:0:
512,115,54806,2,0,P|524:155|519:194,1,75,8|0,3:1|0:0,0:0:0:0:
436,246,55244,6,0,L|333:237,1,100,4|0,3:2|0:0,0:0:0:0:
237,171,55463,2,0,L|245:268,1,75.0000028610231,0|0,3:0|0:0,0:0:0:0:
416,82,55682,2,0,L|422:7,1,75.0000028610231,8|0,0:0|0:0,0:0:0:0:
326,126,55901,1,8,0:0:0:0:
204,66,56011,6,0,L|242:70,1,37.5000014305115,2|0,3:2|0:0,0:0:0:0:
108,220,56230,2,0,L|145:216,1,37.5000014305115,2|0,3:2|0:0,0:0:0:0:
11,66,56449,2,0,L|94:73,1,75.0000028610231,2|0,3:2|3:0,0:0:0:0:
332,200,56668,1,8,0:0:0:0:
257,206,56777,1,8,0:0:0:0:
182,213,56886,1,8,0:0:0:0:
108,220,56996,6,0,L|30:226,1,75.0000028610231,4|0,3:2|0:0,0:0:0:0:
