osu file format v14

[General]
AudioFilename: audio.mp3
AudioLeadIn: 0
PreviewTime: 80959
Countdown: 0
SampleSet: Soft
StackLeniency: 0.4
Mode: 0
LetterboxInBreaks: 0
WidescreenStoryboard: 0

[Editor]
Bookmarks: 13834,23434,42484,52084,61684,71442,81034,90634,100234,109834,119284,128884,138634,157684,168634,178234,187834,197434,206434
DistanceSpacing: 1
BeatDivisor: 4
GridSize: 4
TimelineZoom: 0.8

[Metadata]
Title:Additional Memory
TitleUnicode:アディショナルメモリー
Artist:JIN
ArtistUnicode:じん
Creator:YelloJello
Version:Reload
Source:
Tags:Ippo.tsk Ayano Tateyama 楯山文乃 Kagerou Project Daze Days カゲロウプロジェクト Mekakucity Actors メカクシティアクターズ Shizen no Teki P Teki-P TekiP自然の敵P Vocaloid Hatsune Miku 初音ミク
BeatmapID:1776931
BeatmapSetID:849818

[Difficulty]
HPDrainRate:4.5
CircleSize:4.5
OverallDifficulty:9.7
ApproachRate:9.7
SliderMultiplier:1.6
SliderTickRate:1

[Events]
//Background and Video events
0,0,"Kagerou..png",0,0
//Break Periods
2,119284,127425
//Storyboard Layer 0 (Background)
//Storyboard Layer 1 (Fail)
//Storyboard Layer 2 (Pass)
//Storyboard Layer 3 (Foreground)
//Storyboard Sound Samples

[TimingPoints]
13834,300,4,2,1,55,1,0
13834,-86.9565217391304,4,2,1,55,0,0
14059,-80,4,2,1,5,0,0
14134,-100,4,2,1,55,0,0
14434,-133.333333333333,4,2,1,55,0,0
14884,-133.333333333333,4,2,1,50,0,0
15109,-133.333333333333,4,2,1,5,0,0
15184,-133.333333333333,4,2,1,50,0,0
16084,-100,4,2,1,45,0,0
16309,-100,4,2,1,5,0,0
16384,-133.333333333333,4,2,1,45,0,0
17284,-133.333333333333,4,2,1,35,0,0
17509,-133.333333333333,4,2,1,5,0,0
17584,-133.333333333333,4,2,1,35,0,0
18484,-100,4,2,1,55,0,0
18709,-100,4,2,1,5,0,0
18784,-133.333333333333,4,2,1,55,0,0
19684,-133.333333333333,4,2,1,45,0,0
19909,-133.333333333333,4,2,1,5,0,0
19984,-133.333333333333,4,2,1,45,0,0
20884,-1000,4,2,1,35,0,0
22009,-100,4,2,1,5,0,0
22084,-133.333333333333,4,2,1,55,0,0
22309,-133.333333333333,4,2,1,5,0,0
22384,-133.333333333333,4,2,1,45,0,0
22684,-133.333333333333,4,2,1,20,0,0
22834,-100,4,2,1,55,0,0
22909,-100,4,2,1,20,0,0
22984,-100,4,2,1,55,0,0
23434,-80,4,2,1,55,0,0
28159,-80,4,2,1,30,0,0
28234,-80,4,2,1,55,0,0
28459,-80,4,2,1,5,0,0
28534,-80,4,2,1,55,0,0
29809,-80,4,2,1,5,0,0
29884,-80,4,2,1,55,0,0
30559,-80,4,2,1,30,0,0
30634,-80,4,2,1,55,0,0
32734,-80,4,2,1,35,0,0
32884,-80,4,2,1,45,0,0
33034,-100,4,2,1,55,0,0
33259,-100,4,2,1,5,0,0
33334,-100,4,2,1,55,0,0
33484,-80,4,2,1,55,0,0
35659,-80,4,2,1,5,0,0
35734,-80,4,2,1,55,0,0
36484,-100,4,2,1,55,0,0
37684,-80,4,2,1,55,0,0
37759,-80,4,2,1,35,0,0
37834,-80,4,2,1,55,0,0
38059,-80,4,2,1,5,0,0
38134,-80,4,2,1,55,0,0
42109,-80,4,2,1,30,0,0
42184,-80,4,2,1,55,0,0
42484,-142.857142857143,4,2,1,55,0,0
42709,-142.857142857143,4,2,1,5,0,0
42784,-142.857142857143,4,2,1,50,0,0
42934,-100,4,2,1,50,0,0
46384,-117.647058823529,4,2,1,50,0,0
46984,-200,4,2,1,50,0,0
47209,-200,4,2,1,5,0,0
47284,-100,4,2,1,50,0,0
47509,-100,4,2,1,5,0,0
47584,-100,4,2,1,50,0,0
50959,-100,4,2,1,15,0,0
51184,-100,4,2,1,50,0,0
51259,-100,4,2,1,15,0,0
51484,-100,4,2,1,50,0,0
51559,-100,4,2,1,15,0,0
51784,-100,4,2,1,50,0,0
51859,-100,4,2,1,15,0,0
52084,-100,4,2,1,50,0,0
52309,-100,4,2,1,5,0,0
52384,-100,4,2,1,50,0,0
52759,-100,4,2,1,5,0,0
52834,-100,4,2,1,50,0,0
56884,-133.333333333333,4,2,1,50,0,0
57484,-100,4,2,1,50,0,0
60709,-100,4,2,1,5,0,0
60784,-100,4,2,1,50,0,0
60859,-100,4,2,1,15,0,0
61084,-100,4,2,1,50,0,0
61159,-100,4,2,1,15,0,0
61384,-100,4,2,1,50,0,0
61459,-100,4,2,1,15,0,0
61684,-133.333333333333,4,2,1,50,0,0
61909,-133.333333333333,4,2,1,5,0,0
61984,-133.333333333333,4,2,1,50,0,0
62359,-133.333333333333,4,2,1,5,0,0
62434,-133.333333333333,4,2,1,50,0,0
62659,-133.333333333333,4,2,1,5,0,0
62734,-133.333333333333,4,2,1,50,0,0
63334,-133.333333333333,4,2,1,50,0,0
63634,-133.333333333333,4,2,1,30,0,0
63784,-133.333333333333,4,2,1,35,0,0
63934,-133.333333333333,4,2,1,40,0,0
64084,-133.333333333333,4,2,1,45,0,0
64234,-133.333333333333,4,2,1,50,0,0
65434,-133.333333333333,4,2,1,35,0,0
65734,-133.333333333333,4,2,1,40,0,0
66034,-133.333333333333,4,2,1,45,0,0
66334,-133.333333333333,4,2,1,50,0,0
66859,-133.333333333333,4,2,1,5,0,0
66934,-133.333333333333,4,2,1,50,0,0
67459,-133.333333333333,4,2,1,5,0,0
67534,-133.333333333333,4,2,1,50,0,0
69259,-133.333333333333,4,2,1,5,0,0
69334,-133.333333333333,4,2,1,50,0,0
69709,-133.333333333333,4,2,1,5,0,0
69784,-133.333333333333,4,2,1,50,0,0
70459,-133.333333333333,4,2,1,5,0,0
70534,-200,4,2,1,50,0,0
71659,-133.333333333333,4,2,1,5,0,0
71734,-133.333333333333,4,2,1,50,0,0
72034,-133.333333333333,4,2,1,50,0,0
72259,-133.333333333333,4,2,1,5,0,0
72334,-133.333333333333,4,2,1,50,0,0
72559,-133.333333333333,4,2,1,5,0,0
72634,-133.333333333333,4,2,1,50,0,0
73759,-133.333333333333,4,2,1,5,0,0
73834,-133.333333333333,4,2,1,50,0,0
74734,-133.333333333333,4,2,1,50,0,0
76159,-133.333333333333,4,2,1,5,0,0
76234,-133.333333333333,4,2,1,50,0,0
76459,-133.333333333333,4,2,1,5,0,0
76534,-133.333333333333,4,2,1,50,0,0
80434,-1000,4,2,1,50,0,0
80959,-1000,4,2,1,5,0,0
81034,-57.1428571428571,4,2,1,75,0,1
81334,-80,4,2,1,75,0,1
82084,-57.1428571428571,4,2,1,75,0,1
82384,-80,4,2,1,75,0,1
83359,-80,4,2,1,5,0,1
83434,-80,4,2,1,75,0,1
86059,-80,4,2,1,5,0,1
86134,-80,4,2,1,75,0,1
89509,-80,4,2,1,5,0,1
89584,-80,4,2,1,75,0,1
90034,-80,4,2,1,55,0,1
90184,-80,4,2,1,65,0,1
90334,-80,4,2,1,75,0,1
90634,-57.1428571428571,4,2,1,75,0,1
90934,-80,4,2,1,75,0,1
91684,-57.1428571428571,4,2,1,75,0,1
91984,-80,4,2,1,75,0,1
94309,-80,4,2,1,5,0,1
94384,-80,4,2,1,75,0,1
95659,-80,4,2,1,5,0,1
95734,-80,4,2,1,75,0,1
97084,-80,4,2,1,30,0,1
97159,-80,4,2,1,75,0,1
98059,-80,4,2,1,5,0,1
98134,-80,4,2,1,75,0,1
98434,-80,4,2,1,75,0,1
100234,-80,4,2,1,75,0,0
101509,-80,4,2,1,5,0,0
101584,-80,4,2,1,75,0,0
101884,-80,4,2,1,40,0,0
102034,-80,4,2,1,75,0,0
103909,-80,4,2,1,5,0,0
103984,-80,4,2,1,75,0,0
104809,-80,4,2,1,45,0,0
104884,-80,4,2,1,75,0,0
106309,-80,4,2,1,5,0,0
106384,-80,4,2,1,75,0,0
107659,-80,4,2,1,5,0,0
107734,-80,4,2,1,75,0,0
108709,-80,4,2,1,5,0,0
108784,-80,4,2,1,75,0,0
109534,-153.846153846154,4,2,1,75,0,0
109759,-153.846153846154,4,2,1,5,0,0
109834,-80,4,2,1,75,0,0
110134,-80,4,2,1,75,0,1
116959,-80,4,2,1,30,0,1
117034,-80,4,2,1,75,0,0
118309,-80,4,2,1,5,0,0
118384,-80,4,2,1,75,0,0
118609,-80,4,2,1,5,0,0
118684,-80,4,2,1,75,0,0
118759,-80,4,2,1,5,0,0
118834,-80,4,2,1,75,0,0
127984,-80,4,2,1,50,0,0
128884,-133.333333333333,4,2,1,65,0,0
129259,-133.333333333333,4,2,1,5,0,0
129334,-133.333333333333,4,2,1,65,0,0
129559,-133.333333333333,4,2,1,5,0,0
129634,-133.333333333333,4,2,1,65,0,0
129859,-133.333333333333,4,2,1,5,0,0
129934,-133.333333333333,4,2,1,65,0,0
130309,-133.333333333333,4,2,1,5,0,0
130384,-133.333333333333,4,2,1,65,0,0
130759,-133.333333333333,4,2,1,5,0,0
130834,-133.333333333333,4,2,1,65,0,0
131284,-100,4,2,1,65,0,0
131734,-133.333333333333,4,2,1,65,0,0
131959,-133.333333333333,4,2,1,5,0,0
132034,-133.333333333333,4,2,1,65,0,0
132334,-133.333333333333,4,2,1,35,0,0
132484,-133.333333333333,4,2,1,65,0,0
132784,-133.333333333333,4,2,1,65,0,0
133009,-133.333333333333,4,2,1,30,0,0
133084,-133.333333333333,4,2,1,65,0,0
134059,-133.333333333333,4,2,1,5,0,0
134134,-133.333333333333,4,2,1,65,0,0
134359,-133.333333333333,4,2,1,5,0,0
134434,-133.333333333333,4,2,1,65,0,0
135109,-133.333333333333,4,2,1,5,0,0
135184,-133.333333333333,4,2,1,65,0,0
135559,-133.333333333333,4,2,1,5,0,0
135634,-133.333333333333,4,2,1,65,0,0
136309,-133.333333333333,4,2,1,5,0,0
136384,-133.333333333333,4,2,1,65,0,0
137434,-400,4,2,1,65,0,0
138034,-400,4,2,1,30,0,0
138184,-133.333333333333,4,2,1,50,0,0
138634,-100,4,2,1,55,0,0
142759,-100,4,2,1,40,0,0
142984,-100,4,2,1,55,0,0
143059,-100,4,2,1,30,0,0
143134,-100,4,2,1,55,0,0
147934,-133.333333333333,4,2,1,55,0,0
148234,-100,4,2,1,55,0,0
148459,-100,4,2,1,5,0,0
148534,-100,4,2,1,55,0,0
149809,-100,4,2,1,40,0,0
150034,-100,4,2,1,55,0,0
150109,-100,4,2,1,30,0,0
150184,-100,4,2,1,55,0,0
155434,-95.2380952380952,4,2,1,45,0,0
155734,-90.9090909090909,4,2,1,50,0,0
156034,-86.9565217391304,4,2,1,55,0,0
156334,-83.3333333333333,4,2,1,60,0,0
156634,-83.3333333333333,4,2,1,65,0,0
156934,-83.3333333333333,4,2,1,70,0,0
157459,-83.3333333333333,4,2,1,55,0,0
157534,-83.3333333333333,4,2,1,70,0,0
157534,-83.3333333333333,4,2,1,70,0,0
157609,-83.3333333333333,4,2,1,55,0,0
157609,-83.3333333333333,4,2,1,55,0,0
157684,-66.6666666666667,4,2,1,65,0,0
157909,-66.6666666666667,4,2,1,5,0,0
157984,-66.6666666666667,4,2,1,65,0,0
158359,-66.6666666666667,4,2,1,5,0,0
158434,-66.6666666666667,4,2,1,65,0,0
158884,-64.1025641025641,4,2,1,65,0,0
159109,-64.1025641025641,4,2,1,5,0,0
159184,-40,4,2,1,65,0,0
159634,-66.6666666666667,4,2,1,65,0,0
160309,-66.6666666666667,4,2,1,5,0,0
160384,-40,4,2,1,65,0,0
160834,-66.6666666666667,4,2,1,65,0,0
161509,-66.6666666666667,4,2,1,5,0,0
161584,-40,4,2,1,65,0,0
162034,-66.6666666666667,4,2,1,65,0,0
162484,-57.1428571428571,4,2,1,65,0,0
162709,-57.1428571428571,4,2,1,5,0,0
162784,-40,4,2,1,65,0,0
163234,-57.1428571428571,4,2,1,65,0,0
163909,-57.1428571428571,4,2,1,5,0,0
163984,-40,4,2,1,65,0,0
164434,-57.1428571428571,4,2,1,65,0,0
165109,-57.1428571428571,4,2,1,5,0,0
165184,-40,4,2,1,65,0,0
165634,-57.1428571428571,4,2,1,65,0,0
166309,-57.1428571428571,4,2,1,5,0,0
166384,-57.1428571428571,4,2,1,65,0,0
166834,-50,4,2,1,55,0,0
167284,-44.4444444444445,4,2,1,55,0,0
167434,-1000,4,2,1,55,0,0
167509,-1000,4,2,2,20,0,0
168559,-1000,4,2,1,5,0,0
168634,-50,4,2,1,75,0,1
168934,-66.6666666666667,4,2,1,75,0,1
169684,-50,4,2,1,75,0,1
170284,-66.6666666666667,4,2,1,75,0,1
173059,-66.6666666666667,4,2,1,5,0,1
173134,-66.6666666666667,4,2,1,75,0,1
173659,-66.6666666666667,4,2,1,5,0,1
173734,-66.6666666666667,4,2,1,75,0,1
173959,-66.6666666666667,4,2,1,5,0,1
174034,-66.6666666666667,4,2,1,75,0,1
176059,-66.6666666666667,4,2,1,5,0,1
176134,-66.6666666666667,4,2,1,75,0,1
176359,-66.6666666666667,4,2,1,5,0,1
176434,-66.6666666666667,4,2,1,75,0,1
177334,-66.6666666666667,4,2,1,55,0,1
177634,-66.6666666666667,4,2,1,65,0,1
177934,-66.6666666666667,4,2,1,75,0,1
178234,-50,4,2,1,75,0,1
178534,-66.6666666666667,4,2,1,75,0,1
179284,-50,4,2,1,75,0,1
179584,-66.6666666666667,4,2,1,75,0,1
180259,-66.6666666666667,4,2,1,5,0,1
180334,-66.6666666666667,4,2,1,75,0,1
183259,-66.6666666666667,4,2,1,5,0,1
183334,-66.6666666666667,4,2,1,75,0,1
184084,-57.1428571428571,4,2,1,75,0,1
184534,-66.6666666666667,4,2,1,75,0,1
185659,-66.6666666666667,4,2,1,5,0,1
185734,-66.6666666666667,4,2,1,75,0,1
187834,-66.6666666666667,4,2,1,75,0,0
191509,-66.6666666666667,4,2,1,5,0,0
191584,-80,4,2,1,75,0,0
192634,-66.6666666666667,4,2,1,75,0,0
193909,-66.6666666666667,4,2,1,5,0,0
193984,-66.6666666666667,4,2,1,75,0,0
196309,-66.6666666666667,4,2,1,5,0,0
196384,-66.6666666666667,4,2,1,75,0,0
197659,-66.6666666666667,4,2,1,5,0,0
197734,-66.6666666666667,4,2,1,75,0,1
202234,-42.5531914893617,4,2,1,75,0,1
204634,-66.6666666666667,4,2,1,75,0,0
204784,-66.6666666666667,4,2,1,55,0,0
204859,-66.6666666666667,4,2,1,65,0,0
204934,-66.6666666666667,4,2,1,75,0,0
205684,-60.6060606060606,4,2,1,75,0,1
205909,-60.6060606060606,4,2,1,5,0,0
205984,-55.5555555555556,4,2,1,75,0,1
206209,-55.5555555555556,4,2,1,5,0,0
206284,-51.2820512820513,4,2,1,75,0,1
206359,-51.2820512820513,4,2,1,5,0,0
206434,-51.2820512820513,4,2,1,75,0,0

[Colours]
Combo1 : 72,72,72
Combo2 : 255,0,0
Combo3 : 255,128,0
Combo4 : 255,0,255

[HitObjects]
31,105,13834,6,0,B|65:108|65:108|121:132|121:132|163:136,1,138.000002632141,4|0,0:0|0:0,0:0:0:0:
173,129,14134,1,0,0:0:0:0:
173,129,14434,2,0,L|167:202,1,60.0000022888184
133,268,14884,2,0,P|160:249|223:248,1,90.0000034332277
223,253,15184,2,0,L|216:327,1,60.0000022888184
223,253,15634,2,0,L|216:326,1,60.0000022888184
367,309,16084,6,0,B|387:282|387:282|395:194,1,120
387,203,16384,2,0,L|461:197,1,60.0000022888184
387,203,16834,2,0,L|461:197,2,60.0000022888184
286,72,17284,6,0,P|326:73|384:118,1,90.0000034332277
376,105,17584,2,0,L|381:34,2,60.0000022888184
487,84,18034,2,0,L|492:155,1,60.0000022888184
501,290,18334,1,2,0:1:0:0:
501,290,18409,1,2,0:1:0:0:
501,290,18484,6,0,B|468:279|438:292|438:292|406:306|376:292,1,120,2|0,0:1|0:0,0:0:0:0:
367,278,18784,2,0,L|372:340,1,60.0000022888184
371,337,19234,2,0,L|367:278,1,60.0000022888184
342,146,19684,6,0,P|311:160|236:148,1,90.0000034332277
238,140,19984,2,0,L|243:202,1,60.0000022888184
242,199,20434,2,0,L|238:140,1,60.0000022888184
238,140,20884,6,0,L|243:200,1,60,2|0,0:1|0:0,0:0:0:0:
259,323,22084,2,0,P|240:299|163:271,1,90.0000034332277,8|0,0:0|0:0,0:0:0:0:
81,235,22384,1,8,0:3:0:0:
83,264,22459,1,8,0:3:0:0:
86,294,22534,2,0,L|89:329,3,30.0000011444092,8|8|8|8,0:3|0:3|0:3|0:3,0:0:0:0:
187,272,22834,6,0,L|192:226,1,40,8|0,0:0|0:0,0:0:0:0:
209,71,22984,1,8,0:0:0:0:
209,71,23434,6,0,P|240:97|303:107,1,100,6|0,0:1|0:0,0:0:0:0:
431,83,23734,1,10,0:1:0:0:
422,182,23884,2,0,L|431:83,1,100,2|10,0:3|0:1,0:0:0:0:
322,316,24184,1,2,0:3:0:0:
313,216,24334,2,0,L|322:316,1,100,10|0,0:1|0:0,0:0:0:0:
298,49,24634,5,10,0:1:0:0:
242,166,24784,1,2,0:3:0:0:
419,88,24934,1,10,0:1:0:0:
219,74,25084,2,0,L|118:68,1,100,2|10,0:3|0:1,0:0:0:0:
0,31,25384,1,2,0:3:0:0:
10,229,25534,1,10,0:1:0:0:
5,130,25684,1,2,0:3:0:0:
195,274,25834,6,0,B|149:287|149:287|99:275,1,100,6|0,0:1|0:0,0:0:0:0:
5,130,26134,1,10,0:1:0:0:
89,269,26284,1,2,0:3:0:0:
160,63,26434,1,10,0:1:0:0:
21,147,26584,1,2,0:3:0:0:
244,202,26734,2,0,P|261:161|254:103,1,100,10|0,0:1|0:0,0:0:0:0:
138,40,27034,5,10,0:1:0:0:
271,113,27184,2,0,L|372:121,1,100,2|10,0:3|0:1,0:0:0:0:
491,73,27484,1,2,0:3:0:0:
461,248,27634,1,10,0:1:0:0:
397,110,27784,1,2,0:3:0:0:
310,235,27934,1,10,0:1:0:0:
277,272,28009,1,8,0:0:0:0:
232,294,28084,2,0,P|227:274|230:234,1,50,8|8,0:0|0:0,0:0:0:0:
277,96,28234,6,0,P|241:137|147:130,1,150,6|0,0:1|0:0,0:0:0:0:
73,48,28534,1,10,0:1:0:0:
62,189,28684,2,0,L|54:293,1,100,2|10,0:3|0:1,0:0:0:0:
220,242,28984,1,2,0:3:0:0:
200,2,29134,2,0,L|208:101,1,100,10|0,0:1|0:0,0:0:0:0:
314,17,29434,5,10,0:1:0:0:
199,126,29584,2,0,B|224:142|270:125|270:125|308:111|345:131,1,150,2|0,0:3|0:0,0:0:0:0:
417,205,29884,1,2,0:3:0:0:
220,242,30034,1,10,0:1:0:0:
352,117,30184,1,2,0:3:0:0:
394,293,30334,1,10,0:1:0:0:
250,143,30484,2,0,L|256:79,1,50,2|2,0:3|0:3,0:0:0:0:
121,0,30634,6,0,L|130:101,1,100,6|0,0:1|0:0,0:0:0:0:
147,295,30934,1,10,0:1:0:0:
0,148,31084,1,2,0:3:0:0:
259,43,31234,2,0,L|249:147,1,100,10|2,0:1|0:3,0:0:0:0:
229,340,31534,1,10,0:1:0:0:
154,188,31684,1,0,0:0:0:0:
370,112,31834,5,10,0:1:0:0:
310,290,31984,1,2,0:3:0:0:
259,42,32134,5,10,0:1:0:0:
455,110,32284,1,2,0:3:0:0:
154,188,32434,1,0,3:0:0:0:
141,141,32509,1,0,3:0:0:0:
173,107,32584,1,0,3:0:0:0:
220,117,32659,1,2,0:3:0:0:
235,163,32734,1,0,3:0:0:0:
231,200,32809,1,2,0:3:0:0:
228,237,32884,1,0,3:0:0:0:
225,275,32959,1,0,3:0:0:0:
221,312,33034,6,0,B|219:346|219:346|198:262,1,120.000004577637,6|0,0:1|0:0,0:0:0:0:
128,97,33334,1,10,0:1:0:0:
219,70,33484,2,0,P|177:96|128:97,1,100,2|10,0:3|0:1,0:0:0:0:
419,27,33784,1,2,0:3:0:0:
327,0,33934,2,0,P|376:0|418:26,1,100,10|0,0:1|0:0,0:0:0:0:
430,258,34234,5,10,0:1:0:0:
342,118,34384,2,0,P|342:167|368:209,1,100,2|10,0:3|0:1,0:0:0:0:
196,310,34684,2,0,P|230:275|241:227,1,100,2|10,0:3|0:1,0:0:0:0:
219,37,34984,1,2,0:3:0:0:
84,102,35134,1,10,0:1:0:0:
209,186,35284,1,2,0:3:0:0:
133,30,35434,6,0,P|80:15|5:69,1,150,6|0,0:1|0:0,0:0:0:0:
51,228,35734,5,10,0:1:0:0:
171,108,35884,1,2,0:3:0:0:
214,271,36034,5,10,0:1:0:0:
34,223,36184,1,2,0:3:0:0:
242,176,36334,5,10,0:1:0:0:
178,379,36484,2,0,L|175:330,1,40,2|2,0:3|0:3,0:0:0:0:
173,85,36634,5,10,0:1:0:0:
214,271,36784,1,2,0:3:0:0:
364,86,36934,5,10,0:1:0:0:
311,248,37084,1,2,0:3:0:0:
267,32,37234,5,10,0:1:0:0:
416,0,37384,1,2,0:3:0:0:
435,213,37534,5,10,0:1:0:0:
393,188,37609,1,8,0:0:0:0:
369,145,37684,2,0,P|364:120|366:84,1,50,8|8,0:0|0:0,0:0:0:0:
512,237,37834,6,0,P|510:262|432:351,1,150,6|0,0:1|0:0,0:0:0:0:
313,339,38134,1,10,0:1:0:0:
123,229,38284,2,0,P|172:227|215:251,1,100,2|10,0:3|0:1,0:0:0:0:
0,290,38584,1,2,0:3:0:0:
190,181,38734,2,0,P|140:179|97:203,1,100,10|2,0:1|0:3,0:0:0:0:
125,332,39034,5,10,0:1:0:0:
61,111,39184,2,0,P|59:161|83:204,1,100,2|10,0:3|0:1,0:0:0:0:
206,277,39484,1,2,0:3:0:0:
196,74,39634,5,10,0:1:0:0:
103,215,39784,1,2,0:3:0:0:
356,148,39934,5,10,0:1:0:0:
190,181,40084,1,2,0:3:0:0:
384,0,40234,5,14,0:1:0:0:
437,273,40384,1,2,0:3:0:0:
273,164,40534,1,2,0:3:0:0:
145,351,40684,5,14,0:1:0:0:
235,88,40834,1,2,0:3:0:0:
323,264,40984,1,2,0:3:0:0:
10,254,41134,5,14,0:1:0:0:
273,164,41284,1,2,0:3:0:0:
97,76,41434,5,0,3:0:0:0:
55,98,41509,1,10,0:3:0:0:
55,146,41584,1,10,0:3:0:0:
98,168,41659,1,10,0:3:0:0:
137,141,41734,1,10,0:3:0:0:
177,170,41809,1,10,0:3:0:0:
197,215,41884,1,10,0:3:0:0:
193,264,41959,1,10,0:3:0:0:
165,305,42034,6,0,P|159:282|160:250,1,50,14|0,0:0|0:0,0:0:0:0:
224,34,42184,1,14,0:0:0:0:
224,34,42484,6,0,L|231:120,1,83.9999974365235,4|0,0:0|0:0,0:0:0:0:
245,282,42784,1,2,0:3:0:0:
356,154,42934,2,0,P|366:186|362:239,1,80,8|0,0:0|0:0,0:0:0:0:
512,81,43234,2,0,P|495:117|467:145,1,80,2|2,0:3|0:3,0:0:0:0:
287,196,43534,1,10,0:1:0:0:
142,308,43684,6,0,P|181:308|222:289,1,80,2|0,0:0|0:0,0:0:0:0:
287,196,43984,1,0,0:3:0:0:
197,175,44134,1,8,0:0:0:0:
107,154,44284,1,0,0:0:0:0:
260,107,44434,1,2,0:3:0:0:
142,308,44584,1,0,0:0:0:0:
287,196,44734,1,8,0:0:0:0:
11,131,44884,1,2,0:0:0:0:
7,34,45034,6,0,L|0:113,1,80,0|2,0:0|0:3,0:0:0:0:
203,254,45334,2,0,L|196:174,1,80,8|0,0:0|0:0,0:0:0:0:
65,299,45634,2,0,P|102:313|141:308,1,80,2|2,0:3|0:3,0:0:0:0:
264,200,45934,1,8,0:0:0:0:
343,206,46084,6,0,L|264:200,1,80,2|0,0:0|0:0,0:0:0:0:
309,51,46384,2,0,L|315:125,1,68.0000012969971,2|8,0:3|0:0,0:0:0:0:
398,21,46684,1,0,0:0:0:0:
343,206,46834,1,2,0:3:0:0:
480,101,46984,2,0,L|484:164,1,60,2|0,0:3|0:0,0:0:0:0:
483,160,47284,6,0,L|476:40,1,120,2|0,0:0|0:0,0:0:0:0:
379,113,47584,1,2,0:3:0:0:
188,71,47734,2,0,L|268:65,1,80,8|0,0:0|0:0,0:0:0:0:
184,193,48034,1,2,0:3:0:0:
96,52,48184,2,0,P|97:92|113:129,1,80,2|8,0:3|0:0,0:0:0:0:
184,193,48484,6,0,P|148:174|122:144,1,80,2|0,0:0|0:0,0:0:0:0:
155,0,48784,1,2,0:3:0:0:
289,127,48934,1,8,0:0:0:0:
259,26,49084,1,0,0:0:0:0:
246,306,49234,5,2,0:3:0:0:
187,103,49384,1,2,0:3:0:0:
289,127,49534,1,8,0:0:0:0:
86,186,49684,1,2,0:0:0:0:
81,277,49834,6,0,L|74:197,1,80,0|2,0:0|0:3,0:0:0:0:
205,12,50134,2,0,L|198:91,1,80,8|0,0:0|0:0,0:0:0:0:
329,277,50434,2,0,L|322:197,1,80,2|2,0:3|0:3,0:0:0:0:
311,77,50734,1,8,0:0:0:0:
195,208,50884,6,0,P|212:217|231:223,1,40,2|0,0:0|0:0,0:0:0:0:
339,134,51184,2,0,P|335:153|329:172,1,40,2|0,0:0|0:0,0:0:0:0:
99,129,51484,6,0,P|109:145|122:159,1,40,2|0,0:0|0:0,0:0:0:0:
333,15,51784,2,0,P|340:33|344:53,1,40,2|0,0:0|0:0,0:0:0:0:
181,5,52084,6,0,B|246:131,1,120,6|0,0:1|0:0,0:0:0:0:
331,174,52384,1,2,0:3:0:0:
240,310,52534,2,0,B|199:306|199:306|162:287|162:287|112:282,1,120,10|0,0:0|0:0,0:0:0:0:
10,256,52834,2,0,L|16:335,1,80,2|2,0:0|0:3,0:0:0:0:
131,203,53134,1,10,0:0:0:0:
16,71,53284,6,0,P|22:108|57:150,1,80,2|2,0:3|0:0,0:0:0:0:
254,114,53584,1,2,0:3:0:0:
158,0,53734,1,10,0:0:0:0:
131,203,53884,1,0,0:0:0:0:
237,32,54034,5,2,0:0:0:0:
332,209,54184,1,0,0:0:0:0:
431,19,54334,5,10,0:0:0:0:
254,114,54484,1,2,0:3:0:0:
425,220,54634,6,0,P|405:267|370:294,1,80,2|2,0:0|0:3,0:0:0:0:
412,107,54934,2,0,P|452:137|496:143,1,80,10|0,0:0|0:0,0:0:0:0:
334,25,55234,1,2,0:0:0:0:
211,230,55384,1,2,0:3:0:0:
197,49,55534,1,10,0:0:0:0:
74,254,55684,6,0,P|102:271|151:270,1,80,2|2,0:3|0:0,0:0:0:0:
40,73,55984,2,0,L|34:153,1,80,2|2,0:3|0:0,0:0:0:0:
19,312,56284,1,0,0:0:0:0:
129,120,56434,5,2,0:0:0:0:
238,197,56584,1,2,0:3:0:0:
202,12,56734,1,10,0:0:0:0:
206,128,56884,6,0,B|220:98|204:68|204:68|192:39|202:12,1,120.000004577637,4|2,0:0|0:3,0:0:0:0:
0,231,57334,1,2,0:0:0:0:
317,203,57484,2,0,L|238:197,1,80,0|2,0:0|0:0,0:0:0:0:
350,272,57784,2,0,L|430:279,1,80,2|10,0:3|0:0,0:0:0:0:
205,127,58084,6,0,L|126:121,1,80,2|2,0:3|0:0,0:0:0:0:
34,34,58384,2,0,L|28:114,1,80,2|10,0:3|0:0,0:0:0:0:
18,216,58684,1,0,0:0:0:0:
292,141,58834,5,2,0:0:0:0:
136,137,58984,2,0,L|143:58,1,80,2|10,0:3|0:0,0:0:0:0:
375,246,59284,6,0,P|382:288|356:333,1,80,4|2,0:0|0:0,0:0:0:0:
222,171,59584,2,0,P|255:144|307:144,1,80,2|10,0:3|0:0,0:0:0:0:
233,341,59884,1,2,0:1:0:0:
233,341,59959,1,2,0:1:0:0:
233,341,60034,5,10,0:0:0:0:
50,181,60184,1,2,0:3:0:0:
280,102,60334,5,10,0:0:0:0:
161,229,60484,1,2,0:3:0:0:
110,62,60634,6,0,P|129:70|156:72,1,40,10|0,0:0|0:0,0:0:0:0:
287,26,60784,6,0,L|284:66,1,40,2|0,0:0|0:0,0:0:0:0:
396,148,61084,2,0,L|399:108,1,40,2|0,0:0|0:0,0:0:0:0:
512,192,61384,2,0,L|509:232,1,40,2|0,0:0|0:0,0:0:0:0:
426,310,61684,6,0,L|434:221,1,90.0000034332277,4|0,0:0|0:0,0:0:0:0:
445,126,61984,1,2,0:3:0:0:
328,246,62134,2,0,P|296:262|233:262,1,90.0000034332277,10|0,0:1|0:0,0:0:0:0:
254,308,62434,2,0,P|209:308|169:327,1,90.0000034332277,2|0,0:3|0:0,0:0:0:0:
157,346,62734,1,2,0:3:0:0:
157,346,62884,1,8,0:0:0:0:
82,156,63034,5,6,0:1:0:0:
101,292,63184,1,2,0:3:0:0:
210,207,63334,2,0,P|218:174|219:126,1,60.0000022888184,10|0,0:1|0:0,0:0:0:0:
121,0,63634,1,2,0:3:0:0:
167,64,63784,1,8,0:0:0:0:
255,104,63934,1,10,0:1:0:0:
375,91,64084,1,8,0:0:0:0:
496,0,64234,6,0,P|472:39|468:68,1,60.0000022888184,6|0,0:1|0:0,0:0:0:0:
481,157,64534,1,2,0:3:0:0:
332,157,64684,1,10,0:1:0:0:
311,311,64834,2,0,P|336:291|358:245,1,60.0000022888184,2|2,0:3|0:1,0:0:0:0:
240,46,65134,2,0,P|254:103|271:121,1,60.0000022888184,14|0,0:1|0:0,0:0:0:0:
153,50,65434,5,12,0:0:0:0:
123,45,65584,1,2,0:3:0:0:
68,65,65734,1,2,0:3:0:0:
42,147,65884,1,2,0:3:0:0:
128,215,66034,1,2,0:3:0:0:
208,138,66184,1,2,0:3:0:0:
283,62,66334,1,2,0:3:0:0:
390,67,66484,1,2,0:3:0:0:
458,150,66634,6,0,L|449:244,1,90.0000034332277,6|0,0:1|0:0,0:0:0:0:
396,312,66934,1,2,0:3:0:0:
332,157,67084,1,8,0:0:0:0:
264,224,67234,2,0,L|272:316,1,90.0000034332277,2|0,0:3|0:0,0:0:0:0:
188,280,67534,2,0,P|170:260|127:234,1,60.0000022888184,6|0,0:1|0:0,0:0:0:0:
0,192,67834,5,2,0:3:0:0:
73,384,67984,1,8,0:0:0:0:
113,224,68134,2,0,P|120:190|115:151,1,60.0000022888184,2|0,0:3|0:0,0:0:0:0:
0,86,68434,2,0,P|25:109|61:124,1,60.0000022888184,10|0,0:1|0:0,0:0:0:0:
176,57,68734,2,0,P|143:67|112:90,1,60.0000022888184,10|0,0:1|0:0,0:0:0:0:
187,150,69034,6,0,P|220:157|292:137,1,90.0000034332277,14|0,0:1|0:0,0:0:0:0:
325,72,69334,1,2,0:3:0:0:
423,195,69484,2,0,L|432:87,1,90.0000034332277,14|0,0:1|0:0,0:0:0:0:
325,72,69784,1,0,0:0:0:0:
299,189,69934,2,0,L|305:263,1,60.0000022888184,6|0,0:1|0:0,0:0:0:0:
407,358,70234,6,0,P|367:334|307:324,1,90.0000034332277,14|0,0:1|0:0,0:0:0:0:
239,293,70534,1,2,0:3:0:0:
99,313,70684,1,10,0:3:0:0:
97,332,70759,1,10,0:3:0:0:
95,352,70834,1,10,0:3:0:0:
71,240,70984,1,2,0:3:0:0:
110,174,71134,1,10,0:3:0:0:
187,163,71284,1,2,0:3:0:0:
263,151,71434,6,0,P|293:121|299:96,1,60,6|0,0:1|0:0,0:0:0:0:
185,20,71734,2,0,L|259:14,1,60.0000022888184,2|2,0:3|0:3,0:0:0:0:
139,103,72034,2,0,L|58:110,1,60.0000022888184,10|0,0:1|0:0,0:0:0:0:
198,176,72334,2,0,L|276:169,1,60.0000022888184,2|0,0:3|0:0,0:0:0:0:
105,190,72634,6,0,L|73:258,1,60.0000022888184,2|0,0:3|0:0,0:0:0:0:
189,318,72934,2,0,L|163:263,1,60.0000022888184,10|0,0:1|0:0,0:0:0:0:
85,98,73234,1,2,0:3:0:0:
198,176,73384,1,8,0:0:0:0:
365,135,73534,2,0,P|327:110|283:105,1,90.0000034332277,2|0,0:3|0:0,0:0:0:0:
411,218,73834,6,0,P|443:188|455:159,1,60.0000022888184,14|0,0:1|0:0,0:0:0:0:
425,28,74134,1,2,0:3:0:0:
288,229,74284,1,10,0:1:0:0:
276,61,74434,2,0,P|316:80|336:108,1,60.0000022888184,2|0,0:3|0:0,0:0:0:0:
291,242,74734,1,10,0:1:0:0:
207,136,74884,1,2,0:3:0:0:
207,136,74959,1,2,0:3:0:0:
207,136,75034,5,10,0:1:0:0:
224,285,75184,1,2,0:3:0:0:
172,214,75334,5,2,0:3:0:0:
152,347,75484,1,2,0:3:0:0:
71,138,75634,5,2,0:3:0:0:
124,275,75784,1,2,0:3:0:0:
211,109,75934,2,0,P|217:80|200:8,1,90.0000034332277,10|0,0:1|0:0,0:0:0:0:
294,119,76234,6,0,L|386:127,1,90.0000034332277,4|0,0:0|0:0,0:0:0:0:
475,75,76534,5,2,0:3:0:0:
512,239,76684,1,2,0:3:0:0:
310,369,76834,5,2,0:3:0:0:
351,189,76984,1,2,0:3:0:0:
130,46,77134,5,2,0:3:0:0:
175,244,77284,1,2,0:3:0:0:
82,350,77434,5,2,0:3:0:0:
150,138,77584,1,2,0:3:0:0:
409,319,77734,5,2,0:3:0:0:
175,244,77884,1,2,0:3:0:0:
356,78,78034,5,2,0:3:0:0:
273,335,78184,1,2,0:3:0:0:
150,138,78334,5,2,0:3:0:0:
432,229,78484,1,2,0:3:0:0:
136,276,78634,5,14,0:1:0:0:
235,49,78784,1,2,0:3:0:0:
382,248,78934,1,2,0:3:0:0:
126,136,79084,5,14,0:1:0:0:
372,108,79234,1,2,0:3:0:0:
273,335,79384,1,2,0:3:0:0:
318,39,79534,5,14,0:1:0:0:
352,321,79684,1,2,0:3:0:0:
415,176,79834,1,2,0:3:0:0:
190,341,79984,5,14,0:1:0:0:
156,59,80134,1,2,0:3:0:0:
92,204,80284,1,2,0:3:0:0:
255,190,80434,6,0,L|284:188,1,28,2|0,0:1|0:0,0:0:0:0:
214,69,81034,6,0,B|254:88|254:88|354:80,1,140.000001335144,6|0,0:1|0:0,0:0:0:0:
448,53,81334,2,0,L|440:152,1,100,10|0,0:1|0:0,0:0:0:0:
289,200,81634,1,2,0:3:0:0:
376,282,81784,1,2,0:3:0:0:
336,67,81934,1,10,0:1:0:0:
296,318,82084,6,0,B|256:337|256:337|156:329,1,140.000001335144,4|2,0:0|0:1,0:0:0:0:
0,195,82384,1,2,0:3:0:0:
94,384,82534,1,10,0:1:0:0:
141,205,82684,2,0,L|149:106,1,100,0|2,0:3|0:3,0:0:0:0:
82,0,82984,1,2,0:3:0:0:
296,47,83134,2,0,B|327:60|368:46|368:46|403:33|446:47,1,150,10|0,0:1|0:0,0:0:0:0:
512,124,83434,6,0,L|503:225,1,100,6|0,0:1|0:0,0:0:0:0:
335,260,83734,2,0,L|326:160,1,100,10|0,0:1|0:0,0:0:0:0:
312,10,84034,1,2,0:3:0:0:
418,142,84184,1,2,0:3:0:0:
165,112,84334,1,10,0:1:0:0:
138,278,84484,6,0,P|140:242|108:168,1,100,2|2,0:3|0:1,0:0:0:0:
14,115,84784,1,2,0:3:0:0:
203,187,84934,1,10,0:1:0:0:
46,314,85084,1,0,0:0:0:0:
165,112,85234,2,0,P|219:104|268:133,1,100,2|2,0:3|0:3,0:0:0:0:
280,316,85534,1,10,0:1:0:0:
88,207,85684,1,0,0:0:0:0:
350,126,85834,6,0,B|435:94|412:155|499:119,1,150,6|0,0:1|0:0,0:0:0:0:
391,208,86134,2,0,L|399:307,1,100,10|0,0:1|0:0,0:0:0:0:
253,174,86434,1,2,0:3:0:0:
161,65,86584,1,2,0:3:0:0:
334,0,86734,1,10,0:1:0:0:
175,145,86884,6,0,L|166:247,1,100,0|2,0:0|0:1,0:0:0:0:
359,109,87184,2,0,L|350:9,1,100,2|10,0:3|0:1,0:0:0:0:
14,72,87484,2,0,P|49:107|97:117,1,100,0|2,0:0|0:3,0:0:0:0:
255,74,87784,1,2,0:3:0:0:
160,293,87934,1,10,0:1:0:0:
175,145,88084,1,0,0:0:0:0:
398,266,88234,6,0,P|377:239|364:171,1,100,6|0,0:1|0:0,0:0:0:0:
512,70,88534,2,0,P|516:103|493:169,1,100,10|2,0:1|0:3,0:0:0:0:
155,65,88834,1,2,0:3:0:0:
421,103,88984,1,2,0:3:0:0:
173,204,89134,1,10,0:1:0:0:
348,1,89284,6,0,B|368:31|351:64|351:64|331:106|357:162,1,150,2|0,0:3|0:0,0:0:0:0:
401,240,89584,1,2,0:3:0:0:
173,204,89734,1,10,0:1:0:0:
421,103,89884,1,0,0:0:0:0:
384,368,90034,5,8,0:0:0:0:
351,349,90109,1,2,0:3:0:0:
315,342,90184,1,8,0:3:0:0:
278,349,90259,1,10,0:3:0:0:
246,368,90334,1,8,0:0:0:0:
197,362,90409,1,10,0:3:0:0:
171,322,90484,1,10,0:3:0:0:
185,276,90559,1,2,0:3:0:0:
230,257,90634,6,0,B|256:216|256:216|256:125,1,140.000001335144,4|0,0:0|0:0,0:0:0:0:
111,44,90934,2,0,B|122:143|122:143,1,100,10|0,0:1|0:0,0:0:0:0:
139,287,91234,1,2,0:3:0:0:
34,178,91384,1,2,0:3:0:0:
297,221,91534,1,10,0:1:0:0:
282,0,91684,6,0,B|256:41|256:41|256:132,1,140.000001335144,4|2,0:0|0:1,0:0:0:0:
387,265,91984,1,2,0:3:0:0:
336,63,92134,1,10,0:1:0:0:
187,209,92284,2,0,L|195:308,1,100,0|2,0:0|0:3,0:0:0:0:
256,132,92584,1,2,0:3:0:0:
0,236,92734,2,0,L|99:227,1,100,10|0,0:1|0:0,0:0:0:0:
47,57,93034,6,0,P|36:106|50:154,1,100,6|0,0:1|0:0,0:0:0:0:
229,95,93334,2,0,L|129:103,1,100,10|0,0:1|0:0,0:0:0:0:
325,0,93634,1,2,0:3:0:0:
461,75,93784,1,2,0:3:0:0:
244,93,93934,1,10,0:1:0:0:
368,273,94084,6,2,P|376:231|312:139,1,150,6|0,0:1|0:0,0:0:0:0:
214,97,94384,1,0,0:3:0:0:
139,319,94534,2,0,P|170:347|233:352,1,100,10|0,0:1|0:0,0:0:0:0:
108,169,94834,1,2,0:3:0:0:
209,260,94984,1,2,0:3:0:0:
237,99,95134,2,0,L|245:0,1,100,10|0,0:1|0:0,0:0:0:0:
0,46,95434,6,0,B|45:50|45:50|95:79|95:79|142:83,1,150,6|0,0:1|0:0,0:0:0:0:
275,189,95734,2,0,L|375:198,1,100,10|0,0:1|0:0,0:0:0:0:
125,175,96034,1,2,0:3:0:0:
253,188,96184,1,2,0:3:0:0:
50,279,96334,1,10,0:1:0:0:
58,2,96484,6,0,P|92:38|107:86,1,100,2|2,0:3|0:1,0:0:0:0:
50,198,96784,1,2,0:3:0:0:
323,252,96934,2,0,P|299:216|246:184,1,100,10|0,0:1|0:0,0:0:0:0:
185,249,97159,1,2,0:3:0:0:
185,249,97234,2,0,L|193:350,1,100,2|0,0:3|0:0,0:0:0:0:
324,128,97534,2,0,L|332:28,1,100,10|0,0:1|0:0,0:0:0:0:
38,93,97834,6,0,B|69:111|111:96|111:96|153:81|193:98,1,150,6|0,0:1|0:0,0:0:0:0:
251,186,98134,1,8,0:0:0:0:
434,91,98284,1,2,0:3:0:0:
431,108,98359,1,2,0:3:0:0:
428,125,98434,1,2,0:3:0:0:
403,298,98584,1,2,0:3:0:0:
324,128,98734,2,0,P|306:90|239:51,1,100,10|0,0:1|0:0,0:0:0:0:
75,29,99034,5,6,0:1:0:0:
150,210,99184,1,2,0:3:0:0:
324,128,99334,5,2,0:1:0:0:
276,337,99484,1,2,0:3:0:0:
214,129,99634,5,6,0:1:0:0:
443,76,99784,1,2,0:3:0:0:
456,123,99859,1,2,0:3:0:0:
449,172,99934,1,0,3:0:0:0:
423,214,100009,1,0,3:0:0:0:
396,255,100084,1,0,3:0:0:0:
389,305,100159,1,0,3:0:0:0:
403,352,100234,6,0,P|432:314|433:252,1,100,6|0,0:1|0:0,0:0:0:0:
350,131,100534,1,8,0:0:0:0:
186,241,100684,2,0,B|215:265|215:265|277:270,1,100,6|0,0:1|0:0,0:0:0:0:
350,131,100984,1,2,0:3:0:0:
111,163,101134,1,2,0:3:0:0:
233,346,101284,6,0,B|184:342|184:342|144:314|144:314|88:309,1,150,6|0,0:1|0:0,0:0:0:0:
56,283,101584,1,2,0:3:0:0:
222,134,101734,1,8,0:0:0:0:
10,65,101884,1,0,3:0:0:0:
13,89,101959,1,0,3:0:0:0:
16,113,102034,1,2,3:3:0:0:
256,40,102184,1,2,0:3:0:0:
291,228,102334,1,8,0:0:0:0:
111,163,102484,1,0,0:0:0:0:
425,123,102634,6,0,B|440:106|440:106|433:183,1,100,6|0,0:1|0:0,0:0:0:0:
419,331,102934,1,8,0:0:0:0:
193,233,103084,2,0,B|211:243|241:231|241:231|268:221|292:228,1,100,6|0,0:1|0:0,0:0:0:0:
419,331,103384,1,2,0:3:0:0:
343,165,103534,1,2,0:3:0:0:
110,271,103684,6,0,P|164:320|237:315,1,150,6|0,0:1|0:0,0:0:0:0:
290,227,103984,1,2,0:3:0:0:
74,188,104134,1,8,0:0:0:0:
247,305,104284,1,2,0:3:0:0:
117,110,104434,5,10,0:1:0:0:
109,62,104509,1,0,3:0:0:0:
144,28,104584,1,0,3:0:0:0:
191,37,104659,1,2,0:3:0:0:
212,80,104734,2,0,P|214:105|205:138,1,50,2|2,0:3|0:3,0:0:0:0:
295,67,104884,1,2,0:3:0:0:
337,41,104959,1,2,0:3:0:0:
387,39,105034,6,0,B|400:94|400:94|383:159,1,100,6|0,0:1|0:0,0:0:0:0:
318,221,105334,1,8,0:0:0:0:
63,185,105484,2,0,B|88:207|88:207|155:213,1,100,6|0,0:1|0:0,0:0:0:0:
318,221,105784,1,2,0:3:0:0:
117,110,105934,1,8,0:0:0:0:
205,280,106084,6,0,B|215:356|215:356|254:293,1,150,6|0,0:1|0:0,0:0:0:0:
318,221,106384,1,2,0:3:0:0:
37,132,106534,1,8,0:0:0:0:
200,166,106684,1,0,0:0:0:0:
35,44,106834,1,2,0:3:0:0:
12,248,106984,1,2,0:3:0:0:
178,77,107134,1,8,0:0:0:0:
37,132,107284,1,0,0:0:0:0:
315,23,107434,6,0,P|351:65|335:164,1,150,6|0,0:1|0:0,0:0:0:0:
276,200,107734,1,8,0:0:0:0:
389,71,107884,2,0,L|495:80,1,100,6|0,0:1|0:0,0:0:0:0:
315,23,108184,1,2,0:3:0:0:
381,194,108334,1,8,0:0:0:0:
107,185,108484,6,0,P|135:235|232:256,1,150,6|0,0:1|0:0,0:0:0:0:
200,166,108784,1,2,0:3:0:0:
37,244,108934,1,10,0:1:0:0:
85,104,109084,1,2,0:3:0:0:
200,166,109234,1,10,0:1:0:0:
206,117,109309,1,2,0:3:0:0:
241,82,109384,1,2,0:3:0:0:
289,77,109459,1,2,0:3:0:0:
331,102,109534,2,0,B|356:116|356:116|411:122,1,77.9999964294435,8|0,0:0|0:0,0:0:0:0:
505,37,109834,6,0,L|495:145,1,100,6|0,0:1|0:0,0:0:0:0:
478,301,110134,5,10,0:1:0:0:
419,88,110284,1,2,0:3:0:0:
259,168,110434,5,10,0:1:0:0:
470,206,110584,1,2,0:3:0:0:
394,9,110734,5,10,0:1:0:0:
356,220,110884,1,2,0:3:0:0:
242,10,111034,5,10,0:1:0:0:
436,100,111184,1,2,0:3:0:0:
156,213,111334,5,10,0:1:0:0:
331,91,111484,1,2,0:3:0:0:
238,253,111634,5,10,0:1:0:0:
116,78,111784,1,2,0:3:0:0:
5,146,111934,5,10,0:1:0:0:
216,128,112084,1,2,0:3:0:0:
31,24,112234,6,0,L|22:124,1,100,10|0,0:1|0:0,0:0:0:0:
8,271,112534,5,10,0:1:0:0:
124,69,112684,1,2,0:3:0:0:
238,269,112834,5,10,0:1:0:0:
36,153,112984,1,2,0:3:0:0:
237,36,113134,5,10,0:1:0:0:
120,237,113284,1,2,0:3:0:0:
353,238,113434,5,10,0:1:0:0:
124,69,113584,1,2,0:3:0:0:
93,352,113734,5,10,0:1:0:0:
286,88,113884,1,2,0:3:0:0:
256,368,114034,5,10,0:1:0:0:
124,69,114184,1,2,0:3:0:0:
450,98,114334,1,8,0:0:0:0:
487,129,114409,1,2,0:3:0:0:
488,177,114484,1,2,0:3:0:0:
453,210,114559,1,2,0:3:0:0:
404,205,114634,6,0,L|395:307,1,100,10|0,0:1|0:0,0:0:0:0:
337,384,114934,5,10,0:1:0:0:
298,140,115084,1,2,0:3:0:0:
188,279,115234,5,10,0:1:0:0:
379,123,115384,1,2,0:3:0:0:
131,103,115534,6,0,L|124:204,1,100,10|2,0:1|0:1,0:0:0:0:
106,384,115834,5,10,0:1:0:0:
34,225,115984,1,2,0:3:0:0:
268,105,116134,6,0,L|261:206,1,100,10|2,0:1|0:1,0:0:0:0:
250,352,116434,5,10,0:1:0:0:
377,174,116584,1,2,0:3:0:0:
119,195,116734,5,10,0:1:0:0:
382,267,116884,2,0,L|386:216,1,50
268,105,117034,6,0,P|256:133|275:203,1,100,6|2,0:1|0:3,0:0:0:0:
276,206,117259,1,2,0:3:0:0:
281,213,117334,2,0,P|297:260|285:308,1,100,10|0,0:1|0:0,0:0:0:0:
118,329,117634,5,2,0:1:0:0:
268,105,117784,1,4,0:0:0:0:
382,267,117934,1,2,0:1:0:0:
162,149,118084,6,0,B|143:141|126:105|126:105|142:146|113:208,1,150,8|0,0:0|0:0,0:0:0:0:
22,140,118384,2,0,P|-24:187|27:229,1,150,8|0,0:0|0:0,0:0:0:0:
241,241,118684,2,0,P|219:252|194:255,1,50,8|0,0:0|0:0,0:0:0:0:
30,308,118834,1,8,0:0:0:0:
50,308,127984,5,2,0:1:0:0:
45,313,128059,1,2,0:1:0:0:
40,318,128134,1,2,0:3:0:0:
124,136,128284,1,10,0:1:0:0:
211,258,128434,1,8,0:3:0:0:
258,155,128584,1,8,0:3:0:0:
306,224,128734,1,8,0:3:0:0:
390,42,128884,6,0,B|292:31|340:77|236:62,1,150.000005722046,6|0,0:3|0:0,0:0:0:0:
233,44,129334,2,0,L|241:137,1,90.0000034332277,2|0,0:3|0:0,0:0:0:0:
250,151,129634,2,0,B|225:173|225:173|150:182,1,90.0000034332277,8|0,0:0|0:0,0:0:0:0:
8,47,129934,1,2,0:0:0:0:
63,100,130084,6,0,P|74:152|62:211,1,90.0000034332277,2|0,0:3|0:0,0:0:0:0:
0,276,130384,1,8,0:0:0:0:
154,247,130534,2,0,P|203:262|248:302,1,90.0000034332277,2|0,0:3|0:0,0:0:0:0:
327,384,130834,1,8,0:0:0:0:
327,384,131134,1,2,0:0:0:0:
398,230,131284,6,0,P|434:230|390:296,1,160,2|0,0:3|0:0,0:0:0:0:
299,252,131734,2,0,B|310:268|310:268|316:198,1,90.0000034332277,2|0,0:3|0:0,0:0:0:0:
321,92,132034,1,8,0:0:0:0:
321,92,132334,2,0,L|323:61,2,20.0000007629395,2|2|2,0:1|0:1|0:1,0:0:0:0:
251,118,132484,6,0,P|222:127|192:130,1,60.0000022888185,2|2,0:3|0:1,0:0:0:0:
46,51,132784,1,8,0:0:0:0:
50,217,132934,2,0,P|67:207|79:195,1,30.0000011444092,6|0,0:2|0:0,0:0:0:0:
166,25,133084,5,0,3:0:0:0:
251,119,133234,1,0,3:0:0:0:
56,56,133434,5,0,3:0:0:0:
257,14,133646,5,0,3:0:0:0:
344,71,133796,6,0,L|334:175,1,105.000004005432,6|0,0:3|0:0,0:0:0:0:
322,192,134134,2,0,P|370:188|407:204,1,90.0000034332277,2|0,0:3|0:0,0:0:0:0:
469,275,134434,1,8,0:0:0:0:
469,275,134734,1,2,0:0:0:0:
389,383,134884,6,0,B|373:337|373:337|382:285,1,90.0000034332277
383,284,135184,1,8,0:0:0:0:
434,139,135334,2,0,P|389:131|345:138,1,90.0000034332277,2|0,0:3|0:0,0:0:0:0:
252,169,135634,1,8,0:0:0:0:
252,169,135934,1,2,0:0:0:0:
107,268,136084,6,0,L|196:275,1,90.0000034332277,6|0,0:3|0:0,0:0:0:0:
223,277,136384,1,8,0:0:0:0:
304,127,136534,1,2,0:3:0:0:
134,132,136684,1,10,0:3:0:0:
132,152,136759,1,10,0:3:0:0:
130,172,136834,1,10,0:3:0:0:
235,45,136984,1,10,0:3:0:0:
73,18,137134,1,10,0:3:0:0:
255,167,137284,1,2,0:1:0:0:
255,167,137359,1,2,0:1:0:0:
255,167,137434,6,0,L|246:254,1,80,6|0,0:1|0:0,0:0:0:0:
322,328,138184,2,0,L|389:324,2,60.0000022888184,2|2|2,0:1|0:1|0:1,0:0:0:0:
147,286,138634,6,0,L|155:375,1,80,6|0,0:3|0:0,0:0:0:0:
239,224,138934,1,2,0:3:0:0:
331,162,139084,2,0,L|323:82,2,80,0|2|0,0:0|0:3|0:0,0:0:0:0:
232,114,139534,1,2,0:3:0:0:
426,81,139684,6,0,P|432:107|425:164,1,80,2|2,0:1|0:3,0:0:0:0:
358,232,139984,1,0,0:1:0:0:
323,82,140134,1,2,0:3:0:0:
211,188,140284,1,0,0:0:0:0:
216,28,140434,2,0,P|178:17|134:26,1,80,2|0,0:3|0:0,0:0:0:0:
106,163,140734,2,0,P|134:135|148:92,1,80,2|0,0:3|0:0,0:0:0:0:
44,0,141034,6,0,P|53:38|83:72,1,80,2|0,0:3|0:0,0:0:0:0:
211,188,141334,1,2,0:3:0:0:
46,249,141484,2,0,L|53:329,2,80,0|2|0,0:0|0:3|0:0,0:0:0:0:
10,145,141934,1,2,0:3:0:0:
151,264,142084,6,0,L|231:271,1,80,2|2,0:1|0:3,0:0:0:0:
388,281,142384,1,0,0:0:0:0:
211,188,142534,1,2,0:3:0:0:
328,170,142684,2,0,P|320:186|305:203,3,40
260,87,142984,2,0,P|258:104|263:127,1,40
365,69,143134,2,0,P|350:43|301:24,1,80,2|0,0:3|0:0,0:0:0:0:
180,93,143434,6,0,L|260:87,1,80,2|0,0:3|0:0,0:0:0:0:
119,19,143734,1,2,0:3:0:0:
51,160,143884,2,0,L|45:80,2,80,0|2|0,0:0|0:3|0:0,0:0:0:0:
64,317,144334,1,2,0:3:0:0:
204,199,144484,6,0,B|186:199|186:199|135:164,1,80,0|2,0:0|0:3,0:0:0:0:
283,125,144784,2,0,B|292:140|292:140|287:202,1,80,0|2,0:0|0:3,0:0:0:0:
180,94,145084,2,0,B|189:78|189:78|244:51,1,80,0|2,0:0|0:3,0:0:0:0:
333,56,145384,2,0,B|405:90|405:90,2,80,0|2|0,0:0|0:3|0:0,0:0:0:0:
373,212,145834,6,0,B|366:296,1,80,2|0,0:3|0:0,0:0:0:0:
204,199,146134,1,2,0:3:0:0:
259,357,146284,2,0,B|266:273,2,80,0|2|0,0:0|0:3|0:0,0:0:0:0:
292,157,146734,1,2,0:3:0:0:
172,292,146884,6,0,P|133:304|81:294,1,80,0|2,0:0|0:3,0:0:0:0:
16,207,147184,1,0,0:0:0:0:
217,109,147334,1,2,0:3:0:0:
127,224,147484,1,0,0:0:0:0:
72,88,147634,1,2,0:3:0:0:
139,140,147784,1,0,0:0:0:0:
151,56,147934,2,0,P|153:30|150:-6,1,60,10|0,0:0|0:0,0:0:0:0:
284,160,148234,6,0,P|333:170|398:131,1,120,4|0,0:0|0:0,0:0:0:0:
426,36,148534,1,2,0:3:0:0:
467,186,148684,2,0,P|468:244|449:274,2,80,0|2|0,0:0|0:3|0:0,0:0:0:0:
323,75,149134,1,2,0:3:0:0:
193,170,149284,6,0,P|144:180|99:158,1,80,0|2,0:0|0:3,0:0:0:0:
31,83,149584,1,0,0:0:0:0:
149,52,149734,2,0,L|145:11,3,40,2|0|0|0,0:3|0:0|0:0|0:0,0:0:0:0:
225,165,150034,2,0,L|221:205,1,40,2|0,0:3|0:0,0:0:0:0:
380,138,150184,2,0,P|354:121|301:120,1,80,0|2,0:0|0:3,0:0:0:0:
225,165,150484,1,0,0:0:0:0:
83,232,150634,6,0,P|112:222|163:235,1,80,2|0,0:3|0:0,0:0:0:0:
282,296,150934,1,2,0:3:0:0:
380,138,151084,2,0,P|390:100|380:61,2,80,0|2|0,0:0|0:3|0:0,0:0:0:0:
225,165,151534,1,2,0:3:0:0:
374,245,151684,6,0,P|419:247|462:222,1,80,0|2,0:0|0:3,0:0:0:0:
497,124,151984,1,0,0:0:0:0:
311,184,152134,1,2,0:3:0:0:
372,50,152284,1,0,0:0:0:0:
186,110,152434,2,0,P|178:84|187:25,1,80,2|0,0:3|0:0,0:0:0:0:
126,191,152734,2,0,P|134:217|125:276,1,80,2|0,0:3|0:0,0:0:0:0:
5,91,153034,6,0,L|85:98,1,80,2|0,0:0|0:0,0:0:0:0:
270,71,153334,1,2,0:3:0:0:
390,190,153484,2,0,L|310:183,2,80,0|2|0,0:0|0:3|0:0,0:0:0:0:
431,302,153934,1,2,0:3:0:0:
509,69,154084,6,0,L|502:149,2,80,0|2|0,0:0|0:3|0:0,0:0:0:0:
375,203,154534,2,0,L|382:123,1,80,2|0,0:3|0:0,0:0:0:0:
364,320,154834,1,2,0:3:0:0:
287,191,154984,1,0,0:0:0:0:
138,300,155134,2,0,B|169:319|169:319|213:323,1,80,2|0,0:1|0:0,0:0:0:0:
166,115,155434,6,0,B|184:154|184:154|185:197,1,83.9999974365235,2|0,0:1|0:0,0:0:0:0:
0,259,155734,2,0,B|25:222|25:222|63:202,1,88.000002685547,2|0,0:1|0:0,0:0:0:0:
230,52,156034,2,0,B|196:98|196:98|165:115,1,92.0000017547608,2|0,0:1|0:0,0:0:0:0:
0,0,156334,2,0,B|36:25|36:25|62:72,1,95.9999970703126,2|0,0:1|0:0,0:0:0:0:
198,221,156634,5,2,0:1:0:0:
20,133,156784,1,2,0:3:0:0:
326,36,156934,5,2,0:1:0:0:
148,124,157084,1,2,0:3:0:0:
454,221,157234,5,2,3:0:0:0:
416,208,157309,1,2,3:0:0:0:
387,181,157384,2,0,P|384:158|388:133,1,47.9999985351563,2|2,3:0|3:0,0:0:0:0:
462,76,157534,2,2,P|465:106|455:140,1,47.9999985351563,2|2,3:0|3:0,3:0:0:0:
307,140,157684,6,0,B|290:133|278:115|278:115|253:147|272:189|272:189|286:223|277:260,1,180.000006866455,2|0,0:0|0:0,0:0:0:0:
211,316,157984,1,2,0:3:0:0:
27,230,158134,2,0,B|68:210|115:232|115:232|159:253|200:228,1,180.000006866455,12|0,0:0|0:0,0:0:0:0:
148,161,158434,1,10,3:3:0:0:
129,125,158509,1,10,3:3:0:0:
127,86,158584,1,10,3:3:0:0:
141,49,158659,1,10,3:3:0:0:
170,21,158734,1,10,3:3:0:0:
213,28,158809,1,10,3:3:0:0:
230,66,158884,6,0,B|223:91|202:101|202:101|168:78|130:84|130:84|94:100|59:88,1,187.20000628418,2|0,0:0|0:0,0:0:0:0:
1,29,159184,1,2,0:3:0:0:
27,230,159334,2,0,B|57:362|57:362|85:295,1,200,12|0,0:0|0:0,0:0:0:0:
148,161,159634,1,8,0:3:0:0:
253,250,159784,2,0,P|262:225|263:189,1,60.0000022888184,8|0,0:3|0:0,0:0:0:0:
174,323,159934,1,8,0:3:0:0:
209,350,160009,1,8,0:3:0:0:
252,358,160084,6,0,B|292:339|292:339|388:339|388:339|427:319,1,180.000006866455,2|0,0:0|0:0,0:0:0:0:
512,239,160384,1,2,0:3:0:0:
354,67,160534,2,0,B|337:152|337:152|370:271,1,200,12|0,0:0|0:0,0:0:0:0:
463,133,160834,1,10,3:3:0:0:
425,140,160909,1,10,3:3:0:0:
389,148,160984,1,10,3:3:0:0:
351,155,161059,1,10,3:3:0:0:
320,136,161134,1,10,3:3:0:0:
290,114,161209,1,10,3:3:0:0:
259,93,161284,6,0,B|229:66|229:66|247:225,1,180.000006866455,2|0,0:0|0:0,0:0:0:0:
253,306,161584,1,2,0:3:0:0:
15,284,161734,2,0,B|88:278|88:278|147:305|147:305|209:299,1,200,12|0,0:0|0:0,0:0:0:0:
370,280,162034,1,8,0:0:0:0:
158,225,162184,1,2,0:3:0:0:
442,189,162334,1,8,0:0:0:0:
179,79,162484,6,0,P|134:68|180:142,1,210.000002002716,2|0,0:0|0:0,0:0:0:0:
262,56,162784,1,2,0:3:0:0:
468,160,162934,2,0,B|434:124|450:82|450:82|445:103|409:140|350:139,1,200,12|0,0:0|0:0,0:0:0:0:
262,56,163234,1,10,3:3:0:0:
244,91,163309,1,10,3:3:0:0:
243,131,163384,1,10,3:3:0:0:
256,169,163459,1,10,3:3:0:0:
269,206,163534,1,10,3:3:0:0:
267,246,163609,1,10,3:3:0:0:
250,282,163684,6,0,B|198:252|198:252|252:247|252:247|306:219|353:238,1,210.000002002716,2|0,0:0|0:0,0:0:0:0:
341,343,163984,1,2,0:3:0:0:
440,186,164134,2,0,P|497:254|408:275,1,200,12|0,0:0|0:0,0:0:0:0:
359,127,164434,1,8,0:3:0:0:
333,88,164509,1,8,0:3:0:0:
338,43,164584,1,8,0:3:0:0:
370,10,164659,1,8,0:3:0:0:
416,6,164734,1,8,0:3:0:0:
454,31,164809,1,8,0:3:0:0:
468,74,164884,6,0,B|430:81|411:103|411:103|340:40|272:87,1,210.000002002716,2|0,0:0|0:0,0:0:0:0:
230,198,165184,1,2,0:3:0:0:
46,142,165334,2,0,B|37:178|56:200|56:200|75:222|78:268|78:268|80:232|106:211,1,200,12|0,0:0|0:0,0:0:0:0:
230,198,165634,1,10,3:3:0:0:
283,220,165709,1,10,3:3:0:0:
305,272,165784,1,10,3:3:0:0:
283,325,165859,1,10,3:3:0:0:
231,347,165934,1,10,3:3:0:0:
178,325,166009,1,10,3:3:0:0:
157,273,166084,6,0,P|22:334|-2:295,1,210.000002002716,2|0,0:0|0:0,0:0:0:0:
46,142,166384,1,2,0:3:0:0:
244,12,166534,1,12,0:0:0:0:
230,271,166684,1,2,0:3:0:0:
208,146,166834,6,0,B|169:159|169:159|246:167|246:167|284:195,1,160,8|0,0:0|0:0,0:0:0:0:
389,292,167059,2,0,B|408:323|408:323|426:250|426:250|414:191,1,160,8|0,0:0|0:0,0:0:0:0:
356,38,167284,2,0,B|347:78|347:78|359:125,1,90.0000034332277,8|0,0:0|0:0,0:0:0:0:
512,119,167434,6,0,B|483:125|483:125|454:116,1,60,2|0,0:1|0:0,0:0:0:0:
330,61,168634,6,0,B|294:37|294:37|294:153,1,160,6|0,0:1|0:0,0:0:0:0:
416,201,168934,2,0,P|371:237|304:232,1,120.000004577637,10|0,0:1|0:0,0:0:0:0:
201,117,169234,1,2,0:3:0:0:
91,202,169384,1,2,0:3:0:0:
139,12,169534,1,10,0:1:0:0:
181,322,169684,6,0,B|218:347|218:347|218:231,1,160,6|0,0:1|0:0,0:0:0:0:
201,117,169984,1,2,0:3:0:0:
116,284,170134,1,10,0:1:0:0:
0,229,170284,2,0,P|-13:296|9:363,1,120.000004577637,0|2,0:0|0:3,0:0:0:0:
218,231,170584,1,2,0:3:0:0:
329,351,170734,2,0,B|301:375|301:375|193:385,1,120.000004577637,10|0,0:1|0:0,0:0:0:0:
309,264,171034,6,0,L|431:274,1,120.000004577637,6|0,0:1|0:0,0:0:0:0:
321,125,171334,2,0,L|201:135,1,120.000004577637,10|0,0:1|0:0,0:0:0:0:
425,33,171634,1,2,0:3:0:0:
425,33,171784,1,2,0:3:0:0:
354,198,171934,1,10,0:1:0:0:
157,52,172084,6,0,P|112:108|117:178,1,120.000004577637,2|2,0:3|0:1,0:0:0:0:
220,247,172384,1,2,0:3:0:0:
0,193,172534,1,10,0:1:0:0:
201,135,172684,1,2,0:3:0:0:
150,338,172834,2,0,B|12:381|12:381|46:341,1,180.000006866455,2|2,0:3|0:1,0:0:0:0:
102,248,173134,1,10,0:1:0:0:
297,296,173284,1,2,0:3:0:0:
442,87,173434,6,0,B|391:78|391:78|308:96|308:96|267:89,1,180.000006866455,6|0,0:1|0:0,0:0:0:0:
117,33,173734,2,0,P|109:121|146:202,1,180.000006866455,10|0,0:1|0:0,0:0:0:0:
386,295,174034,1,2,0:3:0:0:
234,178,174184,1,2,0:3:0:0:
369,384,174334,1,10,0:1:0:0:
408,204,174484,6,0,P|349:209|306:248,1,120.000004577637,2|2,0:3|0:1,0:0:0:0:
243,320,174784,1,2,0:3:0:0:
411,104,174934,1,10,0:1:0:0:
234,178,175084,2,0,P|215:150|232:61,1,120.000004577637,0|2,0:0|0:3,0:0:0:0:
328,32,175384,1,2,0:3:0:0:
136,152,175534,1,10,0:1:0:0:
108,32,175684,1,2,0:3:0:0:
52,215,175834,6,0,B|23:347|23:347|10:297,1,180.000006866455,6|0,0:3|0:0,0:0:0:0:
174,279,176134,2,0,B|212:259|260:282|260:282|308:303|353:271,1,180.000006866455,10|0,0:1|0:0,0:0:0:0:
401,187,176434,1,2,0:3:0:0:
401,187,176584,1,2,0:3:0:0:
225,68,176734,1,10,0:1:0:0:
459,271,176884,6,0,P|403:289|346:275,1,120.000004577637,2|2,0:3|0:1,0:0:0:0:
270,172,177184,1,2,0:3:0:0:
480,82,177334,1,10,0:1:0:0:
480,82,177409,1,8,0:3:0:0:
480,82,177484,1,8,0:3:0:0:
480,82,177559,1,8,0:3:0:0:
480,82,177634,1,10,0:1:0:0:
428,76,177709,1,10,0:3:0:0:
384,103,177784,1,10,0:3:0:0:
340,130,177859,1,10,0:3:0:0:
282,122,177934,1,10,0:1:0:0:
257,70,178009,1,10,0:3:0:0:
287,21,178084,1,10,0:3:0:0:
345,18,178159,1,10,0:3:0:0:
377,60,178234,6,0,B|258:70|258:70|304:48,1,160,6|0,0:1|0:0,0:0:0:0:
448,171,178534,2,0,L|458:291,1,120.000004577637,10|0,0:1|0:0,0:0:0:0:
340,130,178834,1,2,0:3:0:0:
278,230,178984,1,2,0:3:0:0:
230,20,179134,1,10,0:1:0:0:
135,324,179284,6,0,B|254:314|254:314|208:336,1,160,6|2,0:1|0:1,0:0:0:0:
30,384,179584,1,2,0:3:0:0:
160,226,179734,1,10,0:1:0:0:
34,88,179884,1,2,0:1:0:0:
48,129,179959,1,0,3:0:0:0:
86,154,180034,2,0,P|130:126|252:173,1,180.000006866455,2|0,0:3|0:0,0:0:0:0:
368,228,180334,2,0,B|341:198|341:198|333:114,1,120.000004577637,10|0,0:1|0:0,0:0:0:0:
512,193,180634,6,0,P|468:154|407:164,1,120.000004577637,6|0,0:3|0:0,0:0:0:0:
273,308,180934,2,0,P|330:304|366:254,1,120.000004577637,10|0,0:1|0:0,0:0:0:0:
360,57,181234,1,2,0:3:0:0:
331,158,181384,1,2,0:3:0:0:
463,32,181534,1,10,0:1:0:0:
205,28,181684,6,0,B|189:82|189:82|206:145,1,120.000004577637,2|2,0:3|0:1,0:0:0:0:
256,260,181984,1,2,0:3:0:0:
271,83,182134,1,10,0:1:0:0:
111,159,182284,1,2,0:3:0:0:
351,250,182434,2,0,P|334:315|287:349,1,120.000004577637,0|2,0:0|0:3,0:0:0:0:
37,102,182734,2,0,P|17:157|36:213,1,120.000004577637,10|0,0:1|0:0,0:0:0:0:
271,83,183034,6,0,B|308:63|353:78|353:78|403:94|447:72,1,180.000006866455,6|0,0:1|0:0,0:0:0:0:
392,6,183334,2,0,P|379:62|403:128,1,120.000004577637,10|0,0:1|0:0,0:0:0:0:
502,201,183634,1,2,0:3:0:0:
321,149,183784,1,2,0:3:0:0:
454,315,183934,1,0,0:0:0:0:
244,284,184084,6,0,B|315:265|291:318|379:291,1,140.000001335144,6|2,0:3|0:1,0:0:0:0:
502,201,184384,1,2,0:3:0:0:
296,39,184534,2,0,P|290:97|320:148,1,120.000004577637,10|0,0:1|0:0,0:0:0:0:
428,105,184834,1,2,0:3:0:0:
388,0,184984,1,2,0:3:0:0:
245,178,185134,2,0,P|192:155|231:106,1,120.000004577637,10|0,0:1|0:0,0:0:0:0:
144,229,185434,6,0,P|120:218|9:303,1,180.000006866455,6|0,0:1|0:0,0:0:0:0:
82,377,185734,1,10,0:1:0:0:
297,284,185884,1,2,0:1:0:0:
267,287,185959,1,2,0:1:0:0:
237,290,186034,1,2,0:3:0:0:
335,142,186184,1,2,0:3:0:0:
275,384,186334,1,10,0:1:0:0:
245,178,186484,1,2,0:3:0:0:
438,255,186634,5,10,0:1:0:0:
258,82,186784,1,2,0:3:0:0:
453,163,186934,5,10,0:1:0:0:
238,290,187084,1,2,0:3:0:0:
409,50,187234,5,10,0:1:0:0:
381,85,187309,1,8,0:3:0:0:
341,104,187384,1,8,0:3:0:0:
296,102,187459,1,8,0:3:0:0:
258,82,187534,1,10,0:1:0:0:
203,65,187609,1,0,3:0:0:0:
162,105,187684,1,0,3:0:0:0:
178,160,187759,1,0,3:0:0:0:
233,172,187834,6,0,B|240:260|240:260|221:230,1,120.000004577637,6|0,0:1|0:0,0:0:0:0:
108,90,188134,1,8,0:0:0:0:
324,194,188284,2,0,B|361:194|361:194|407:219|407:219|454:219,1,120.000004577637,6|0,0:1|0:0,0:0:0:0:
512,141,188584,1,2,0:3:0:0:
468,323,188734,1,8,0:0:0:0:
428,12,188884,6,0,P|444:50|425:137,1,120.000004577637,6|0,0:1|0:0,0:0:0:0:
270,115,189184,1,2,0:3:0:0:
437,219,189334,1,8,0:0:0:0:
322,22,189484,1,10,0:3:0:0:
283,11,189559,1,0,3:0:0:0:
243,12,189634,1,2,0:3:0:0:
324,194,189784,1,0,0:0:0:0:
167,86,189934,1,8,0:0:0:0:
270,115,190084,1,2,0:1:0:0:
152,276,190234,6,0,B|135:303|135:303|126:199,1,120.000004577637,6|0,0:1|0:0,0:0:0:0:
109,0,190534,1,8,0:0:0:0:
24,250,190684,2,0,P|82:253|127:215,1,120.000004577637,6|0,0:1|0:0,0:0:0:0:
167,86,190984,1,2,0:3:0:0:
276,293,191134,1,8,0:0:0:0:
291,112,191284,6,0,B|330:99|376:126|376:126|422:150|468:123,1,180.000006866455,6|0,0:1|0:0,0:0:0:0:
512,49,191584,1,2,0:3:0:0:
374,217,191734,1,8,0:1:0:0:
297,13,191884,1,0,3:0:0:0:
259,24,191959,1,0,3:0:0:0:
232,53,192034,1,8,0:0:0:0:
205,82,192109,1,2,0:3:0:0:
167,93,192184,2,0,L|171:41,1,50,10|0,0:3|0:0,0:0:0:0:
235,201,192334,1,8,0:0:0:0:
44,65,192484,1,2,0:3:0:0:
22,299,192634,6,0,B|7:324|7:324|50:294|104:289,1,120.000004577637,6|0,0:1|0:0,0:0:0:0:
315,214,192934,1,8,0:0:0:0:
283,384,193084,2,0,P|230:357|203:304,1,120.000004577637,6|0,0:1|0:0,0:0:0:0:
155,188,193384,1,2,0:3:0:0:
360,299,193534,1,8,0:0:0:0:
354,66,193684,6,0,P|341:87|442:125,1,180.000006866455,6|0,0:1|0:0,0:0:0:0:
495,81,193984,1,2,0:3:0:0:
481,254,194134,1,8,0:0:0:0:
357,6,194284,2,0,B|358:36|358:36|353:71,1,60.0000022888184,2|0,0:1|0:0,0:0:0:0:
146,160,194434,1,2,0:3:0:0:
184,149,194509,1,0,3:0:0:0:
223,155,194584,2,0,P|246:162|279:191,1,60.0000022888184,2|0,0:3|0:0,0:0:0:0:
277,289,194734,1,8,0:0:0:0:
232,61,194884,1,2,0:1:0:0:
58,214,195034,6,0,P|25:264|56:323,1,120.000004577637,6|0,0:1|0:0,0:0:0:0:
131,384,195334,1,8,0:0:0:0:
340,219,195484,2,0,P|366:272|360:331,1,120.000004577637,6|0,0:1|0:0,0:0:0:0:
236,384,195784,1,2,0:3:0:0:
184,149,195934,1,8,0:0:0:0:
428,222,196084,6,0,B|462:184|448:136|448:136|430:83|458:47,1,180.000006866455,6|0,0:1|0:0,0:0:0:0:
454,52,196384,1,2,0:3:0:0:
219,0,196534,1,8,0:1:0:0:
342,59,196684,1,2,0:3:0:0:
118,97,196834,1,8,0:1:0:0:
103,123,196909,1,2,0:3:0:0:
98,152,196984,1,2,0:3:0:0:
105,181,197059,1,2,0:3:0:0:
117,203,197134,1,8,0:0:0:0:
135,147,197209,1,8,3:1:0:0:
181,109,197284,1,8,3:1:0:0:
240,101,197359,1,8,3:1:0:0:
293,127,197434,6,0,B|294:163|315:190|315:190|302:239|302:239|319:264|319:300,1,180.000006866455,14|0,0:1|0:0,0:0:0:0:
228,384,197734,5,10,0:1:0:0:
370,135,197884,1,2,0:3:0:0:
46,134,198034,5,10,0:1:0:0:
323,206,198184,1,2,0:3:0:0:
0,204,198334,5,10,0:1:0:0:
200,0,198484,1,2,0:3:0:0:
76,275,198634,5,10,0:1:0:0:
0,0,198784,1,2,0:3:0:0:
321,58,198934,5,10,0:1:0:0:
46,134,199084,1,2,0:3:0:0:
308,277,199234,5,10,0:1:0:0:
379,0,199384,1,2,0:3:0:0:
142,96,199534,5,10,0:1:0:0:
419,167,199684,1,2,0:3:0:0:
48,134,199834,6,0,P|41:76|75:15,1,120.000004577637,14|0,0:1|0:0,0:0:0:0:
258,53,200134,5,10,0:1:0:0:
2,207,200284,1,2,0:3:0:0:
184,32,200434,5,10,0:1:0:0:
270,340,200584,1,2,0:3:0:0:
509,92,200734,5,10,0:1:0:0:
177,185,200884,1,2,0:3:0:0:
404,355,201034,5,10,0:1:0:0:
112,68,201184,1,2,0:3:0:0:
450,3,201334,5,10,0:1:0:0:
175,284,201484,1,2,0:3:0:0:
80,9,201634,5,10,0:1:0:0:
460,47,201784,1,2,0:3:0:0:
237,356,201934,1,10,0:1:0:0:
167,377,202009,1,8,0:0:0:0:
103,341,202084,1,8,0:0:0:0:
85,271,202159,1,8,0:0:0:0:
124,209,202234,6,0,B|177:178|226:210|226:210|263:232|307:219,1,187.999997131348,14|0,0:1|0:0,0:0:0:0:
512,141,202534,5,10,0:1:0:0:
175,288,202684,1,2,0:3:0:0:
260,0,202834,5,10,0:1:0:0:
400,330,202984,1,2,0:3:0:0:
74,159,203134,5,10,0:1:0:0:
430,200,203284,1,2,0:3:0:0:
353,50,203434,5,10,0:1:0:0:
175,288,203584,1,2,0:3:0:0:
50,17,203734,5,10,0:1:0:0:
261,176,203884,1,2,0:3:0:0:
4,211,204034,5,10,0:1:0:0:
174,12,204184,1,2,0:3:0:0:
261,260,204334,1,8,0:1:0:0:
145,159,204484,1,0,0:0:0:0:
388,179,204634,5,6,0:1:0:0:
116,310,204784,1,8,0:1:0:0:
120,315,204859,1,8,0:1:0:0:
124,320,204934,1,8,0:1:0:0:
290,109,205084,1,2,0:3:0:0:
261,260,205234,1,0,0:0:0:0:
205,0,205384,1,2,0:3:0:0:
458,81,205534,1,0,0:0:0:0:
145,159,205684,6,0,B|126:154|115:125|115:125|96:166|120:207|120:207|134:238|114:280,1,198.000001888275,10|0,0:1|0:0,0:0:0:0:
0,384,205984,2,0,B|37:343|102:366|102:366|164:385|215:345,1,215.999993408203,10|0,0:1|0:0,0:0:0:0:
342,339,206284,2,0,P|308:327|281:292,1,78.0000002975464,10|0,0:1|0:0,0:0:0:0:
227,62,206434,5,10,0:1:0:0:
