osu file format v14

[General]
AudioFilename: audio.mp3
AudioLeadIn: 0
PreviewTime: 167434
Countdown: 0
SampleSet: Soft
StackLeniency: 0.2
Mode: 0
LetterboxInBreaks: 0
WidescreenStoryboard: 1

[Editor]
Bookmarks: 13834,23434,42484,61684,81034,119284,128884,138634,157684,168634,206959
DistanceSpacing: 2
BeatDivisor: 4
GridSize: 4
TimelineZoom: 4.763441

[Metadata]
Title:Additional Memory
TitleUnicode:アディショナルメモリー
Artist:JIN
ArtistUnicode:じん
Creator:Rizen
Version:moph's Extreme
Source:
Tags:Ayano Tateyama 楯山文乃 Kagerou Project Daze Days カゲロウプロジェクト Mekakucity Actors メカクシティアクターズ Shizen no Teki P Teki-P TekiP自然の敵P Vocaloid Hatsune Miku 初音ミク moph YelloJello
BeatmapID:1793121
BeatmapSetID:851797

[Difficulty]
HPDrainRate:5
CircleSize:4
OverallDifficulty:9
ApproachRate:9.5
SliderMultiplier:2
SliderTickRate:1

[Events]
//Background and Video events
0,0,"cropped-1920-1200-948407.jpg",0,0
Video,0,"sweet60fps.avi"
//Break Periods
2,119284,127459
//Storyboard Layer 0 (Background)
//Storyboard Layer 1 (Fail)
//Storyboard Layer 2 (Pass)
//Storyboard Layer 3 (Foreground)
//Storyboard Layer 4 (Overlay)
//Storyboard Sound Samples

[TimingPoints]
13834,300,4,2,1,50,1,0
13834,-133.333333333333,4,2,1,50,0,0
14884,-153.846153846154,4,2,1,50,0,0
16084,-181.818181818182,4,2,1,50,0,0
17284,-222.222222222222,4,2,1,50,0,0
18484,-133.333333333333,4,2,1,50,0,0
19684,-153.846153846154,4,2,1,50,0,0
20884,-181.818181818182,4,2,1,50,0,0
22084,-100,4,2,1,50,0,0
22834,-50,4,2,1,70,0,0
23434,-76.9230769230769,4,2,1,70,0,0
23658,-76.9230769230769,4,2,1,5,0,0
23734,-76.9230769230769,4,2,1,70,0,0
26058,-76.9230769230769,4,2,1,5,0,0
26134,-76.9230769230769,4,2,1,70,0,0
28458,-76.9230769230769,4,2,1,5,0,0
28534,-76.9230769230769,4,2,1,70,0,0
33258,-76.9230769230769,4,2,1,5,0,0
33334,-76.9230769230769,4,2,1,70,0,0
35658,-76.9230769230769,4,2,1,5,0,0
35734,-76.9230769230769,4,2,1,70,0,0
38058,-76.9230769230769,4,2,1,5,0,0
38134,-76.9230769230769,4,2,1,70,0,0
42484,-125,4,2,1,50,0,0
46309,-125,4,2,1,5,0,0
46384,-125,4,2,1,50,0,0
52084,-100,4,2,1,60,0,0
52309,-100,4,2,1,5,0,0
52384,-100,4,2,1,60,0,0
53509,-100,4,2,1,5,0,0
53584,-100,4,2,1,60,0,0
55159,-100,4,2,1,5,0,0
55234,-100,4,2,1,60,0,0
58309,-100,4,2,1,5,0,0
58384,-100,4,2,1,60,0,0
61684,-125,4,2,1,60,0,0
64459,-125,4,2,1,5,0,0
64534,-125,4,2,1,60,0,0
64909,-125,4,2,1,5,0,0
65134,-125,4,2,1,60,0,0
71434,-166.666666666667,4,2,1,60,0,0
76234,-200,4,2,1,60,0,0
78634,-62.5,4,2,1,60,0,0
79084,-83.3333333333333,4,2,1,60,0,0
79534,-125,4,2,1,60,0,0
79984,-250,4,2,1,60,0,0
80434,-500,4,2,1,50,0,0
81034,-40,4,2,1,70,0,1
81259,-40,4,2,1,5,0,1
81334,-50,4,2,1,70,0,1
81559,-50,4,2,1,5,0,1
81634,-66.6666666666667,4,2,1,70,0,1
81859,-66.6666666666667,4,2,1,5,0,1
81934,-66.6666666666667,4,2,1,70,0,1
82084,-50,4,2,1,70,0,1
82309,-50,4,2,1,5,0,1
82384,-66.6666666666667,4,2,1,70,0,1
83434,-50,4,2,1,70,0,1
83659,-50,4,2,1,5,0,1
83734,-66.6666666666667,4,2,1,70,0,1
83959,-66.6666666666667,4,2,1,5,0,1
84034,-66.6666666666667,4,2,1,70,0,1
84784,-50,4,2,1,70,0,1
84934,-66.6666666666667,4,2,1,70,0,1
85084,-100,4,2,1,70,0,1
85234,-100,4,2,1,70,0,1
85834,-50,4,2,1,70,0,1
86059,-50,4,2,1,5,0,1
86134,-66.6666666666667,4,2,1,70,0,1
86359,-66.6666666666667,4,2,1,5,0,1
86434,-100,4,2,1,70,0,1
86659,-100,4,2,1,5,0,1
86734,-100,4,2,1,70,0,1
87109,-100,4,2,1,5,0,1
87184,-100,4,2,1,70,0,1
88459,-100,4,2,1,5,0,1
88534,-100,4,2,1,70,0,1
88759,-100,4,2,1,5,0,1
88834,-100,4,2,1,70,0,1
89284,-66.6666666666667,4,2,1,70,0,1
89509,-66.6666666666667,4,2,1,5,0,1
89584,-100,4,2,1,70,0,1
89734,-66.6666666666667,4,2,1,70,0,1
89884,-50,4,2,1,70,0,1
90634,-40,4,2,1,70,0,1
90859,-40,4,2,1,5,0,1
90934,-50,4,2,1,70,0,1
91159,-50,4,2,1,5,0,1
91234,-66.6666666666667,4,2,1,70,0,1
91459,-66.6666666666667,4,2,1,5,0,1
91534,-66.6666666666667,4,2,1,70,0,1
91684,-50,4,2,1,70,0,1
91909,-50,4,2,1,5,0,1
91984,-66.6666666666667,4,2,1,70,0,1
93034,-50,4,2,1,70,0,1
93259,-50,4,2,1,5,0,1
93334,-66.6666666666667,4,2,1,70,0,1
93559,-66.6666666666667,4,2,1,5,0,1
93634,-100,4,2,1,70,0,1
93934,-50,4,2,1,70,0,1
94084,-50,4,2,1,70,0,1
94309,-50,4,2,1,5,0,1
94384,-50,4,2,1,70,0,1
94534,-66.6666666666667,4,2,1,70,0,1
95434,-50,4,2,1,70,0,1
95659,-50,4,2,1,5,0,1
95734,-66.6666666666667,4,2,1,70,0,1
95959,-66.6666666666667,4,2,1,5,0,1
96034,-66.6666666666667,4,2,1,70,0,1
96484,-100,4,2,1,70,0,1
96709,-100,4,2,1,5,0,1
96784,-100,4,2,1,70,0,1
96934,-66.6666666666667,4,2,1,70,0,1
97234,-100,4,2,1,70,0,1
97534,-200,4,2,1,70,0,1
97834,-40,4,2,1,70,0,1
98059,-40,4,2,1,5,0,1
98134,-40,4,2,1,70,0,1
99034,-200,4,2,1,70,0,1
99634,-100,4,2,1,70,0,1
100234,-66.6666666666667,4,2,1,70,0,1
100459,-66.6666666666667,4,2,1,5,0,1
100534,-66.6666666666667,4,2,1,70,0,1
100684,-100,4,2,1,70,0,1
100909,-100,4,2,1,5,0,1
100984,-100,4,2,1,70,0,1
101284,-200,4,2,1,70,0,1
101509,-200,4,2,1,5,0,1
101584,-200,4,2,1,70,0,1
101734,-100,4,2,1,70,0,1
102634,-66.6666666666667,4,2,1,70,0,1
102859,-66.6666666666667,4,2,1,5,0,1
102934,-66.6666666666667,4,2,1,70,0,1
103084,-100,4,2,1,70,0,1
103684,-200,4,2,1,70,0,1
104134,-100,4,2,1,70,0,1
104734,-66.6666666666667,4,2,1,70,0,1
104884,-50,4,2,1,70,0,1
105034,-66.6666666666667,4,2,1,70,0,1
105259,-66.6666666666667,4,2,1,5,0,1
105334,-66.6666666666667,4,2,1,70,0,1
105484,-100,4,2,1,70,0,1
105709,-100,4,2,1,5,0,1
105784,-100,4,2,1,70,0,1
106084,-200,4,2,1,70,0,1
106309,-200,4,2,1,5,0,1
106384,-200,4,2,1,70,0,1
106534,-100,4,2,1,70,0,1
107434,-66.6666666666667,4,2,1,70,0,1
107659,-66.6666666666667,4,2,1,5,0,1
107734,-66.6666666666667,4,2,1,70,0,1
107884,-100,4,2,1,70,0,1
108484,-200,4,2,1,70,0,1
108709,-200,4,2,1,5,0,1
108784,-200,4,2,1,70,0,1
108934,-100,4,2,1,70,0,1
110059,-100,4,2,1,5,0,1
110134,-100,4,2,1,70,0,1
117484,-66.6666666666667,4,2,1,70,0,1
117709,-66.6666666666667,4,2,1,5,0,1
117784,-66.6666666666667,4,2,1,70,0,1
118084,-40,4,2,1,70,0,1
118309,-40,4,2,1,5,0,1
118384,-50,4,2,1,70,0,1
118609,-50,4,2,1,5,0,1
118684,-50,4,2,1,70,0,1
119284,-125,4,2,1,50,0,0
148234,-100,4,2,1,50,0,0
148834,-133.333333333333,4,2,1,50,0,0
149434,-200,4,2,1,50,0,0
149734,-100,4,2,1,50,0,0
151234,-133.333333333333,4,2,1,50,0,0
151834,-200,4,2,1,50,0,0
152134,-100,4,2,1,50,0,0
153634,-133.333333333333,4,2,1,50,0,0
154234,-200,4,2,1,50,0,0
154534,-100,4,2,1,50,0,0
155434,-200,4,2,1,50,0,0
155659,-200,4,2,1,5,0,0
155734,-133.333333333333,4,2,1,50,0,0
155959,-133.333333333333,4,2,1,5,0,0
156034,-100,4,2,1,50,0,0
156259,-100,4,2,1,5,0,0
156334,-80,4,2,1,50,0,0
156559,-80,4,2,1,5,0,0
156634,-80,4,2,1,50,0,0
157684,-333.333333333333,4,2,1,70,0,0
158358,-333.333333333333,4,2,1,5,0,0
158434,-100,4,2,1,70,0,0
158884,-333.333333333333,4,2,1,70,0,0
159558,-333.333333333333,4,2,1,5,0,0
159634,-100,4,2,1,70,0,0
160084,-333.333333333333,4,2,1,70,0,0
160758,-333.333333333333,4,2,1,5,0,0
160834,-80,4,2,1,70,0,0
161284,-333.333333333333,4,2,1,70,0,0
161958,-333.333333333333,4,2,1,5,0,0
162034,-333.333333333333,4,2,1,70,0,0
163158,-333.333333333333,4,2,1,5,0,0
163234,-80,4,2,1,70,0,0
163684,-333.333333333333,4,2,1,70,0,0
164358,-333.333333333333,4,2,1,5,0,0
164434,-333.333333333333,4,2,1,70,0,0
165558,-333.333333333333,4,2,1,5,0,0
165634,-333.333333333333,4,2,1,70,0,0
166084,-200,4,2,1,70,0,0
166234,-133.333333333333,4,2,1,70,0,0
166384,-100,4,2,1,70,0,0
166534,-80,4,2,1,70,0,0
166684,-66.6666666666667,4,2,1,70,0,0
166834,-50,4,2,1,70,0,0
167434,-1000,4,2,1,50,0,0
167509,-1000,4,2,1,5,0,0
168634,-40,4,2,1,70,0,1
168859,-40,4,2,1,5,0,1
168934,-50,4,2,1,70,0,1
169159,-50,4,2,1,5,0,1
169234,-66.6666666666667,4,2,1,70,0,1
169459,-66.6666666666667,4,2,1,5,0,1
169534,-66.6666666666667,4,2,1,70,0,1
169684,-40,4,2,1,70,0,1
169909,-40,4,2,1,5,0,1
169984,-50,4,2,1,70,0,1
170284,-33.3333333333333,4,2,1,70,0,1
170734,-66.6666666666667,4,2,1,70,0,1
171034,-50,4,2,1,70,0,1
171259,-50,4,2,1,5,0,1
171334,-66.6666666666667,4,2,1,70,0,1
171559,-66.6666666666667,4,2,1,5,0,1
171634,-66.6666666666667,4,2,1,70,0,1
172084,-66.6666666666667,4,2,1,70,0,1
172384,-50,4,2,1,70,0,1
172534,-66.6666666666667,4,2,1,70,0,1
172684,-100,4,2,1,70,0,1
172834,-100,4,2,1,70,0,1
173434,-50,4,2,1,70,0,1
173659,-50,4,2,1,5,0,1
173734,-66.6666666666667,4,2,1,70,0,1
173959,-66.6666666666667,4,2,1,5,0,1
174034,-100,4,2,1,70,0,1
174259,-100,4,2,1,5,0,1
174334,-100,4,2,1,70,0,1
174709,-100,4,2,1,5,0,1
174784,-100,4,2,1,70,0,1
176059,-100,4,2,1,5,0,1
176134,-100,4,2,1,70,0,1
176359,-100,4,2,1,5,0,1
176434,-100,4,2,1,70,0,1
176884,-66.6666666666667,4,2,1,70,0,1
177034,-50,4,2,1,70,0,1
177334,-66.6666666666667,4,2,1,70,0,1
177484,-100,4,2,1,70,0,1
178234,-40,4,2,1,70,0,1
178459,-40,4,2,1,5,0,1
178534,-50,4,2,1,70,0,1
178759,-50,4,2,1,5,0,1
178834,-66.6666666666667,4,2,1,70,0,1
179059,-66.6666666666667,4,2,1,5,0,1
179134,-66.6666666666667,4,2,1,70,0,1
179284,-40,4,2,1,70,0,1
179509,-40,4,2,1,5,0,1
179584,-50,4,2,1,70,0,1
179884,-33.3333333333333,4,2,1,70,0,1
180334,-66.6666666666667,4,2,1,70,0,1
180634,-50,4,2,1,70,0,1
180859,-50,4,2,1,5,0,1
180934,-66.6666666666667,4,2,1,70,0,1
181159,-66.6666666666667,4,2,1,5,0,1
181234,-100,4,2,1,70,0,1
181534,-50,4,2,1,70,0,1
181684,-40,4,2,1,70,0,1
181909,-40,4,2,1,5,0,1
181984,-40,4,2,1,70,0,1
182134,-66.6666666666667,4,2,1,70,0,1
183034,-50,4,2,1,70,0,1
183259,-50,4,2,1,5,0,1
183334,-66.6666666666667,4,2,1,70,0,1
183559,-66.6666666666667,4,2,1,5,0,1
183634,-66.6666666666667,4,2,1,70,0,1
184084,-100,4,2,1,70,0,1
184309,-100,4,2,1,5,0,1
184384,-100,4,2,1,70,0,1
184534,-66.6666666666667,4,2,1,70,0,1
184834,-100,4,2,1,70,0,1
185134,-200,4,2,1,70,0,1
185434,-40,4,2,1,70,0,1
185659,-40,4,2,1,5,0,1
185734,-40,4,2,1,70,0,1
186634,-200,4,2,1,70,0,1
187834,-66.6666666666667,4,2,1,70,0,1
188059,-66.6666666666667,4,2,1,5,0,1
188134,-66.6666666666667,4,2,1,70,0,1
188284,-100,4,2,1,70,0,1
188509,-100,4,2,1,5,0,1
188584,-100,4,2,1,70,0,1
188884,-200,4,2,1,70,0,1
189109,-200,4,2,1,5,0,1
189184,-200,4,2,1,70,0,1
189334,-100,4,2,1,70,0,1
190234,-66.6666666666667,4,2,1,70,0,1
190459,-66.6666666666667,4,2,1,5,0,1
190534,-66.6666666666667,4,2,1,70,0,1
190684,-100,4,2,1,70,0,1
191284,-200,4,2,1,70,0,1
191734,-100,4,2,1,70,0,1
192634,-66.6666666666667,4,2,1,70,0,1
192859,-66.6666666666667,4,2,1,5,0,1
192934,-66.6666666666667,4,2,1,70,0,1
193084,-100,4,2,1,70,0,1
193309,-100,4,2,1,5,0,1
193384,-100,4,2,1,70,0,1
193684,-200,4,2,1,70,0,1
193909,-200,4,2,1,5,0,1
193984,-200,4,2,1,70,0,1
194134,-100,4,2,1,70,0,1
195034,-66.6666666666667,4,2,1,70,0,1
195259,-66.6666666666667,4,2,1,5,0,1
195334,-66.6666666666667,4,2,1,70,0,1
195484,-100,4,2,1,70,0,1
195709,-100,4,2,1,5,0,1
195784,-100,4,2,1,70,0,1
196084,-200,4,2,1,70,0,1
196309,-200,4,2,1,5,0,1
196384,-66.6666666666667,4,2,1,70,0,1
196534,-50,4,2,1,70,0,1
196684,-40,4,2,1,70,0,1
196834,-33.3333333333333,4,2,1,70,0,1
197434,-100,4,2,1,70,0,1
197659,-100,4,2,1,5,0,1
197734,-100,4,2,1,70,0,1
205084,-50,4,2,1,70,0,1
205309,-50,4,2,1,5,0,1
205384,-50,4,2,1,70,0,1
205684,-33.3333333333333,4,2,1,70,0,1
205909,-33.3333333333333,4,2,1,5,0,1
205984,-33.3333333333333,4,2,1,70,0,1
206209,-33.3333333333333,4,2,1,5,0,1
206284,-33.3333333333333,4,2,1,70,0,1
206959,-100,4,2,1,70,0,0

[Colours]
Combo1 : 108,63,40
Combo2 : 255,21,21
Combo3 : 75,74,73
Combo4 : 148,148,148

[HitObjects]
401,87,13834,6,0,L|372:249,1,150.000005722046,2|2,0:0|0:0,0:0:0:0:
374,234,14359,1,0,0:0:0:0:
371,249,14434,1,2,0:0:0:0:
403,341,14584,1,2,0:0:0:0:
403,341,14884,6,0,L|250:313,1,129.999994049073,2|2,0:0|0:0,0:0:0:0:
163,342,15334,1,2,0:0:0:0:
275,318,15559,1,0,0:0:0:0:
263,315,15634,1,2,0:0:0:0:
163,342,15784,1,2,0:0:0:0:
163,342,16084,6,0,L|185:215,1,110.000003356934,2|2,0:0|0:0,0:0:0:0:
161,144,16534,1,2,0:0:0:0:
182,233,16759,1,0,0:0:0:0:
184,222,16834,1,2,0:0:0:0:
161,144,16984,1,2,0:0:0:0:
140,65,17134,1,0,0:0:0:0:
8,194,17284,6,0,L|107:212,1,89.9999972534181,2|2,0:0|0:0,0:0:0:0:
161,144,17734,1,0,0:0:0:0:
66,297,17884,1,2,0:0:0:0:
199,319,18034,1,0,0:0:0:0:
146,246,18184,1,2,0:0:0:0:
128,382,18334,5,2,0:3:0:0:
128,382,18409,1,2,0:3:0:0:
128,382,18484,2,0,L|108:203,1,150.000005722046,2|2,0:0|0:0,0:0:0:0:
111,232,18934,2,0,L|192:265,1,75.0000028610231,2|0,0:0|0:0,0:0:0:0:
251,298,19159,1,0,0:0:0:0:
261,303,19234,1,2,0:0:0:0:
251,205,19384,1,2,0:0:0:0:
173,25,19684,6,0,L|314:86,1,129.999994049073,2|2,0:0|0:0,0:0:0:0:
291,76,20134,2,0,L|231:122,1,64.9999970245363,2|0,0:0|0:0,0:0:0:0:
172,161,20359,1,0,0:0:0:0:
164,166,20434,1,2,0:0:0:0:
251,205,20584,1,2,0:0:0:0:
429,222,20884,6,0,L|324:298,1,110.000003356934,2|2,0:0|0:0,0:0:0:0:
339,286,21334,2,0,L|330:223,1,55.0000016784668,2|0,0:0|0:0,0:0:0:0:
320,149,21559,1,0,0:0:0:0:
318,138,21634,1,2,0:0:0:0:
251,205,21784,1,2,0:0:0:0:
251,205,21934,1,0,0:0:0:0:
351,380,22084,6,0,L|329:218,1,150,4|0,3:2|0:0,0:0:0:0:
406,160,22384,2,0,B|417:180|417:180|413:206,1,50,8|4,3:0|3:0,0:0:0:0:
225,308,22534,1,4,3:0:0:0:
184,344,22609,1,4,3:0:0:0:
129,347,22684,1,0,3:0:0:0:
82,318,22759,1,0,3:0:0:0:
62,272,22834,6,0,P|72:219|104:186,1,100,8|0,3:0|0:0,0:0:0:0:
317,299,22984,2,0,P|307:352|275:385,1,100,8|0,3:0|0:0,0:0:0:0:
276,384,23434,6,0,B|262:292|262:292|268:286|268:286|252:181,1,194.999991073609,4|0,0:0|2:0,0:0:0:0:
175,136,23734,5,8,0:0:0:0:
363,236,23884,2,0,L|384:106,1,129.999994049073,0|8,1:0|0:0,0:0:0:0:
506,199,24184,5,0,1:0:0:0:
378,108,24334,2,0,L|357:236,1,129.999994049073,8|0,0:0|0:0,0:0:0:0:
307,307,24634,5,8,0:0:0:0:
377,358,24784,1,0,1:0:0:0:
427,287,24934,1,8,0:0:0:0:
357,236,25084,1,0,1:0:0:0:
355,224,25234,5,8,0:0:0:0:
438,284,25384,1,0,1:0:0:0:
380,368,25534,1,8,0:0:0:0:
296,308,25684,1,0,1:0:0:0:
484,104,25834,6,0,B|396:118|396:118|387:113|387:113|292:126,1,194.999991073609,12|0,0:0|2:0,0:0:0:0:
224,186,26134,5,8,0:0:0:0:
51,63,26284,2,0,L|181:86,1,129.999994049073,0|8,1:0|0:0,0:0:0:0:
296,13,26584,5,0,1:0:0:0:
175,94,26734,2,0,L|46:71,1,129.999994049073,8|0,0:0|0:0,0:0:0:0:
0,247,27034,5,8,0:0:0:0:
190,282,27184,1,0,1:0:0:0:
51,309,27334,5,8,0:0:0:0:
135,227,27484,1,0,1:0:0:0:
106,364,27634,5,8,0:0:0:0:
84,165,27784,1,0,1:0:0:0:
267,287,27934,5,8,3:2:0:0:
314,265,28009,1,8,3:2:0:0:
365,272,28084,1,8,3:2:0:0:
407,301,28159,1,8,3:2:0:0:
424,349,28234,6,0,B|416:255|416:255|405:244|405:244|396:134,1,194.999991073609,4|0,1:2|2:0,0:0:0:0:
430,81,28534,5,8,0:0:0:0:
262,141,28684,2,0,L|272:-16,1,129.999994049073,0|8,1:0|0:0,0:0:0:0:
150,67,28984,5,0,1:0:0:0:
278,12,29134,2,0,L|269:141,1,129.999994049073,8|0,0:0|0:0,0:0:0:0:
262,249,29434,5,8,0:0:0:0:
313,312,29584,1,0,1:0:0:0:
243,364,29734,1,8,0:0:0:0:
189,296,29884,1,0,1:0:0:0:
178,295,30034,5,8,0:0:0:0:
244,376,30184,1,0,1:0:0:0:
324,314,30334,1,8,0:0:0:0:
262,231,30484,1,0,1:0:0:0:
88,342,30634,6,0,B|70:280|70:280|127:198,1,129.999994049073,12|0,0:0|1:0,0:0:0:0:
324,314,30934,1,8,0:0:0:0:
407,278,31084,2,0,B|425:214|425:214|400:156,1,129.999994049073,0|8,1:0|0:0,0:0:0:0:
296,28,31384,5,0,1:0:0:0:
495,111,31534,1,8,0:0:0:0:
306,219,31684,1,0,1:0:0:0:
495,111,31834,5,8,0:0:0:0:
230,86,31984,1,0,1:0:0:0:
495,111,32134,5,8,0:0:0:0:
237,165,32284,1,0,1:0:0:0:
496,265,32434,1,8,3:2:0:0:
496,265,32509,1,8,3:2:0:0:
496,265,32584,2,0,L|518:348,1,64.9999970245363,8|8,3:0|3:0,0:0:0:0:
322,156,32734,2,0,L|300:239,1,64.9999970245363,4|4,3:0|3:0,0:0:0:0:
156,374,32884,1,4,3:0:0:0:
156,374,32959,1,4,3:0:0:0:
156,374,33034,6,0,B|143:288|143:288|151:277|151:277|135:156,1,194.999991073609,4|0,0:0|2:0,0:0:0:0:
152,95,33334,5,8,0:0:0:0:
333,170,33484,1,0,1:0:0:0:
310,86,33634,1,8,0:0:0:0:
194,246,33784,5,0,1:0:0:0:
228,51,33934,1,8,0:0:0:0:
152,95,34084,1,0,0:0:0:0:
283,241,34234,5,8,0:0:0:0:
293,331,34384,1,0,1:0:0:0:
377,364,34534,1,8,0:0:0:0:
446,304,34684,1,0,1:0:0:0:
457,312,34834,5,8,0:0:0:0:
377,379,34984,1,0,1:0:0:0:
280,339,35134,1,8,0:0:0:0:
271,235,35284,1,0,1:0:0:0:
495,152,35434,6,0,B|397:138|397:138|391:147|391:147|296:131,1,194.999991073609,12|0,0:0|2:0,0:0:0:0:
245,67,35734,5,8,0:0:0:0:
359,249,35884,1,0,1:0:0:0:
330,27,36034,5,8,0:2:0:0:
271,235,36184,1,0,0:2:0:0:
330,27,36334,5,8,0:2:0:0:
271,235,36484,1,0,1:2:0:0:
185,260,36634,5,8,0:0:0:0:
334,306,36784,1,0,1:0:0:0:
299,153,36934,1,8,0:0:0:0:
245,326,37084,1,0,1:0:0:0:
359,220,37234,1,8,0:0:0:0:
210,173,37384,1,0,1:0:0:0:
1,259,37534,5,8,3:2:0:0:
13,308,37609,1,8,3:2:0:0:
54,339,37684,1,8,3:2:0:0:
105,345,37759,1,8,3:2:0:0:
152,323,37834,6,0,B|134:226|134:226|125:220|125:220|103:103,1,194.999991073609,4|0,1:2|2:0,2:0:0:0:
165,76,38134,5,8,0:0:0:0:
358,72,38284,1,0,1:0:0:0:
302,6,38434,1,8,0:0:0:0:
263,196,38584,5,0,1:0:0:0:
213,5,38734,1,8,0:0:0:0:
165,76,38884,1,0,1:0:0:0:
336,157,39034,5,8,0:0:0:0:
392,227,39184,1,0,1:0:0:0:
482,214,39334,1,8,0:0:0:0:
504,125,39484,1,0,1:0:0:0:
392,227,39634,5,8,0:0:0:0:
432,66,39784,1,0,1:0:0:0:
302,244,39934,5,8,0:0:0:0:
357,15,40084,1,0,1:0:0:0:
73,97,40234,5,12,0:0:0:0:
132,213,40384,1,0,1:0:0:0:
195,332,40534,1,0,1:0:0:0:
68,271,40684,5,12,0:0:0:0:
132,213,40834,1,0,1:0:0:0:
196,157,40984,1,0,1:0:0:0:
195,332,41134,5,12,0:0:0:0:
73,97,41284,1,0,1:0:0:0:
379,143,41434,5,8,3:0:0:0:
388,144,41509,1,8,3:0:0:0:
397,145,41584,1,8,3:0:0:0:
407,147,41659,1,8,3:0:0:0:
416,148,41734,1,0,1:0:0:0:
425,149,41809,1,0,1:0:0:0:
434,150,41884,1,0,1:0:0:0:
444,152,41959,1,0,1:0:0:0:
454,153,42034,6,0,L|374:166,1,64.9999970245363,12|0,1:2|0:0,0:0:0:0:
83,209,42184,1,8,0:0:0:0:
83,209,42484,6,0,P|163:202|195:290,1,160,6|0,0:0|0:0,0:0:0:0:
172,338,42934,1,8,0:0:0:0:
92,341,43084,1,0,0:0:0:0:
41,278,43234,1,0,1:0:0:0:
83,209,43384,1,0,1:0:0:0:
298,313,43534,5,10,0:0:0:0:
69,368,43684,6,0,L|84:184,1,160,2|0,1:2|1:0,0:0:0:0:
20,157,44134,1,8,0:0:0:0:
90,118,44284,1,0,0:0:0:0:
10,29,44434,5,0,1:0:0:0:
271,91,44584,1,0,1:0:0:0:
90,118,44734,5,8,0:0:0:0:
186,9,44884,1,0,1:0:0:0:
186,9,44959,1,0,0:0:0:0:
186,9,45034,2,0,L|177:171,1,160,0|8,0:0|0:0,0:0:0:0:
250,201,45484,1,0,0:0:0:0:
36,229,45634,2,0,P|67:235|112:281,1,80,0|0,1:0|1:0,0:0:0:0:
116,344,45934,1,8,0:0:0:0:
322,277,46084,6,0,L|166:287,1,120,2|0,1:3|2:0,0:0:0:0:
186,288,46384,1,2,1:2:0:0:
50,384,46534,2,0,P|88:372|116:344,1,80,8|0,0:0|0:0,0:0:0:0:
177,168,46834,1,2,1:2:0:0:
307,361,46984,2,0,L|228:368,1,80,2|8,0:0|0:0,0:0:0:0:
428,384,47284,6,0,B|412:336|412:336|440:220,1,160,2|0,1:3|1:0,0:0:0:0:
493,151,47734,1,8,0:0:0:0:
437,73,47884,1,0,0:0:0:0:
345,103,48034,1,0,1:0:0:0:
345,199,48184,1,0,1:0:0:0:
437,229,48334,1,8,0:0:0:0:
412,151,48484,6,0,L|239:164,1,160,2|0,1:3|1:0,0:0:0:0:
196,94,48934,1,8,0:0:0:0:
145,166,49084,1,0,0:0:0:0:
291,257,49234,5,0,1:0:0:0:
53,344,49384,1,0,1:0:0:0:
191,243,49534,5,8,0:0:0:0:
161,365,49684,1,2,1:3:0:0:
161,365,49759,1,0,0:0:0:0:
161,365,49834,6,0,P|207:373|248:347,1,80,0|0,0:0|1:0,0:0:0:0:
220,160,50134,2,0,P|174:152|133:178,1,80,8|0,0:0|0:0,0:0:0:0:
82,227,50434,1,0,1:0:0:0:
156,273,50584,1,0,1:0:0:0:
407,243,50734,5,8,0:0:0:0:
396,324,50884,6,0,L|388:382,1,40,2|0,1:2|0:0,0:0:0:0:
60,366,51184,6,0,L|55:327,1,40,2|0,1:2|0:0,0:0:0:0:
52,305,51334,1,8,0:0:0:0:
143,325,51484,6,0,L|138:286,1,40,2|0,1:2|0:0,0:0:0:0:
135,264,51634,1,0,0:0:0:0:
226,293,51784,6,0,L|221:254,1,40,2|0,1:2|0:0,0:0:0:0:
218,232,51934,1,8,0:0:0:0:
236,381,52084,6,0,L|214:198,1,150,6|0,0:0|2:0,0:0:0:0:
215,209,52384,1,2,1:2:0:0:
390,279,52534,5,10,0:0:0:0:
342,378,52684,1,2,0:0:0:0:
213,185,52834,5,2,1:2:0:0:
88,339,52984,2,0,P|41:338|-6:299,1,100,2|10,0:0|0:0,0:0:0:0:
310,258,53284,2,0,L|475:295,1,150,2|0,1:2|2:0,0:0:0:0:
474,297,53584,5,2,1:2:0:0:
247,348,53734,1,10,0:0:0:0:
389,154,53884,1,2,1:2:0:0:
472,135,54034,5,0,1:0:0:0:
215,62,54184,1,2,0:0:0:0:
395,56,54334,5,8,0:0:0:0:
292,141,54484,1,2,0:0:0:0:
386,268,54634,6,0,B|413:313|413:313|377:373,1,100,0|2,0:0|1:2,0:0:0:0:
150,325,54934,2,0,B|307:318,1,150,10|0,0:0|2:0,0:0:0:0:
316,318,55234,1,0,1:2:0:0:
480,371,55384,1,2,1:2:0:0:
507,167,55534,1,10,0:0:0:0:
289,223,55684,2,0,L|500:256,1,200,4|2,0:0|1:2,0:0:0:0:
264,132,56134,1,8,0:0:0:0:
316,318,56284,1,2,0:0:0:0:
232,289,56434,5,2,1:2:0:0:
7,367,56584,1,2,0:0:0:0:
232,289,56734,1,8,0:0:0:0:
140,372,56884,6,0,B|144:281|144:281|155:274|155:274|161:154,1,200,4|0,0:0|0:0,0:0:0:0:
39,54,57334,1,10,0:0:0:0:
125,15,57484,2,0,L|221:40,1,100,2|2,0:0|1:2,0:0:0:0:
294,173,57784,2,0,L|390:147,1,100,2|8,1:2|0:0,0:0:0:0:
147,112,58084,6,0,B|163:144|163:144|154:272,1,150,4|0,0:0|2:0,0:0:0:0:
155,280,58384,1,2,1:2:0:0:
311,383,58534,2,0,P|313:335|286:290,1,100,8|2,0:0|0:0,0:0:0:0:
59,327,58834,1,0,1:0:0:0:
131,379,58984,2,0,P|184:381|231:342,1,100,2|10,1:2|0:0,0:0:0:0:
451,227,59284,6,0,B|366:220|366:220|346:200|346:200|235:195,1,200,4|0,0:0|1:0,0:0:0:0:
423,28,59734,2,0,P|445:67|423:136,1,100,8|2,0:0|0:0,0:0:0:0:
430,126,59959,1,2,0:0:0:0:
422,133,60034,1,2,1:2:0:0:
346,200,60184,1,2,0:0:0:0:
182,136,60334,2,0,P|159:175|181:244,1,100,8|2,0:0|0:0,0:0:0:0:
451,366,60634,1,8,0:0:0:0:
451,366,60784,6,0,L|457:327,1,40,6|0,0:0|0:0,0:0:0:0:
460,305,60934,1,0,0:0:0:0:
368,325,61084,6,0,L|374:286,1,40,6|0,0:0|0:0,0:0:0:0:
377,264,61234,1,0,0:0:0:0:
285,293,61384,6,0,L|291:254,1,40,6|0,0:0|0:0,0:0:0:0:
294,232,61534,1,0,0:0:0:0:
277,362,61684,6,0,L|300:178,1,160,4|0,0:0|0:0,0:0:0:0:
66,276,62134,2,0,B|46:310|46:310|77:354,1,80,8|0,0:0|0:0,0:0:0:0:
138,216,62434,6,0,B|134:147|134:147|139:139|139:139|133:51,1,160,0|0,1:0|1:0,0:0:0:0:
146,308,62884,1,8,0:0:0:0:
212,186,63034,5,0,0:0:0:0:
3,96,63184,1,4,3:0:0:0:
224,98,63334,2,0,L|236:13,1,80,8|0,0:0|0:0,0:0:0:0:
309,0,63634,5,0,1:0:0:0:
502,102,63784,1,8,0:0:0:0:
212,186,63934,1,8,3:0:0:0:
405,288,64084,1,4,3:0:0:0:
425,200,64234,6,0,P|367:198|323:244,1,120,4|0,0:0|2:0,0:0:0:0:
319,259,64534,1,0,1:0:0:0:
136,283,64684,2,0,B|171:243|215:254|237:278|237:278|243:317|278:344|321:341,1,200,12|0,0:0|2:0,0:0:0:0:
309,340,65134,5,8,0:0:0:0:
168,171,65284,1,0,0:0:0:0:
8,336,65434,1,4,0:0:0:0:
99,299,65584,5,8,3:0:0:0:
99,299,65659,1,0,0:0:0:0:
99,299,65734,1,4,3:0:0:0:
157,363,65884,5,8,3:0:0:0:
157,363,66034,5,8,3:0:0:0:
157,363,66184,5,8,3:0:0:0:
157,363,66334,5,4,3:0:0:0:
157,363,66484,5,4,3:0:0:0:
261,218,66634,6,0,B|254:284|254:284|260:294|260:294|252:380,1,160,4|0,0:0|1:0,0:0:0:0:
266,134,67084,1,8,0:0:0:0:
76,245,67234,2,0,B|50:277|50:277|75:327,1,80,4|0,1:2|0:0,0:0:0:0:
134,356,67534,1,4,1:0:0:0:
383,278,67684,1,0,0:0:0:0:
352,364,67834,5,0,1:0:0:0:
183,171,67984,1,8,0:0:0:0:
250,116,68134,6,0,P|286:125|317:161,1,80,0|0,1:0|0:0,0:0:0:0:
383,278,68434,2,0,P|372:242|388:197,1,80,12|0,0:0|0:0,2:0:0:0:
455,83,68734,2,0,P|429:109|382:118,1,80,0|0,1:0|2:0,2:0:0:0:
149,42,69034,6,0,P|215:39|238:140,1,160,12|0,0:0|1:0,0:0:0:0:
120,265,69484,1,12,0:0:0:0:
35,156,69634,2,0,P|78:157|119:199,1,80,0|0,0:0|0:0,0:0:0:0:
266,197,69934,2,0,L|165:202,1,80,4|0,1:0|0:0,0:0:0:0:
7,345,70234,2,0,B|-14:324|-14:324|126:352,1,160,4|0,0:0|1:0,0:0:0:0:
195,367,70684,1,0,3:0:0:0:
120,265,70834,5,8,3:0:0:0:
120,265,70984,5,8,3:0:0:0:
120,265,71134,5,4,3:0:0:0:
120,265,71284,5,4,3:0:0:0:
246,203,71434,6,0,P|284:212|307:289,1,119.999996337891,4|0,0:0|1:0,0:0:0:0:
285,358,71884,1,0,0:0:0:0:
420,366,72034,2,0,P|400:349|366:341,1,59.9999981689454,8|0,0:0|0:0,0:0:0:0:
233,384,72334,2,0,P|262:377|285:358,1,59.9999981689454,0|0,1:0|0:0,0:0:0:0:
379,188,72634,1,0,1:0:0:0:
309,282,72784,1,0,0:0:0:0:
376,172,72934,2,0,L|360:97,1,59.9999981689454,0|0,1:0|0:0,0:0:0:0:
343,30,73234,5,0,1:0:0:0:
64,119,73384,1,8,0:0:0:0:
176,232,73534,2,0,L|161:338,1,89.9999972534181,0|0,1:0|0:0,0:0:0:0:
160,341,73834,5,4,0:0:0:0:
339,259,73984,1,0,0:0:0:0:
188,139,74134,1,0,1:0:0:0:
11,227,74284,1,8,0:0:0:0:
11,227,74359,1,0,0:0:0:0:
11,227,74434,5,0,1:0:0:0:
90,213,74584,1,0,0:0:0:0:
61,286,74734,2,0,L|69:353,1,59.9999981689454,0|0,1:0|1:0,0:0:0:0:
70,357,74959,1,0,1:0:0:0:
72,369,75034,1,4,0:0:0:0:
177,320,75184,5,0,3:0:0:0:
177,320,75334,5,4,3:0:0:0:
177,320,75484,5,4,3:0:0:0:
177,320,75634,5,8,3:0:0:0:
177,320,75784,5,0,1:0:0:0:
71,367,75934,6,0,L|65:300,1,59.9999981689454,8|0,0:0|1:0,0:0:0:0:
131,190,76234,6,0,L|126:239,1,50,4|0,0:0|0:0,0:0:0:0:
126,239,76534,5,0,3:0:0:0:
126,239,76684,1,0,3:0:0:0:
71,367,76834,5,0,3:0:0:0:
169,348,76984,1,0,3:0:0:0:
11,294,77134,5,0,3:0:0:0:
317,352,77284,5,0,3:0:0:0:
317,352,77434,1,0,3:0:0:0:
238,295,77584,5,0,3:0:0:0:
510,220,77734,1,0,3:0:0:0:
270,67,77884,1,2,3:2:0:0:
203,128,78034,5,0,3:0:0:0:
495,49,78184,1,2,3:2:0:0:
408,21,78334,5,0,3:0:0:0:
497,361,78484,1,0,3:0:0:0:
409,379,78634,5,4,0:0:0:0:
409,379,78784,2,0,L|433:220,1,160,0|0,1:0|1:0,0:0:0:0:
132,338,79084,5,4,0:0:0:0:
132,338,79234,2,0,L|108:179,1,119.999996337891,0|0,1:0|1:0,0:0:0:0:
335,200,79534,5,4,0:0:0:0:
335,200,79684,2,0,L|351:93,1,80,0|0,1:0|1:0,0:0:0:0:
166,136,79984,5,4,0:0:0:0:
166,136,80134,2,0,L|158:87,1,40,0|0,1:0|1:0,0:0:0:0:
262,0,80434,6,2,L|255:70,1,70,0|0,0:1|0:1,0:0:0:0:
255,69,81034,6,0,P|391:46|301:184,1,375,4|0,1:2|2:0,0:0:0:0:
128,254,81334,2,0,P|92:185|222:224,1,300,8|0,0:0|2:0,0:0:0:0:
325,345,81634,2,0,P|266:373|294:277,1,225.000008583069,2|0,1:2|2:0,0:0:0:0:
367,276,81934,2,0,P|393:266|373:283,1,75.0000028610231,8|0,0:0|0:0,0:0:0:0:
233,367,82084,6,0,P|269:263|314:377,1,300,2|0,1:2|2:0,0:0:0:0:
199,284,82384,2,0,P|165:270|116:315,1,75.0000028610231,2|0,1:2|0:0,0:0:0:0:
0,348,82534,1,8,0:0:0:0:
46,146,82684,2,0,P|51:181|114:201,1,75.0000028610231,2|8,0:0|0:0,0:0:0:0:
199,284,82834,1,0,1:0:0:0:
0,348,82984,2,0,P|28:324|13:260,1,75.0000028610231,2|0,1:2|0:0,0:0:0:0:
81,204,83134,6,0,P|52:182|120:108,1,150.000005722046,10|0,0:0|0:0,0:0:0:0:
97,102,83434,6,0,P|139:137|121:17,1,300,4|0,1:2|2:0,0:0:0:0:
9,143,83734,2,0,P|98:103|89:199,1,225.000008583069,10|0,0:0|2:0,0:0:0:0:
81,204,84034,1,2,1:2:0:0:
265,28,84184,1,0,1:0:0:0:
483,253,84334,5,8,0:0:0:0:
339,374,84484,2,0,P|342:336|385:286,1,75.0000028610231,2|0,1:2|0:0,0:0:0:0:
373,291,84634,1,0,0:0:0:0:
190,210,84784,6,0,P|205:262|253:288,1,100,2|0,1:2|0:0,0:0:0:0:
301,151,84934,6,0,P|271:181|272:223,1,75.0000028610231,8|0,0:0|0:0,0:0:0:0:
391,212,85084,6,0,P|362:204|336:220,1,50,2|0,0:0|0:0,0:0:0:0:
197,359,85234,6,0,P|257:365|308:324,1,100,0|2,1:0|1:2,0:0:0:0:
373,291,85534,1,8,0:0:0:0:
118,116,85684,1,2,0:0:0:0:
73,306,85834,6,0,P|102:366|163:238,1,300,4|0,1:2|2:0,0:0:0:0:
7,117,86134,2,0,P|3:221|96:176,1,225.000008583069,10|0,0:0|2:0,0:0:0:0:
264,174,86434,2,0,B|216:177|185:145|214:138|181:106|119:115,1,150,2|0,1:2|2:0,0:0:0:0:
118,116,86734,1,8,0:0:0:0:
410,33,86884,2,0,B|362:30|331:62|360:69|327:101|265:92,1,150,2|0,1:2|2:0,0:0:0:0:
263,93,87184,1,2,1:2:0:0:
482,80,87334,1,8,0:0:0:0:
389,219,87484,2,0,L|407:117,1,100,2|0,0:0|1:0,0:0:0:0:
406,120,87784,5,2,1:2:0:0:
389,219,87934,1,10,0:0:0:0:
372,317,88084,1,2,0:0:0:0:
443,363,88234,6,0,L|288:361,1,150,4|0,1:2|2:0,0:0:0:0:
154,341,88534,2,0,B|189:348|214:384|214:384|205:342|229:305,1,150,10|0,0:0|2:0,0:0:0:0:
235,299,88834,5,2,1:2:0:0:
49,384,88984,1,0,1:0:0:0:
45,215,89134,2,0,P|63:246|50:281,1,50,10|0,0:0|0:0,0:0:0:0:
65,275,89284,6,0,B|105:92|105:92|105:115|126:135,1,225.000008583069,2|0,1:2|2:0,0:0:0:0:
129,135,89584,6,0,P|153:138|177:132,1,50,2|0,1:2|0:0,0:0:0:0:
219,198,89734,6,0,P|245:173|253:130,1,75.0000028610231,8|0,0:0|0:0,0:0:0:0:
330,138,89884,6,0,P|317:88|264:56,1,100,2|0,0:0|0:0,0:0:0:0:
27,137,90034,5,8,3:0:0:0:
70,114,90109,1,8,3:0:0:0:
118,126,90184,1,8,3:0:0:0:
147,167,90259,1,8,3:0:0:0:
150,216,90334,1,0,1:0:0:0:
179,257,90409,1,0,1:0:0:0:
227,269,90484,1,0,1:0:0:0:
270,247,90559,1,0,1:0:0:0:
321,182,90634,6,0,P|269:249|417:211,1,375,4|0,1:2|2:0,0:0:0:0:
438,108,90934,2,0,P|436:234|321:182,1,300,10|0,0:0|2:0,0:0:0:0:
246,128,91234,2,0,P|330:176|314:76,1,225.000008583069,0|0,1:0|2:0,0:0:0:0:
404,2,91534,2,0,P|405:29|394:4,1,75.0000028610231,8|0,0:0|0:0,0:0:0:0:
185,51,91684,6,0,P|258:-2|224:123,1,300,2|0,0:0|2:0,0:0:0:0:
123,125,91984,2,0,P|160:141|166:193,1,75.0000028610231,0|0,1:0|0:0,0:0:0:0:
287,210,92134,2,0,P|220:237|210:309,1,150.000005722046,8|2,0:0|0:0,0:0:0:0:
275,360,92359,1,8,0:0:0:0:
352,336,92434,2,0,L|512:367,2,150.000005722046,0|2|10,1:0|1:2|0:0,0:0:0:0:
42,371,92884,2,0,P|83:354|98:301,1,75.0000028610231,0|0,0:0|0:0,0:0:0:0:
66,249,93034,6,0,P|153:333|117:203,1,300,4|0,1:2|2:0,0:0:0:0:
156,108,93334,2,0,P|122:155|225:136,1,225.000008583069,8|0,0:0|2:0,0:0:0:0:
297,124,93634,2,0,P|281:105|259:93,1,50,0|0,1:0|0:0,0:0:0:0:
232,4,93784,2,0,P|216:23|194:35,1,50,0|0,1:0|0:0,0:0:0:0:
70,75,93934,6,0,P|119:75|156:108,1,100,10|0,0:0|0:0,0:0:0:0:
182,291,94084,2,0,P|143:171|218:19,1,300,6|0,1:2|2:0,0:0:0:0:
232,4,94384,5,0,1:0:0:0:
109,369,94534,1,10,0:0:0:0:
298,233,94684,1,2,0:0:0:0:
221,253,94834,6,0,P|293:253|343:306,1,150.000005722046,2|2,1:2|1:2,0:0:0:0:
189,322,95134,2,0,P|238:375|311:376,1,150.000005722046,10|0,0:0|0:0,0:0:0:0:
459,364,95434,6,0,P|384:387|439:269,1,300,4|0,1:2|2:0,0:0:0:0:
440,171,95734,2,0,P|424:261|512:220,1,225.000008583069,10|0,0:0|2:0,0:0:0:0:
510,210,96034,1,2,1:2:0:0:
395,69,96184,1,0,1:0:0:0:
459,364,96334,1,8,0:0:0:0:
213,262,96484,6,0,B|128:266|171:316|80:320,1,150,2|0,1:2|2:0,0:0:0:0:
64,321,96784,1,2,1:2:0:0:
21,106,96934,6,0,P|67:85|121:172,1,150.000005722046,8|2,0:0|0:0,0:0:0:0:
212,338,97234,2,0,P|263:350|291:305,1,100,0|2,1:0|1:2,0:0:0:0:
380,218,97534,2,0,P|405:211|419:234,1,50,8|2,0:0|0:0,0:0:0:0:
418,227,97834,6,0,B|379:251|317:208|336:135|392:120|426:143|426:143|471:165|526:120|506:54|455:38|449:52,1,375,6|0,1:2|2:0,0:0:0:0:
434,56,98134,1,8,0:0:0:0:
260,104,98284,5,0,0:0:0:0:
244,76,98359,1,0,0:0:0:0:
250,47,98434,1,2,1:2:0:0:
325,64,98584,1,0,1:0:0:0:
135,227,98734,1,8,0:0:0:0:
6,12,98884,1,2,0:0:0:0:
92,9,99034,5,2,1:2:0:0:
3,279,99184,1,0,1:0:0:0:
277,353,99334,1,8,0:0:0:0:
366,83,99484,1,2,1:2:0:0:
287,87,99634,5,12,0:0:0:0:
443,212,99784,5,4,3:0:0:0:
406,179,99859,1,4,3:0:0:0:
357,178,99934,1,4,3:0:0:0:
320,209,100009,1,4,3:0:0:0:
312,258,100084,1,4,3:0:0:0:
337,299,100159,1,4,3:0:0:0:
384,314,100234,6,0,B|279:300|279:300|266:317|266:317|169:305,1,225.000008583069,6|0,1:2|2:0,0:0:0:0:
405,318,100534,1,8,0:0:0:0:
233,259,100684,6,0,B|288:301|288:301|286:314|286:314|337:356,1,150,6|0,1:2|2:0,0:0:0:0:
218,247,100984,1,2,1:2:0:0:
350,375,101134,1,8,0:0:0:0:
317,295,101284,6,0,B|284:310|284:310|283:316|283:316|254:330,1,75,6|0,1:2|2:0,0:0:0:0:
242,337,101584,1,2,1:2:0:0:
452,288,101734,5,10,0:0:0:0:
236,163,101884,1,2,0:0:0:0:
237,122,101959,1,8,0:0:0:0:
272,101,102034,1,2,1:2:0:0:
418,163,102184,2,0,L|289:176,1,100,2|8,1:2|0:0,0:0:0:0:
270,244,102484,1,0,0:0:0:0:
30,69,102634,6,0,B|132:86|132:86|136:105|136:105|242:122,1,225.000008583069,6|0,1:2|2:0,0:0:0:0:
6,66,102934,1,8,0:0:0:0:
184,70,103084,5,6,1:2:0:0:
118,132,103234,1,0,0:0:0:0:
100,43,103384,1,2,1:2:0:0:
133,80,103534,5,10,0:0:0:0:
18,181,103684,5,6,1:2:0:0:
257,253,103834,1,0,0:0:0:0:
34,367,103984,1,2,1:2:0:0:
82,292,104134,5,10,0:0:0:0:
321,358,104284,1,2,1:2:0:0:
252,118,104434,5,8,3:0:0:0:
229,162,104509,1,8,3:0:0:0:
231,211,104584,1,8,3:0:0:0:
257,253,104659,1,8,3:0:0:0:
300,277,104734,1,0,1:0:0:0:
350,277,104809,1,0,1:0:0:0:
393,253,104884,1,0,1:0:0:0:
419,210,104959,1,0,1:0:0:0:
433,163,105034,6,0,B|341:172|341:172|331:202|331:202|219:211,1,225.000008583069,6|0,1:2|2:0,0:0:0:0:
454,165,105334,1,8,0:0:0:0:
291,137,105484,6,0,B|340:172|340:172|336:192|336:192|397:234,1,150,6|0,1:2|2:0,0:0:0:0:
275,126,105784,1,2,1:2:0:0:
406,243,105934,1,8,0:0:0:0:
370,179,106084,6,0,B|339:182|339:182|335:192|335:192|298:195,1,75,6|0,1:2|2:0,0:0:0:0:
282,198,106384,1,2,1:2:0:0:
394,74,106534,5,8,0:0:0:0:
174,192,106684,1,2,0:0:0:0:
384,327,106834,1,2,1:2:0:0:
335,240,106984,5,2,0:0:0:0:
99,348,107134,1,10,0:2:0:0:
335,240,107284,1,2,0:0:0:0:
294,313,107434,6,0,B|197:291|197:291|188:269|188:269|79:245,1,225.000008583069,6|0,1:2|2:0,0:0:0:0:
314,315,107734,1,8,0:0:0:0:
160,218,107884,5,6,1:2:0:0:
231,272,108034,1,0,0:0:0:0:
146,305,108184,1,2,0:0:0:0:
178,265,108334,5,8,0:0:0:0:
88,246,108484,6,0,B|118:254|118:254|124:249|124:249|158:258,1,75,6|0,1:2|2:0,0:0:0:0:
174,262,108784,1,2,1:2:0:0:
24,357,108934,5,8,0:0:0:0:
214,135,109084,1,2,1:2:0:0:
382,377,109234,5,8,0:0:0:0:
332,368,109309,1,0,1:0:0:0:
283,359,109384,1,0,1:0:0:0:
234,350,109459,1,0,1:0:0:0:
185,341,109534,1,10,1:2:0:0:
232,265,109684,1,2,0:0:0:0:
92,376,109834,6,0,B|159:368|159:368|169:354|169:354|239:348,1,150,6|0,1:2|2:0,0:0:0:0:
257,348,110134,5,8,0:0:0:0:
9,82,110284,1,2,1:2:0:0:
42,170,110434,5,8,0:0:0:0:
133,6,110584,1,0,1:0:0:0:
326,232,110734,5,10,0:0:0:0:
17,266,110884,1,0,1:0:0:0:
102,315,111034,5,8,0:0:0:0:
111,234,111184,1,2,1:2:0:0:
191,241,111334,1,8,0:0:0:0:
182,322,111484,1,2,1:2:0:0:
147,276,111634,5,8,0:0:0:0:
336,359,111784,5,0,1:0:0:0:
416,351,111934,1,8,0:0:0:0:
496,342,112084,1,0,1:0:0:0:
336,227,112234,5,4,1:2:0:0:
417,160,112384,1,0,1:0:0:0:
326,302,112534,5,10,0:0:0:0:
355,91,112684,1,0,1:0:0:0:
385,353,112834,5,10,0:0:0:0:
223,64,112984,1,2,1:2:0:0:
458,344,113134,5,10,0:0:0:0:
101,156,113284,1,2,1:2:0:0:
196,108,113434,5,8,0:0:0:0:
211,192,113584,1,2,1:2:0:0:
227,272,113734,1,10,0:0:0:0:
240,19,113884,5,0,0:0:0:0:
228,188,114034,1,8,0:0:0:0:
220,357,114184,1,2,1:2:0:0:
308,291,114334,5,8,0:0:0:0:
319,296,114409,1,8,0:0:0:0:
330,302,114484,1,8,0:0:0:0:
341,308,114559,1,8,0:0:0:0:
352,314,114634,5,6,1:2:0:0:
43,368,114784,1,0,0:0:0:0:
232,252,114934,1,8,0:0:0:0:
85,161,115084,5,2,1:2:0:0:
294,196,115234,1,8,1:2:0:0:
166,118,115384,1,2,1:2:0:0:
131,266,115534,5,8,0:0:0:0:
232,252,115684,1,2,1:2:0:0:
184,284,115834,5,8,0:0:0:0:
178,233,115984,1,0,1:0:0:0:
168,260,116134,5,8,0:0:0:0:
194,257,116284,1,2,1:2:0:0:
98,344,116434,5,8,0:0:0:0:
260,154,116584,1,0,1:0:0:0:
0,202,116734,5,8,0:0:0:0:
358,296,116884,1,2,0:0:0:0:
0,384,117034,5,6,1:2:0:0:
423,237,117184,1,8,0:0:0:0:
447,259,117259,1,8,0:0:0:0:
446,293,117334,1,8,0:0:0:0:
406,373,117484,6,0,L|425:137,1,225.000008583069,6|0,0:0|2:0,0:0:0:0:
427,126,117784,1,4,1:2:0:0:
322,98,117934,2,0,B|310:135|310:135|341:174,1,75.0000028610231,2|0,0:0|0:0,0:0:0:0:
454,308,118084,6,0,B|454:224|326:181|256:313|337:391|405:371|405:371|376:368|336:327|350:305,1,375,10|0,0:0|2:0,0:0:0:0:
246,332,118384,2,0,B|64:353|64:353|54:353|54:353|64:353|64:353|167:368,1,300,10|0,0:0|2:0,0:0:0:0:
405,372,118684,6,0,P|346:359|323:320,1,100,10|0,0:0|0:0,0:0:0:0:
332,163,118834,1,10,0:0:0:0:
160,216,127984,5,2,0:3:0:0:
160,216,128059,1,2,0:3:0:0:
160,216,128134,1,2,1:2:0:0:
218,281,128284,5,8,0:0:0:0:
218,281,128434,5,8,3:0:0:0:
218,281,128584,5,4,3:0:0:0:
218,281,128734,5,8,3:0:0:0:
136,314,128884,2,0,B|184:303|224:327|196:335|240:365|283:357,1,160,6|0,1:2|0:0,0:0:0:0:
332,245,129334,2,0,P|294:249|261:287,1,80,0|2,1:0|0:0,0:0:0:0:
489,346,129634,1,10,0:0:0:0:
489,346,129934,5,2,0:3:0:0:
409,379,130084,2,0,L|426:209,1,160,2|8,1:2|0:0,0:0:0:0:
409,287,130534,2,0,L|421:182,1,80,2|0,1:2|0:0,0:0:0:0:
440,21,130834,1,10,0:0:0:0:
440,21,131134,5,2,0:3:0:0:
378,90,131284,2,0,P|304:79|297:5,1,160,0|10,1:0|0:0,0:0:0:0:
139,80,131734,2,0,P|183:91|221:65,1,80,0|2,1:0|0:0,0:0:0:0:
22,5,132034,1,10,0:0:0:0:
22,5,132334,5,2,0:3:0:0:
117,4,132484,2,0,L|98:175,1,160,2|10,1:2|0:0,0:0:0:0:
98,88,132934,2,0,L|88:184,1,80,0|8,0:0|3:0,0:0:0:0:
132,236,133159,1,8,3:0:0:0:
132,236,133234,5,0,3:0:0:0:
0,371,133459,1,8,3:0:0:0:
135,241,133684,1,4,3:0:0:0:
189,298,133834,6,0,B|64:273|64:273|27:246,2,160,6|2|10,1:2|1:2|0:0,0:0:0:0:
189,298,134734,5,2,3:0:0:0:
225,377,134884,2,0,P|224:318|312:327,1,160,2|0,1:2|1:0,0:0:0:0:
437,364,135334,2,0,P|407:385|346:361,1,80,2|0,1:2|0:0,0:0:0:0:
504,290,135634,1,8,0:0:0:0:
504,290,135934,5,2,0:3:0:0:
432,154,136084,2,0,B|443:260|375:211|389:316,1,160,2|10,1:2|0:0,0:0:0:0:
437,364,136534,1,2,1:2:0:0:
357,177,136684,1,8,3:0:0:0:
357,177,136759,1,8,3:0:0:0:
357,177,136834,5,8,3:0:0:0:
263,193,136984,1,8,3:0:0:0:
169,209,137134,1,4,3:0:0:0:
75,225,137284,1,4,3:0:0:0:
127,279,137434,5,6,0:0:0:0:
256,192,137509,12,2,138334,0:0:0:0:
256,192,138634,6,0,P|222:209|198:256,1,80,6|0,1:2|0:0,0:0:0:0:
214,324,138934,1,0,1:0:0:0:
118,224,139084,2,0,P|115:261|144:306,2,80,2|0|2,0:0|0:0|0:0,0:0:0:0:
214,324,139534,1,2,1:2:0:0:
75,356,139684,2,0,P|106:376|159:373,2,80,2|0|2,0:0|1:0|0:0,0:0:0:0:
41,218,140134,5,2,1:2:0:0:
118,224,140284,1,0,0:0:0:0:
228,240,140434,5,2,1:2:0:0:
306,246,140584,1,0,0:0:0:0:
416,262,140734,5,2,1:2:0:0:
493,268,140884,1,0,0:0:0:0:
316,319,141034,6,0,P|299:289|308:241,1,80,2|0,1:2|0:0,0:0:0:0:
344,174,141334,1,0,1:0:0:0:
234,75,141484,2,0,P|273:77|303:102,2,80,2|0|2,0:0|0:0|0:0,0:0:0:0:
344,174,141934,1,0,1:0:0:0:
484,128,142084,2,0,P|462:160|425:173,2,80,2|0|2,0:0|1:0|0:0,0:0:0:0:
465,18,142534,5,2,1:2:0:0:
387,27,142684,1,2,0:0:0:0:
278,47,142834,5,2,1:2:0:0:
200,56,142984,1,0,0:0:0:0:
91,75,143134,5,2,1:2:0:0:
14,84,143284,1,0,0:0:0:0:
12,223,143434,6,0,P|38:250|90:258,1,80,2|0,1:2|0:0,0:0:0:0:
150,222,143734,1,0,1:0:0:0:
85,344,143884,2,0,P|121:334|154:293,2,80,2|0|2,0:0|0:0|0:0,0:0:0:0:
150,222,144334,1,0,1:0:0:0:
224,339,144484,2,0,P|234:302|214:253,2,80,2|0|2,0:0|0:0|0:0,0:0:0:0:
150,222,144934,1,2,1:2:0:0:
12,223,145084,2,0,P|38:250|90:258,1,80,2|0,0:0|1:0,0:0:0:0:
273,137,145384,5,2,0:0:0:0:
194,121,145534,1,2,1:2:0:0:
115,105,145684,1,0,0:0:0:0:
276,117,145834,6,0,L|287:19,1,80,2|0,1:2|0:0,0:0:0:0:
273,137,146134,1,0,1:0:0:0:
351,139,146284,2,0,L|362:41,1,80,2|0,0:0|0:0,0:0:0:0:
348,159,146584,1,0,0:0:0:0:
362,45,146734,1,0,1:0:0:0:
427,157,146884,2,0,L|438:59,1,80,2|0,0:0|1:0,0:0:0:0:
420,236,147184,5,0,0:0:0:0:
341,277,147334,1,2,1:2:0:0:
356,365,147484,1,2,0:0:0:0:
444,377,147634,1,0,1:0:0:0:
483,296,147784,1,0,0:0:0:0:
410,311,147934,5,10,1:2:0:0:
410,311,148234,6,0,L|289:339,1,100,6|0,1:2|0:0,0:0:0:0:
121,291,148534,5,0,1:0:0:0:
219,312,148684,1,2,0:0:0:0:
378,239,148834,6,0,L|299:256,1,75.0000028610231,0|2,1:0|0:0,0:0:0:0:
166,226,149134,5,2,1:2:0:0:
205,233,149284,1,2,0:0:0:0:
348,167,149434,6,0,L|288:180,1,50,0|2,1:0|0:0,0:0:0:0:
132,59,149734,5,0,1:0:0:0:
292,79,149884,1,2,0:0:0:0:
195,17,150034,5,2,1:2:0:0:
229,121,150184,1,0,0:0:0:0:
225,34,150334,5,2,1:2:0:0:
199,104,150484,1,0,0:0:0:0:
41,188,150634,6,0,P|78:190|126:238,1,100,2|0,1:2|0:0,0:0:0:0:
0,373,150934,5,2,1:2:0:0:
41,188,151084,1,2,0:0:0:0:
198,215,151234,6,0,P|201:243|171:286,1,75.0000028610231,0|2,1:0|0:0,0:0:0:0:
31,293,151534,5,2,1:2:0:0:
198,215,151684,1,2,0:0:0:0:
203,352,151834,6,0,P|180:358|141:344,1,50,2|2,1:2|0:0,0:0:0:0:
105,296,152134,5,2,1:2:0:0:
321,373,152284,1,0,0:0:0:0:
278,146,152434,1,2,1:2:0:0:
220,312,152584,5,8,0:0:0:0:
277,263,152734,1,2,1:2:0:0:
205,238,152884,1,0,0:0:0:0:
235,270,153034,6,0,L|364:251,1,100,6|0,1:2|0:0,0:0:0:0:
498,367,153334,1,2,1:2:0:0:
235,270,153484,1,2,0:0:0:0:
351,159,153634,6,0,L|407:209,1,75.0000028610231,0|2,1:0|0:0,0:0:0:0:
405,312,153934,1,0,1:0:0:0:
351,159,154084,1,2,0:0:0:0:
488,186,154234,6,0,L|486:243,1,50,0|2,1:0|0:0,0:0:0:0:
426,291,154534,1,2,1:2:0:0:
426,291,154834,5,0,1:0:0:0:
337,306,154984,1,2,0:0:0:0:
208,326,155134,1,6,1:2:0:0:
39,347,155284,1,0,0:0:0:0:
65,264,155434,6,0,B|98:274|98:274|99:278|99:278|140:289,1,75,4|0,1:2|2:0,0:0:0:0:
110,330,155734,6,0,B|95:276|95:276|100:272|100:272|88:221,1,112.500004291535,6|0,1:2|2:0,0:0:0:0:
153,229,156034,6,0,B|102:276|102:276|94:273|94:273|41:326,1,150,4|0,1:2|2:0,0:0:0:0:
10,247,156334,6,0,B|98:270|98:270|100:280|100:280|182:305,1,187.5,4|0,1:2|2:0,0:0:0:0:
250,261,156634,5,4,1:2:0:0:
354,358,156784,1,0,0:0:0:0:
354,358,156859,1,0,0:0:0:0:
354,358,156934,1,4,1:2:0:0:
35,332,157084,1,8,3:0:0:0:
101,376,157234,5,8,0:0:0:0:
108,302,157309,1,8,0:0:0:0:
116,227,157384,1,8,0:0:0:0:
123,153,157459,1,8,0:0:0:0:
131,78,157534,1,8,0:0:0:0:
138,3,157609,1,8,0:0:0:0:
203,52,157684,6,0,L|273:56,1,59.9999981689454,6|0,1:2|1:0,0:0:0:0:
337,68,158059,1,0,0:0:0:0:
254,69,158134,2,0,L|209:64,1,44.999998626709,14|0,0:0|2:0,0:0:0:0:
131,78,158434,5,8,0:0:0:0:
71,75,158509,1,8,0:0:0:0:
27,114,158584,1,8,0:0:0:0:
22,172,158659,1,8,0:0:0:0:
58,218,158734,1,8,0:0:0:0:
116,227,158809,1,8,0:0:0:0:
197,191,158884,6,0,P|222:206|240:233,1,59.9999981689454,6|0,1:2|1:0,0:0:0:0:
243,310,159259,1,0,0:0:0:0:
183,363,159334,2,0,P|153:362|131:353,1,44.999998626709,14|0,0:0|2:0,0:0:0:0:
111,267,159634,5,8,3:0:0:0:
140,260,159709,1,8,3:0:0:0:
170,262,159784,1,4,3:0:0:0:
198,271,159859,1,4,3:0:0:0:
223,287,159934,1,0,1:0:0:0:
243,310,160009,1,0,1:0:0:0:
283,381,160084,6,0,L|346:360,1,59.9999981689454,6|0,1:2|1:0,0:0:0:0:
370,293,160459,1,0,0:0:0:0:
416,359,160534,2,0,L|465:375,1,44.999998626709,14|0,0:0|2:0,0:0:0:0:
370,293,160834,5,8,0:0:0:0:
295,303,160909,1,8,0:0:0:0:
221,316,160984,1,8,0:0:0:0:
148,328,161059,1,8,0:0:0:0:
74,341,161134,1,8,0:0:0:0:
2,354,161209,1,8,0:0:0:0:
20,278,161284,6,0,L|8:216,1,59.9999981689454,6|0,1:2|1:0,0:0:0:0:
2,141,161659,1,0,0:0:0:0:
20,225,161734,2,0,L|29:274,1,44.999998626709,14|0,0:0|2:0,0:0:0:0:
74,341,162034,5,8,0:0:0:0:
504,192,162184,1,0,1:0:0:0:
74,43,162334,1,8,0:0:0:0:
140,97,162484,6,0,L|152:159,1,59.9999981689454,6|0,1:2|1:0,0:0:0:0:
158,234,162859,1,0,0:0:0:0:
140,150,162934,2,0,L|130:100,1,44.999998626709,14|0,0:0|2:0,0:0:0:0:
151,18,163234,5,8,0:0:0:0:
221,39,163309,1,8,0:0:0:0:
294,59,163384,1,8,0:0:0:0:
365,78,163459,1,8,0:0:0:0:
438,99,163534,1,8,0:0:0:0:
511,119,163609,1,8,0:0:0:0:
451,178,163684,6,0,P|431:201|400:216,1,59.9999981689454,6|0,1:2|1:0,0:0:0:0:
326,212,164059,1,0,0:0:0:0:
261,173,164134,2,0,P|251:149|247:122,1,44.999998626709,14|0,0:0|2:0,0:0:0:0:
294,59,164434,5,8,3:0:0:0:
272,79,164509,1,8,3:0:0:0:
246,93,164584,1,8,3:0:0:0:
217,100,164659,1,8,3:0:0:0:
187,99,164734,1,4,3:0:0:0:
158,90,164809,1,4,3:0:0:0:
107,25,164884,6,0,L|64:75,1,59.9999981689454,6|0,1:2|1:0,0:0:0:0:
2,116,165259,1,0,0:0:0:0:
77,148,165334,2,0,L|104:194,1,44.999998626709,14|0,0:0|2:0,0:0:0:0:
70,256,165634,5,8,0:0:0:0:
117,218,165709,1,8,0:0:0:0:
175,226,165784,1,8,0:0:0:0:
213,270,165859,1,8,0:0:0:0:
210,328,165934,1,8,0:0:0:0:
167,369,166009,1,8,0:0:0:0:
96,336,166084,6,0,L|129:301,1,25,6|0,1:2|0:0,0:0:0:0:
219,364,166234,6,0,L|206:317,1,37.5000014305115,0|0,0:0|0:0,0:0:0:0:
346,263,166384,6,0,L|282:246,1,50,0|0,1:0|0:0,0:0:0:0:
315,63,166534,6,0,L|262:115,1,62.5,14|0,0:0|0:0,0:0:0:0:
60,5,166684,6,0,L|87:104,1,75.0000028610231,0|0,0:0|0:0,0:0:0:0:
140,283,166834,6,0,B|139:248|139:248|136:243|136:243|147:199|147:199|150:200|150:200|146:199|146:199|155:162|155:162|154:131|154:131|150:128|150:128|154:130|154:130|161:87|161:87|163:83|163:83|157:40|157:40|158:37|158:37|158:-4,2,300,6|6|6,1:2|1:2|1:2,0:0:0:0:
140,283,167434,6,2,P|129:268|149:282,1,75,0|0,0:0|0:0,0:0:0:0:
79,338,168634,6,0,P|72:211|235:284,1,375,4|0,1:2|2:0,0:0:0:0:
343,320,168934,2,0,P|287:260|299:380,1,300,8|0,0:0|2:0,0:0:0:0:
426,319,169234,2,0,P|354:330|398:232,1,225.000008583069,2|0,1:2|2:0,0:0:0:0:
464,234,169534,2,0,P|439:224|465:226,1,75.0000028610231,8|0,0:0|0:0,0:0:0:0:
296,131,169684,6,0,P|377:231|386:67,1,375,2|0,1:2|2:0,0:0:0:0:
350,8,169984,2,0,P|324:44|255:42,1,100,2|0,1:2|0:0,0:0:0:0:
202,173,170134,2,0,P|176:137|107:139,1,100,8|0,0:0|0:0,0:0:0:0:
11,147,170284,2,0,B|106:184|171:40|52:2|52:2|79:25|80:58,2,300.000011444092,2|0|2,0:0|1:0|1:2,0:0:0:0:
72,230,170734,2,0,P|116:169|5:190,1,225.000008583069,10|0,0:0|0:0,0:0:0:0:
76,365,171034,6,0,P|28:282|165:333,1,300,4|0,1:2|2:0,0:0:0:0:
260,312,171334,2,0,P|194:315|252:221,1,225.000008583069,10|0,0:0|2:0,0:0:0:0:
255,221,171634,1,2,1:2:0:0:
425,345,171784,1,0,1:0:0:0:
0,247,171934,5,8,0:0:0:0:
214,26,172084,2,0,P|236:48|251:96,1,75.0000028610231,2|0,1:2|0:0,0:0:0:0:
238,215,172234,1,0,0:0:0:0:
78,68,172384,6,0,P|118:64|169:94,1,100,2|0,1:2|0:0,0:0:0:0:
59,195,172534,6,0,P|72:164|114:141,1,75.0000028610231,8|0,0:0|0:0,0:0:0:0:
150,262,172684,6,0,P|136:243|136:209,1,50,2|0,0:0|0:0,0:0:0:0:
214,26,172834,6,0,P|242:59|247:125,1,100,0|2,1:0|1:2,0:0:0:0:
238,215,173134,1,8,0:0:0:0:
0,96,173284,1,2,0:0:0:0:
31,324,173434,6,0,P|72:253|129:388,1,300,4|0,1:2|2:0,0:0:0:0:
48,166,173734,2,0,P|5:147|95:111,1,225.000008583069,10|0,0:0|2:0,0:0:0:0:
197,160,174034,6,0,B|172:161|147:176|139:203|139:203|129:236|106:249|73:248,1,150,2|0,1:2|2:0,0:0:0:0:
69,247,174334,1,8,0:0:0:0:
236,355,174484,2,0,B|206:242|206:242|232:283,1,150,2|0,1:2|2:0,0:0:0:0:
235,283,174784,2,0,P|263:290|309:274,1,50,2|0,1:2|0:0,0:0:0:0:
339,353,174934,2,0,P|359:332|368:284,1,50,8|0,0:0|0:0,0:0:0:0:
363,136,175084,2,0,L|344:241,1,100,2|0,0:0|1:0,0:0:0:0:
345,234,175384,5,2,1:2:0:0:
363,136,175534,1,10,0:0:0:0:
381,38,175684,1,2,0:0:0:0:
437,100,175834,6,0,B|414:106|386:98|371:78|371:78|355:55|324:45|286:53,1,150,4|0,1:2|2:0,0:0:0:0:
242,206,176134,2,0,P|310:210|319:142,1,150,10|0,0:0|2:0,0:0:0:0:
311,130,176434,1,2,1:2:0:0:
150,18,176584,1,0,1:0:0:0:
144,244,176734,6,0,P|158:223|160:199,1,50,10|0,0:0|0:0,0:0:0:0:
223,103,176884,6,0,P|189:119|152:117,1,75.0000028610231,2|0,1:2|0:0,0:0:0:0:
103,54,177034,6,0,P|104:103|85:149,1,100,0|0,0:0|0:0,0:0:0:0:
29,38,177184,2,0,P|9:84|9:134,1,100,2|0,1:2|0:0,0:0:0:0:
0,267,177334,6,0,P|25:239|60:228,1,75.0000028610231,8|0,0:0|0:0,0:0:0:0:
160,199,177484,6,0,P|146:219|143:244,1,50,2|0,0:0|0:0,0:0:0:0:
75,335,177634,5,8,3:0:0:0:
119,374,177709,1,8,3:0:0:0:
178,369,177784,1,8,3:0:0:0:
217,323,177859,1,8,3:0:0:0:
224,263,177934,1,0,1:0:0:0:
268,224,178009,1,0,1:0:0:0:
327,229,178084,1,0,1:0:0:0:
366,275,178159,1,0,1:0:0:0:
330,365,178234,6,0,P|343:246|440:375,1,375,4|0,1:2|2:0,0:0:0:0:
320,272,178534,2,0,P|228:271|320:155,1,300,10|0,0:0|2:0,0:0:0:0:
453,116,178834,2,0,P|403:203|388:137,1,225.000008583069,0|0,1:0|2:0,0:0:0:0:
366,77,179134,2,0,P|367:105|355:80,1,75.0000028610231,8|0,0:0|0:0,0:0:0:0:
191,167,179284,6,0,P|152:116|221:176,1,375,2|0,0:0|2:0,0:0:0:0:
351,230,179584,2,0,P|303:218|263:244,1,100,0|0,1:0|0:0,0:0:0:0:
208,359,179734,2,0,P|160:370|120:344,1,100,8|0,0:0|0:0,0:0:0:0:
0,285,179884,2,0,B|61:312|116:266|122:224|122:224|128:180|173:141|251:177,2,300.000011444092,2|0|2,0:0|1:0|1:2,0:0:0:0:
123,187,180334,2,0,P|89:258|135:194,1,225.000008583069,10|0,0:0|0:0,0:0:0:0:
5,123,180634,6,0,P|47:189|92:50,1,300,4|0,1:2|2:0,0:0:0:0:
209,25,180934,2,0,P|128:41|210:101,1,225.000008583069,8|0,0:0|2:0,0:0:0:0:
215,101,181234,1,0,1:0:0:0:
25,323,181384,1,0,1:0:0:0:
417,247,181534,6,0,P|375:251|361:322,1,100,10|0,0:0|0:0,0:0:0:0:
365,374,181684,2,0,B|391:19|391:19|378:33,1,375,2|0,1:2|2:0,0:0:0:0:
374,43,181984,5,0,1:0:0:0:
256,384,182134,1,10,0:0:0:0:
482,295,182284,1,2,0:0:0:0:
402,276,182434,6,0,P|329:233|242:257,1,150.000005722046,2|2,1:2|1:2,0:0:0:0:
385,356,182734,2,0,P|311:362|250:322,1,150.000005722046,10|0,0:0|0:0,0:0:0:0:
104,353,183034,6,0,P|183:374|121:230,1,300,4|0,1:2|2:0,0:0:0:0:
32,179,183334,2,0,P|-11:225|96:215,1,225.000008583069,10|0,0:0|2:0,0:0:0:0:
98,238,183634,1,2,1:2:0:0:
81,43,183784,1,0,1:0:0:0:
0,364,183934,1,8,0:0:0:0:
203,292,184084,6,0,B|288:296|245:346|336:350,1,150,2|0,1:2|2:0,0:0:0:0:
352,351,184384,1,2,1:2:0:0:
419,76,184534,6,0,P|373:55|319:142,1,150.000005722046,8|2,0:0|0:0,0:0:0:0:
78,165,184834,2,0,P|129:153|157:198,1,100,0|2,1:0|1:2,0:0:0:0:
295,301,185134,2,0,P|270:294|256:317,1,50,8|2,0:0|0:0,0:0:0:0:
256,310,185434,6,0,B|282:272|244:207|169:221|151:276|171:312|171:312|190:358|141:410|77:385|64:333|79:328,1,375,6|0,1:2|2:0,0:0:0:0:
83,313,185734,1,8,0:0:0:0:
9,210,185884,1,0,0:0:0:0:
0,239,185959,1,0,0:0:0:0:
14,266,186034,1,2,1:2:0:0:
99,229,186184,1,0,1:0:0:0:
0,10,186334,1,8,0:0:0:0:
242,54,186484,1,2,0:0:0:0:
165,14,186634,5,2,1:2:0:0:
103,330,186784,1,0,1:0:0:0:
422,375,186934,1,8,0:0:0:0:
484,59,187084,1,2,1:2:0:0:
403,82,187234,5,12,0:0:0:0:
331,311,187384,5,4,3:0:0:0:
369,271,187459,1,4,3:0:0:0:
372,215,187534,1,4,3:0:0:0:
337,172,187609,1,4,3:0:0:0:
283,163,187684,1,4,3:0:0:0:
234,187,187759,1,4,3:0:0:0:
211,235,187834,6,0,B|210:129|210:129|191:118|191:118|189:20,1,225.000008583069,6|0,1:2|2:0,0:0:0:0:
210,257,188134,1,8,0:0:0:0:
241,73,188284,6,0,B|205:134|205:134|193:134|193:134|156:192,1,150,6|0,1:2|2:0,0:0:0:0:
251,59,188584,1,2,1:2:0:0:
149,205,188734,1,8,0:0:0:0:
165,119,188884,6,0,B|198:133|198:133|206:130|206:130|233:142,1,75,6|0,1:2|2:0,0:0:0:0:
246,146,189184,1,2,1:2:0:0:
36,309,189334,5,10,0:0:0:0:
347,341,189484,1,2,0:0:0:0:
350,301,189559,1,8,0:0:0:0:
318,276,189634,1,2,1:2:0:0:
116,375,189784,5,2,1:2:0:0:
191,355,189934,1,8,0:0:0:0:
266,335,190084,1,0,0:0:0:0:
347,341,190234,6,0,B|340:237|340:237|358:229|358:229|350:122,1,225.000008583069,6|0,1:2|2:0,0:0:0:0:
349,364,190534,1,8,0:0:0:0:
313,189,190684,5,6,1:2:0:0:
388,240,190834,1,0,0:0:0:0:
305,278,190984,1,2,1:2:0:0:
334,237,191134,5,10,0:0:0:0:
483,333,191284,5,6,1:2:0:0:
192,215,191434,1,0,0:0:0:0:
502,166,191584,1,2,1:2:0:0:
444,232,191734,5,10,0:0:0:0:
246,76,191884,1,2,1:2:0:0:
191,340,192034,5,8,3:0:0:0:
230,370,192109,1,8,3:0:0:0:
278,376,192184,1,8,3:0:0:0:
324,358,192259,1,8,3:0:0:0:
355,320,192334,1,0,1:0:0:0:
364,271,192409,1,0,1:0:0:0:
348,224,192484,1,0,1:0:0:0:
310,191,192559,1,0,1:0:0:0:
267,169,192634,6,0,B|357:185|357:185|365:216|365:216|476:235,1,225.000008583069,6|0,1:2|2:0,0:0:0:0:
247,165,192934,1,8,0:0:0:0:
414,153,193084,6,0,B|362:183|362:183|364:203|364:203|299:240,1,150,6|0,1:2|2:0,0:0:0:0:
431,143,193384,1,2,1:2:0:0:
287,250,193534,1,8,0:0:0:0:
328,189,193684,6,0,B|358:194|358:194|361:205|361:205|398:211,1,75,6|0,1:2|2:0,0:0:0:0:
414,216,193984,1,2,1:2:0:0:
276,99,194134,5,8,0:0:0:0:
227,364,194284,1,2,0:0:0:0:
10,203,194434,1,2,1:2:0:0:
54,127,194584,5,2,0:0:0:0:
87,379,194734,1,10,0:2:0:0:
54,127,194884,1,2,0:0:0:0:
137,75,195034,6,0,B|145:174|145:174|165:186|165:186|174:297,1,225.000008583069,6|0,1:2|2:0,0:0:0:0:
137,53,195334,1,8,0:0:0:0:
109,239,195484,6,0,B|145:179|145:179|160:178|160:178|194:123,1,150,6|0,1:2|2:0,0:0:0:0:
97,253,195784,1,2,0:0:0:0:
205,109,195934,1,8,0:0:0:0:
155,218,196084,6,0,B|153:182|153:182|154:178|154:178|151:130,1,75,6|0,1:2|2:0,0:0:0:0:
149,126,196384,6,0,P|158:168|190:203,1,75.0000028610231,2|0,1:2|0:0,0:0:0:0:
169,287,196534,6,0,P|215:301|266:290,1,100,10|0,0:0|0:0,0:0:0:0:
348,351,196684,6,0,P|391:310|410:250,1,125,2|0,1:2|0:0,0:0:0:0:
319,38,196834,6,0,P|273:109|266:179,2,150.000005722046,14|8|12,0:0|3:0|3:0,0:0:0:0:
390,65,197134,2,0,P|376:138|335:200,2,150.000005722046,14|8|0,0:0|3:0|0:0,0:0:0:0:
462,66,197434,6,0,B|395:58|395:58|385:44|385:44|315:38,1,150,4|0,1:2|2:0,0:0:0:0:
302,38,197734,5,10,0:0:0:0:
460,369,197884,1,2,1:2:0:0:
376,338,198034,5,8,0:0:0:0:
478,224,198184,1,0,1:0:0:0:
412,164,198334,5,8,0:0:0:0:
203,357,198484,1,0,1:0:0:0:
301,299,198634,5,8,0:0:0:0:
310,380,198784,1,2,1:2:0:0:
390,373,198934,1,8,0:0:0:0:
381,292,199084,1,2,1:2:0:0:
346,338,199234,5,8,0:0:0:0:
0,372,199384,5,2,1:2:0:0:
80,364,199534,1,8,0:0:0:0:
160,355,199684,1,0,1:0:0:0:
108,274,199834,5,4,1:2:0:0:
247,355,199984,1,0,0:0:0:0:
79,178,200134,5,8,0:0:0:0:
264,359,200284,1,2,1:2:0:0:
153,57,200434,5,8,0:0:0:0:
281,363,200584,1,2,1:2:0:0:
336,30,200734,5,8,0:0:0:0:
297,365,200884,1,2,1:2:0:0:
386,163,201034,5,8,0:0:0:0:
256,192,201184,1,2,1:2:0:0:
126,221,201334,1,10,0:0:0:0:
492,256,201484,5,2,1:2:0:0:
256,192,201634,1,10,0:0:0:0:
20,128,201784,1,2,1:2:0:0:
54,6,201934,5,8,0:0:0:0:
59,15,202009,1,8,3:0:0:0:
65,27,202084,1,12,3:0:0:0:
70,38,202159,1,12,3:0:0:0:
76,49,202234,5,4,1:2:0:0:
31,345,202384,1,2,1:2:0:0:
224,115,202534,1,10,0:0:0:0:
300,361,202684,5,2,1:2:0:0:
319,161,202834,1,8,0:0:0:0:
395,345,202984,1,2,1:2:0:0:
478,190,203134,5,10,0:0:0:0:
468,291,203284,1,2,1:2:0:0:
498,242,203434,5,8,0:0:0:0:
447,238,203584,1,0,1:0:0:0:
474,227,203734,5,8,0:0:0:0:
472,253,203884,1,0,1:0:0:0:
395,345,204034,5,8,0:0:0:0:
467,96,204184,1,0,1:0:0:0:
206,9,204334,5,8,0:0:0:0:
262,372,204484,1,2,0:0:0:0:
1,285,204634,5,4,1:2:0:0:
461,194,204784,1,8,3:0:0:0:
480,220,204859,1,8,3:0:0:0:
472,253,204934,1,8,3:0:0:0:
402,331,205084,6,0,B|456:83|456:83|441:113|415:142,1,300,4|0,1:2|2:0,0:0:0:0:
421,128,205384,1,4,1:2:0:0:
242,124,205534,2,0,B|250:105|247:76|247:76|258:97|285:110,1,100
456,83,205684,6,0,B|453:21|383:16|383:16|382:21|382:21|380:16|380:16|318:23|283:89|327:151|327:151|322:154|322:154|328:153|328:153|363:192|412:169|412:169|391:173|356:143,1,450.000017166138,12|0,1:2|0:0,0:0:0:0:
205,273,205984,2,0,B|164:260|160:232|160:232|152:230|152:230|273:195|335:271|335:271|339:272|339:272|348:289|339:306|339:306|333:311|333:311|385:354|435:329|435:329|414:329|400:316,1,450.000017166138,14|0,1:2|0:0,0:0:0:0:
467,256,206284,6,0,B|478:242|478:242|508:225|508:225|450:236|450:236|447:241|447:241|359:268,1,150.000005722046,14|0,1:2|0:0,0:0:0:0:
0,342,206434,1,10,0:0:0:0:
