osu file format v14

[General]
AudioFilename: audio.mp3
AudioLeadIn: 0
PreviewTime: 167434
Countdown: 0
SampleSet: Soft
StackLeniency: 0.3
Mode: 0
LetterboxInBreaks: 0
WidescreenStoryboard: 1

[Editor]
Bookmarks: 61684,138634,170959,173359,180559,206959
DistanceSpacing: 1.2
BeatDivisor: 4
GridSize: 8
TimelineZoom: 2.5

[Metadata]
Title:Additional Memory
TitleUnicode:アディショナルメモリー
Artist:JIN
ArtistUnicode:じん
Creator:Rizen
Version:daze (old)
Source:
Tags:Ayano Tateyama 楯山文乃 Kagerou Project Daze Days カゲロウプロジェクト Mekakucity Actors メカクシティアクターズ Shizen no Teki P Teki-P TekiP自然の敵P Vocaloid Hatsune Miku 初音ミク moph YelloJello
BeatmapID:1782243
BeatmapSetID:851797

[Difficulty]
HPDrainRate:5
CircleSize:4.2
OverallDifficulty:10
ApproachRate:9.6
SliderMultiplier:1.8
SliderTickRate:1

[Events]
//Background and Video events
0,0,"cropped-1920-1200-948407.jpg",0,0
Video,0,"sweet60fps.avi"
//Break Periods
2,119284,127475
//Storyboard Layer 0 (Background)
//Storyboard Layer 1 (Fail)
//Storyboard Layer 2 (Pass)
//Storyboard Layer 3 (Foreground)
//Storyboard Layer 4 (Overlay)
//Storyboard Sound Samples

[TimingPoints]
13834,300,4,2,1,50,1,0
13834,-166.666666666667,4,2,1,50,0,0
22084,-125,4,2,1,50,0,0
22834,-125,4,2,1,70,0,0
23434,-100,4,2,1,70,0,0
42484,-125,4,2,1,50,0,0
52084,-125,4,2,1,60,0,0
61084,-142.857142857143,4,2,1,60,0,0
61384,-153.846153846154,4,2,1,60,0,0
61684,-166.666666666667,4,2,1,50,0,0
76234,-125,4,2,1,60,0,0
80434,-200,4,2,1,50,0,0
81034,-100,4,2,1,70,0,1
119284,-125,4,2,1,50,0,0
127834,-125,4,2,1,50,0,0
157684,-100,4,2,1,70,0,0
166834,-83.3333333333333,4,2,1,70,0,0
167059,-66.6666666666667,4,2,1,70,0,0
167284,-50,4,2,1,70,0,0
167434,-200,4,2,1,50,0,0
168634,-100,4,2,1,70,0,1
206959,-100,4,2,1,70,0,0

[Colours]
Combo1 : 108,63,40
Combo2 : 255,21,21
Combo3 : 75,74,73
Combo4 : 148,148,148

[HitObjects]
112,114,13834,6,0,P|148:130|188:131,1,80.9999975280763,2|0,0:0|0:0,0:0:0:0:
258,162,14134,2,0,L|204:167,1,53.9999983520508,2|0,0:0|0:0,0:0:0:0:
160,254,14434,1,2,0:0:0:0:
169,266,14584,2,0,L|223:271,1,53.9999983520508,2|0,0:0|0:0,0:0:0:0:
329,333,14884,6,0,P|317:294|319:254,1,80.9999975280763,2|0,0:0|0:0,0:0:0:0:
361,192,15184,1,2,0:0:0:0:
304,88,15334,2,0,L|309:34,1,53.9999983520508,2|0,0:0|0:0,0:0:0:0:
190,63,15634,1,2,0:0:0:0:
184,77,15784,2,0,L|189:130,1,53.9999983520508,2|0,0:0|0:0,0:0:0:0:
222,270,16084,6,0,P|191:246|151:238,1,80.9999975280763,2|0,0:0|0:0,0:0:0:0:
85,271,16384,1,2,0:0:0:0:
26,169,16534,2,0,L|30:115,1,53.9999983520508,2|0,0:0|0:0,0:0:0:0:
150,77,16834,1,2,0:0:0:0:
166,90,16984,2,0,L|170:143,1,53.9999983520508,2|0,0:0|0:0,0:0:0:0:
331,151,17284,6,0,P|332:97|304:52,1,107.999996704102,2|2,0:0|0:0,0:0:0:0:
144,242,17884,2,0,P|142:188|170:143,1,107.999996704102,2|2,0:0|0:0,0:0:0:0:
301,236,18334,1,2,0:3:0:0:
301,236,18409,1,2,0:3:0:0:
301,236,18484,6,0,L|381:228,1,80.9999975280763,2|0,0:0|0:0,0:0:0:0:
446,184,18784,1,2,0:0:0:0:
503,287,18934,2,0,L|449:280,1,53.9999983520508,2|0,0:0|0:0,0:0:0:0:
351,335,19234,1,2,0:0:0:0:
332,346,19384,2,0,L|278:352,1,53.9999983520508,2|0,0:0|0:0,0:0:0:0:
181,270,19684,6,0,P|143:254|103:255,1,80.9999975280763,2|0,0:0|0:0,0:0:0:0:
42,296,19984,1,2,0:0:0:0:
87,170,20134,2,0,L|82:116,1,53.9999983520508,2|0,0:0|0:0,0:0:0:0:
145,17,20434,1,2,0:0:0:0:
155,31,20584,2,0,L|101:35,1,53.9999983520508,2|0,0:0|0:0,0:0:0:0:
255,80,20884,6,0,L|335:85,1,80.9999975280763,2|0,0:0|0:0,0:0:0:0:
400,46,21184,1,2,0:0:0:0:
493,124,21334,2,0,P|493:150|487:177,1,53.9999983520508,2|0,0:0|0:0,0:0:0:0:
396,258,21634,1,2,0:0:0:0:
380,251,21784,2,0,P|373:224|374:197,1,53.9999983520508,2|0,0:0|0:0,0:0:0:0:
185,310,22084,6,0,P|236:322|270:283,1,108,4|0,3:2|0:0,0:0:0:0:
209,230,22384,1,8,3:0:0:0:
163,228,22459,1,4,3:0:0:0:
123,252,22534,2,0,L|87:254,3,36,4|4|0|0,3:0|3:0|3:0|3:0,0:0:0:0:
105,337,22834,5,8,3:0:0:0:
53,77,22984,1,8,3:0:0:0:
53,76,23434,6,0,P|96:69|140:78,1,90,4|0,0:0|0:0,0:0:0:0:
323,27,23734,1,8,0:0:0:0:
272,161,23884,2,0,P|315:170|359:162,1,90,0|8,1:0|0:0,0:0:0:0:
512,286,24184,1,0,1:0:0:0:
461,13,24334,1,8,0:0:0:0:
308,242,24484,1,0,0:0:0:0:
494,104,24634,6,0,L|405:92,1,90,8|0,0:0|1:0,0:0:0:0:
218,253,24934,2,0,L|308:241,1,90,8|0,0:0|1:0,0:0:0:0:
104,314,25234,1,8,0:0:0:0:
142,89,25384,1,0,1:0:0:0:
307,241,25534,1,8,0:0:0:0:
76,188,25684,1,0,1:0:0:0:
319,323,25834,6,0,L|230:336,1,90,12|0,0:0|0:0,0:0:0:0:
76,188,26134,1,8,0:0:0:0:
23,373,26284,2,0,P|8:331|10:286,1,90,0|8,1:0|0:0,0:0:0:0:
58,98,26584,1,0,1:0:0:0:
267,162,26734,1,8,0:0:0:0:
104,314,26884,1,0,0:0:0:0:
178,98,27034,6,0,P|172:54|151:15,1,90,8|0,0:0|1:0,0:0:0:0:
201,258,27334,2,0,P|243:275|288:276,1,90,8|0,0:0|1:0,0:0:0:0:
59,214,27635,2,0,P|22:241|-1:279,1,90,8|0,0:0|1:0,0:0:0:0:
168,185,27934,1,8,3:2:0:0:
153,142,28009,1,8,3:2:0:0:
120,111,28084,1,8,3:2:0:0:
76,98,28159,1,8,3:2:0:0:
32,101,28234,6,0,B|132:134|116:76|208:98,1,180,4|8,1:2|0:0,0:0:0:0:
384,152,28684,2,0,L|389:63,1,90,0|8,1:0|0:0,0:0:0:0:
415,354,28984,1,0,1:0:0:0:
496,144,29134,1,8,0:0:0:0:
306,225,29284,1,0,0:0:0:0:
117,93,29434,6,0,L|206:97,1,90,8|0,0:0|1:0,0:0:0:0:
478,58,29734,2,0,L|388:62,1,90,8|0,0:0|1:0,0:0:0:0:
197,186,30034,1,8,0:0:0:0:
373,149,30184,1,0,1:0:0:0:
206,97,30334,1,8,0:0:0:0:
388,61,30484,1,0,1:0:0:0:
294,297,30634,6,0,P|296:253|286:209,1,90,12|0,0:0|1:0,0:0:0:0:
440,347,30934,1,8,0:0:0:0:
471,145,31084,2,0,P|468:100|478:56,1,90,0|8,1:0|0:0,0:0:0:0:
416,235,31384,1,0,1:0:0:0:
197,186,31534,1,8,0:0:0:0:
294,297,31684,1,0,0:0:0:0:
21,332,31834,5,8,0:0:0:0:
55,114,31984,1,0,1:0:0:0:
265,138,32134,1,8,0:0:0:0:
72,204,32284,1,0,1:0:0:0:
221,58,32434,5,8,3:2:0:0:
250,47,32509,1,8,3:2:0:0:
281,48,32584,1,8,3:0:0:0:
310,57,32659,1,8,3:0:0:0:
334,77,32734,1,4,3:0:0:0:
368,105,32809,1,4,3:0:0:0:
412,112,32884,1,4,3:0:0:0:
461,91,32959,1,4,3:0:0:0:
490,44,33034,6,0,L|400:32,1,90,4|0,0:0|0:0,0:0:0:0:
372,229,33334,1,8,0:0:0:0:
175,150,33484,2,0,L|264:138,1,90,0|8,1:0|0:0,0:0:0:0:
108,263,33784,1,0,1:0:0:0:
362,352,33934,1,8,0:0:0:0:
264,137,34084,1,0,0:0:0:0:
142,380,34234,6,0,P|187:381|230:368,1,90,8|0,0:0|1:0,0:0:0:0:
459,242,34534,2,0,P|414:242|371:228,1,90,8|0,0:0|1:0,0:0:0:0:
487,358,34834,1,8,0:0:0:0:
427,144,34984,1,0,1:0:0:0:
307,333,35134,1,8,0:0:0:0:
438,110,35284,1,0,1:0:0:0:
212,193,35434,6,0,L|219:103,1,90,12|0,0:0|1:0,0:0:0:0:
91,247,35734,1,8,0:0:0:0:
348,224,35884,1,0,1:0:0:0:
117,126,36034,1,8,0:0:0:0:
306,109,36184,1,0,1:0:0:0:
85,18,36334,2,0,L|174:27,1,90,8|0,0:0|1:0,0:0:0:0:
477,109,36634,5,8,0:0:0:0:
283,12,36784,1,0,1:0:0:0:
91,247,36934,1,8,0:0:0:0:
283,214,37084,1,0,1:0:0:0:
430,379,37234,1,8,0:0:0:0:
269,354,37384,1,0,1:0:0:0:
117,328,37534,1,8,3:2:0:0:
131,285,37609,1,8,3:2:0:0:
166,257,37684,1,8,3:2:0:0:
211,257,37759,1,8,3:2:0:0:
245,285,37834,6,0,B|150:290|184:225|80:227,1,180,4|8,1:2|0:0,0:0:0:0:
134,32,38284,2,0,L|140:121,1,90,0|8,1:0|0:0,0:0:0:0:
270,13,38584,1,0,1:0:0:0:
459,152,38734,1,8,0:0:0:0:
229,198,38884,1,0,1:0:0:0:
483,40,39034,6,0,L|393:34,1,90,8|0,0:0|1:0,0:0:0:0:
140,121,39334,2,0,L|229:115,1,90,8|0,0:0|1:0,0:0:0:0:
67,56,39634,1,8,0:0:0:0:
39,230,39784,1,0,1:0:0:0:
224,9,39934,1,8,0:0:0:0:
276,238,40084,1,0,1:0:0:0:
492,126,40234,5,12,0:0:0:0:
278,157,40384,1,0,1:0:0:0:
415,324,40534,1,0,1:0:0:0:
454,101,40684,5,12,0:0:0:0:
218,87,40834,1,0,1:0:0:0:
319,301,40984,1,0,1:0:0:0:
283,21,41134,5,12,0:0:0:0:
4,91,41284,1,0,1:0:0:0:
209,317,41434,5,8,3:0:0:0:
229,277,41509,1,8,3:0:0:0:
225,233,41584,1,8,3:0:0:0:
200,196,41659,1,8,3:0:0:0:
159,178,41734,1,0,1:0:0:0:
129,189,41809,1,0,1:0:0:0:
112,216,41884,1,0,1:0:0:0:
120,246,41959,1,0,1:0:0:0:
147,261,42034,1,12,1:2:0:0:
278,157,42184,6,0,L|282:67,1,90,8|0,0:0|0:0,0:0:0:0:
430,33,42484,6,0,P|420:102|455:163,1,144,6|0,0:0|0:0,0:0:0:0:
366,322,42934,2,0,P|380:289|383:254,1,72,8|0,0:0|0:0,0:0:0:0:
206,292,43234,1,0,1:0:0:0:
240,127,43384,1,0,1:0:0:0:
292,265,43534,1,10,0:0:0:0:
139,232,43684,6,0,P|74:259|5:246,1,144,2|0,1:2|1:0,0:0:0:0:
62,80,44134,2,0,L|67:151,1,72,8|0,0:0|0:0,0:0:0:0:
240,127,44434,2,0,L|168:132,1,72,0|0,1:0|1:0,0:0:0:0:
325,45,44734,1,8,0:0:0:0:
388,170,44884,1,0,1:0:0:0:
488,88,45034,6,0,P|488:52|476:18,1,72,0|0,0:0|1:0,0:0:0:0:
325,45,45334,2,0,P|324:80|336:114,1,72,8|0,0:0|0:0,0:0:0:0:
457,213,45634,1,0,1:0:0:0:
312,189,45784,1,0,1:0:0:0:
406,66,45934,1,8,0:0:0:0:
373,254,46084,6,0,P|341:270|305:273,1,72,2|0,1:3|0:0,0:0:0:0:
200,222,46384,1,2,1:2:0:0:
105,333,46534,2,0,B|123:253|82:269|101:190,1,144,8|2,0:0|1:2,0:0:0:0:
3,299,46984,1,2,0:0:0:0:
200,222,47134,1,8,0:0:0:0:
56,215,47284,6,0,L|65:71,1,144,2|0,1:3|1:0,0:0:0:0:
194,188,47734,2,0,L|187:116,1,72,8|0,0:0|0:0,0:0:0:0:
339,206,48034,1,0,1:0:0:0:
350,32,48184,1,0,1:0:0:0:
275,116,48334,1,8,0:0:0:0:
448,178,48484,6,0,L|439:34,1,144,2|0,1:3|1:0,0:0:0:0:
275,116,48934,2,0,P|311:119|345:111,1,72,8|0,0:0|0:0,0:0:0:0:
186,27,49234,2,0,P|150:23|115:31,1,72,0|0,1:0|1:0,0:0:0:0:
44,193,49534,1,8,0:0:0:0:
26,43,49684,1,2,1:3:0:0:
152,176,49834,6,0,L|155:105,1,72,0|0,0:0|1:0,0:0:0:0:
343,39,50134,2,0,L|345:110,1,72,8|0,0:0|0:0,0:0:0:0:
267,294,50434,1,0,1:0:0:0:
246,145,50584,1,0,1:0:0:0:
438,175,50734,1,8,0:0:0:0:
472,323,50884,6,0,L|468:287,1,36,2|0,1:2|0:0,0:0:0:0:
239,261,51184,6,0,L|242:225,1,36,2|0,1:2|0:0,0:0:0:0:
246,145,51334,1,8,0:0:0:0:
438,175,51484,6,0,L|434:139,1,36,2|0,1:2|0:0,0:0:0:0:
178,94,51784,6,0,L|181:58,1,36,2|0,1:2|0:0,0:0:0:0:
95,120,51934,6,0,L|98:84,1,36,8|0,0:0|0:0,0:0:0:0:
15,147,52084,6,0,L|25:3,1,144,6|2,0:0|1:2,0:0:0:0:
230,166,52534,2,0,P|196:179|160:180,1,72,10|2,0:0|0:0,0:0:0:0:
307,41,52834,1,2,1:2:0:0:
506,124,52985,2,0,P|473:110|437:108,1,72,2|10,0:0|0:0,0:0:0:0:
386,315,53284,2,0,L|458:323,1,72,2|0,1:2|0:0,0:0:0:0:
353,201,53584,5,2,1:2:0:0:
277,376,53734,1,10,0:0:0:0:
174,234,53884,1,2,1:2:0:0:
174,234,53959,1,0,1:0:0:0:
174,234,54034,2,0,L|246:242,1,72,0|2,1:0|0:0,0:0:0:0:
78,314,54334,1,8,0:0:0:0:
182,138,54484,1,2,0:0:0:0:
323,286,54634,6,0,P|334:252|332:216,1,72,0|2,0:0|1:2,0:0:0:0:
484,371,54934,2,0,L|412:378,1,72,10|0,0:0|0:0,0:0:0:0:
438,149,55234,1,0,1:2:0:0:
512,245,55384,1,2,1:2:0:0:
332,216,55534,1,10,0:0:0:0:
186,350,55684,6,0,P|221:350|256:343,1,72,4|0,0:0|0:0,0:0:0:0:
134,257,55984,1,2,1:2:0:0:
8,364,56134,2,0,L|13:292,1,72,8|2,0:0|0:0,0:0:0:0:
109,102,56434,1,2,1:2:0:0:
134,257,56584,1,2,0:0:0:0:
0,62,56734,1,8,0:0:0:0:
227,96,56884,6,0,P|293:71|324:9,1,144,4|0,0:0|0:0,0:0:0:0:
364,155,57334,1,10,0:0:0:0:
488,126,57484,2,0,P|489:90|479:55,1,72,2|2,0:0|1:2,0:0:0:0:
356,225,57784,2,0,P|354:189|364:154,1,72,2|8,1:2|0:0,0:0:0:0:
512,384,58084,6,0,P|486:358|454:342,1,72,4|0,0:0|0:0,0:0:0:0:
297,369,58384,1,2,1:2:0:0:
425,211,58534,2,0,L|355:225,1,72,8|2,0:0|0:0,0:0:0:0:
165,261,58834,1,0,1:0:0:0:
276,149,58984,1,2,1:2:0:0:
76,130,59134,1,10,0:0:0:0:
265,13,59284,6,0,P|291:78|276:148,1,144,4|0,0:0|1:0,0:0:0:0:
92,216,59734,1,8,0:0:0:0:
336,272,59884,1,2,0:0:0:0:
326,249,59959,1,2,0:0:0:0:
315,227,60034,2,0,L|243:233,1,72,2|2,1:2|0:0,0:0:0:0:
409,316,60334,1,8,0:0:0:0:
275,148,60484,1,2,0:0:0:0:
180,347,60634,1,8,0:0:0:0:
407,207,60784,6,0,L|413:135,1,72,6|0,0:0|0:0,0:0:0:0:
226,72,61084,2,0,L|220:9,1,62.9999980773926,6|0,0:0|0:0,0:0:0:0:
98,225,61384,2,0,L|102:166,1,58.4999973220826,6|0,0:0|0:0,0:0:0:0:
300,218,61684,6,0,L|407:206,1,107.999996704102,4|0,0:0|0:0,0:0:0:0:
473,336,62134,2,0,L|478:282,1,53.9999983520508,8|0,0:0|0:0,0:0:0:0:
479,129,62434,2,0,P|430:106|376:110,1,107.999996704102,0|0,1:0|1:0,0:0:0:0:
220,36,62884,1,8,0:0:0:0:
240,52,63034,6,0,P|267:51|293:44,1,53.9999983520508,0|4,0:0|3:0,0:0:0:0:
368,217,63334,2,0,L|377:110,1,107.999996704102,8|0,0:0|1:0,0:0:0:0:
317,288,63784,1,8,0:0:0:0:
232,304,63934,1,8,3:0:0:0:
152,271,64084,1,4,3:0:0:0:
0,334,64234,6,0,L|107:342,1,107.999996704102,4|0,0:0|1:0,0:0:0:0:
259,263,64684,2,0,L|151:271,1,107.999996704102,12|0,0:0|0:0,0:0:0:0:
20,167,65134,1,8,0:0:0:0:
109,159,65284,1,0,0:0:0:0:
175,105,65434,5,4,0:0:0:0:
132,113,65584,1,8,3:0:0:0:
90,101,65734,1,4,3:0:0:0:
60,69,65884,1,8,3:0:0:0:
137,26,66034,5,8,3:0:0:0:
224,41,66184,1,8,3:0:0:0:
291,98,66334,1,4,3:0:0:0:
309,184,66484,1,4,3:0:0:0:
405,116,66634,6,0,P|388:166|392:220,1,107.999996704102,4|0,0:0|1:0,0:0:0:0:
507,139,67084,1,8,0:0:0:0:
512,119,67234,6,0,P|510:92|501:66,1,53.9999983520508,4|0,1:2|0:0,0:0:0:0:
315,79,67534,2,0,P|316:52|326:27,1,53.9999983520508,4|0,1:0|0:0,0:0:0:0:
408,76,67834,5,0,1:0:0:0:
227,135,67984,1,8,0:0:0:0:
207,144,68134,2,0,L|260:152,1,53.9999983520508,0|0,1:0|0:0,0:0:0:0:
138,278,68434,2,0,L|118:227,1,53.9999983520508,12|0,0:0|0:0,0:0:0:0:
246,312,68734,2,0,P|277:286|295:250,1,80.9999975280763,0|0,1:0|0:0,0:0:0:0:
294,250,69034,6,0,L|302:357,1,107.999996704102,12|0,0:0|1:0,0:0:0:0:
406,179,69484,2,0,L|397:286,1,107.999996704102,12|0,0:0|0:0,0:0:0:0:
480,107,69934,1,4,1:0:0:0:
377,75,70084,1,0,0:0:0:0:
274,48,70234,6,0,P|326:38|375:59,1,107.999996704102,4|0,0:0|1:0,0:0:0:0:
322,134,70684,1,0,3:0:0:0:
322,134,70759,1,0,3:0:0:0:
322,134,70834,1,8,3:0:0:0:
225,175,70984,1,8,3:0:0:0:
113,176,71134,1,4,3:0:0:0:
4,102,71284,1,4,3:0:0:0:
60,248,71434,6,0,L|47:355,1,107.999996704102,4|0,0:0|1:0,0:0:0:0:
61,366,71884,1,0,0:0:0:0:
171,288,72034,2,0,P|197:290|223:297,1,53.9999983520508,8|0,0:0|0:0,0:0:0:0:
283,242,72334,2,0,P|305:257|323:276,1,53.9999983520508,0|0,1:0|0:0,0:0:0:0:
447,319,72634,6,0,P|454:293|457:267,1,53.9999983520508,0|0,1:0|0:0,0:0:0:0:
323,276,72934,2,0,P|269:272|223:298,1,107.999996704102,0|0,1:0|1:0,0:0:0:0:
63,266,73384,1,8,0:0:0:0:
82,272,73534,2,0,P|83:231|69:193,1,80.9999975280763,0|0,1:0|0:0,0:0:0:0:
69,193,73834,6,0,L|71:139,1,53.9999983520508,4|0,0:0|0:0,0:0:0:0:
180,150,74134,2,0,L|177:96,1,53.9999983520508,0|8,1:0|0:0,0:0:0:0:
266,213,74434,1,0,1:0:0:0:
361,177,74584,1,0,0:0:0:0:
400,74,74734,2,0,P|374:70|347:70,1,53.9999983520508,0|0,1:0|1:0,0:0:0:0:
346,70,74959,1,0,1:0:0:0:
346,70,75034,1,4,0:0:0:0:
458,148,75184,5,0,3:0:0:0:
465,258,75334,1,4,3:0:0:0:
417,344,75484,1,4,3:0:0:0:
329,378,75634,1,8,3:0:0:0:
249,354,75784,1,0,1:0:0:0:
125,372,75934,6,0,P|85:367|50:347,1,80.9999975280763,8|0,0:0|0:0,0:0:0:0:
51,348,76234,6,0,L|43:276,1,72,4|0,0:0|0:0,0:0:0:0:
51,130,76534,1,0,3:0:0:0:
81,248,76684,1,0,3:0:0:0:
164,33,76834,1,0,3:0:0:0:
149,181,76984,1,0,3:0:0:0:
316,7,77134,1,0,3:0:0:0:
244,171,77284,1,0,3:0:0:0:
315,301,77434,6,0,P|317:265|310:229,1,72,0|0,3:0|3:0,0:0:0:0:
470,146,77734,1,0,3:0:0:0:
509,291,77884,1,2,3:2:0:0:
376,170,78034,1,0,3:0:0:0:
385,337,78184,1,2,3:2:0:0:
259,163,78334,1,0,3:0:0:0:
224,352,78484,1,0,3:0:0:0:
129,94,78634,5,4,0:0:0:0:
32,319,78784,1,0,1:0:0:0:
274,285,78934,1,0,1:0:0:0:
205,47,79084,5,4,0:0:0:0:
1,218,79234,1,0,1:0:0:0:
252,308,79384,1,0,1:0:0:0:
72,102,79534,5,4,0:0:0:0:
352,78,79684,1,0,1:0:0:0:
230,333,79834,1,0,1:0:0:0:
205,47,79984,5,4,0:0:0:0:
474,199,80134,1,0,1:0:0:0:
208,358,80284,1,0,1:0:0:0:
113,188,80434,6,2,B|140:191|140:191|158:183|158:183|212:204|265:180,1,157.5,0|0,0:1|0:1,0:1:0:0:
212,109,81034,6,0,P|204:66|218:23,1,90,4|0,1:2|0:0,0:0:0:0:
468,46,81334,2,0,P|476:89|462:132,1,90,8|0,0:0|0:0,0:0:0:0:
265,179,81634,1,2,1:2:0:0:
463,276,81784,1,2,1:2:0:0:
377,82,81934,1,8,0:0:0:0:
291,320,82084,6,0,P|248:329|203:329,1,90,2|0,1:2|0:0,0:0:0:0:
10,279,82384,2,0,P|31:318|62:351,1,90,2|8,1:2|0:0,0:0:0:0:
240,253,82684,1,2,0:0:0:0:
240,253,82759,1,8,0:0:0:0:
240,253,82834,1,0,1:0:0:0:
18,103,82984,1,2,1:2:0:0:
208,177,83134,2,0,B|234:135|225:82|225:82|239:99|243:113,1,135,10|0,0:0|0:0,0:0:0:0:
161,43,83434,6,0,P|243:75|331:61,1,180,4|10,1:2|0:0,0:0:0:0:
477,119,83884,1,0,0:0:0:0:
376,296,84034,2,0,P|360:253|358:209,1,90,2|0,1:2|1:0,0:0:0:0:
496,282,84334,1,8,0:0:0:0:
288,376,84484,6,0,B|195:403|205:347|111:378,1,180,2|2,1:2|1:2,0:0:0:0:
246,295,84934,2,0,P|262:252|264:208,1,90,8|2,0:0|0:0,0:0:0:0:
199,30,85234,1,0,1:0:0:0:
170,188,85384,1,2,1:2:0:0:
319,94,85534,1,8,0:0:0:0:
60,42,85684,1,2,0:0:0:0:
37,51,85759,1,0,0:0:0:0:
18,59,85834,6,0,P|4:101|2:146,1,90,4|0,1:2|0:0,0:0:0:0:
319,94,86134,2,0,P|317:49|302:6,1,90,10|0,0:0|0:0,0:0:0:0:
170,188,86434,1,2,1:2:0:0:
416,92,86584,1,0,1:0:0:0:
199,30,86734,1,8,0:0:0:0:
378,190,86884,6,0,P|422:195|465:184,1,90,2|0,1:2|0:0,0:0:0:0:
370,293,87184,1,2,1:2:0:0:
300,122,87334,1,8,0:0:0:0:
191,271,87484,2,0,P|146:276|103:265,1,90,2|0,0:0|1:0,0:0:0:0:
225,129,87784,1,2,1:2:0:0:
23,180,87934,1,10,0:0:0:0:
104,82,88084,1,2,0:0:0:0:
220,254,88234,6,0,L|211:343,1,90,4|0,1:2|0:0,0:0:0:0:
378,382,88534,2,0,L|370:293,1,90,10|0,0:0|1:0,0:0:0:0:
456,89,88834,1,2,1:2:0:0:
479,265,88984,1,0,1:0:0:0:
332,68,89134,1,10,0:0:0:0:
204,236,89284,6,0,L|213:147,1,90,2|0,1:2|0:0,0:0:0:0:
119,39,89584,1,2,1:2:0:0:
0,198,89734,2,0,P|40:179|85:179,1,90,8|2,0:0|0:0,0:0:0:0:
158,337,90034,1,8,3:0:0:0:
202,345,90109,1,8,3:0:0:0:
246,337,90184,1,8,3:0:0:0:
283,312,90259,1,8,3:0:0:0:
315,263,90334,5,0,1:0:0:0:
368,239,90409,1,0,1:0:0:0:
420,264,90484,1,0,1:0:0:0:
425,322,90559,1,0,1:0:0:0:
374,351,90634,6,0,P|390:266|469:233,1,180,4|10,1:2|0:0,0:0:0:0:
304,155,91084,1,0,0:0:0:0:
427,36,91234,2,0,L|418:125,1,90,0|0,1:0|1:0,0:0:0:0:
253,77,91534,1,8,0:0:0:0:
85,160,91684,6,0,L|174:172,1,90,2|0,0:0|0:0,0:0:0:0:
201,327,91984,2,0,L|112:337,1,90,0|8,1:0|0:0,0:0:0:0:
284,196,92284,1,2,0:0:0:0:
284,196,92359,1,8,0:0:0:0:
284,196,92434,1,0,1:0:0:0:
491,233,92584,1,2,1:2:0:0:
393,58,92734,2,0,B|407:100|387:151|387:151|408:142|417:125,1,135,10|0,0:0|0:0,0:0:0:0:
304,98,93034,6,0,P|260:99|218:115,1,90,4|0,1:2|0:0,0:0:0:0:
4,30,93334,2,0,P|48:30|90:46,1,90,8|0,0:0|0:0,0:0:0:0:
181,269,93634,1,0,1:0:0:0:
34,167,93784,1,0,1:0:0:0:
279,182,93934,1,10,0:0:0:0:
58,358,94084,6,0,B|155:330|140:384|234:349,1,180,6|0,1:2|1:0,0:0:0:0:
449,286,94534,2,0,L|359:275,1,90,10|2,0:0|0:0,0:0:0:0:
236,103,94834,1,2,1:2:0:0:
406,88,94984,1,2,1:2:0:0:
206,235,95134,2,0,L|116:224,1,90,10|0,0:0|0:0,0:0:0:0:
51,6,95434,6,0,P|50:50|35:93,1,90,4|0,1:2|0:0,0:0:0:0:
132,311,95734,2,0,P|117:268|116:223,1,90,10|0,0:0|0:0,0:0:0:0:
341,170,96034,1,2,1:2:0:0:
226,342,96184,1,0,1:0:0:0:
170,143,96334,1,8,0:0:0:0:
461,253,96484,6,0,B|367:234|385:283|283:254,1,180,2|2,1:2|1:2,0:0:0:0:
363,86,96934,2,0,P|341:124|340:169,1,90,8|2,0:0|0:0,0:0:0:0:
469,67,97234,1,0,1:0:0:0:
279,18,97384,1,2,1:2:0:0:
80,151,97534,2,0,L|169:142,1,90,8|2,0:0|0:0,0:0:0:0:
345,318,97834,6,0,P|272:268|184:277,1,180,6|8,1:2|0:0,0:0:0:0:
98,361,98284,1,0,0:0:0:0:
10,210,98434,1,2,1:2:0:0:
158,249,98584,1,0,1:0:0:0:
214,66,98734,1,8,0:0:0:0:
62,100,98884,1,2,0:0:0:0:
263,153,99034,6,0,L|352:144,1,90,2|0,1:2|1:0,0:0:0:0:
472,334,99334,1,8,0:0:0:0:
273,290,99484,1,2,1:2:0:0:
340,61,99634,1,12,0:0:0:0:
436,182,99784,1,4,3:0:0:0:
409,218,99859,1,4,3:0:0:0:
368,235,99934,1,4,3:0:0:0:
324,228,100009,1,4,3:0:0:0:
281,214,100084,1,4,3:0:0:0:
236,221,100159,1,4,3:0:0:0:
203,252,100234,6,0,L|196:341,1,90,6|0,1:2|0:0,0:0:0:0:
162,77,100534,1,8,0:0:0:0:
28,198,100684,2,0,B|52:97|-6:137|28:22,1,180,6|2,1:2|1:2,0:0:0:0:
221,0,101134,1,8,0:0:0:0:
434,102,101284,6,0,P|391:114|347:110,1,90,6|0,1:2|0:0,0:0:0:0:
416,324,101584,1,2,1:2:0:0:
189,270,101734,1,10,0:0:0:0:
444,209,101884,1,2,0:0:0:0:
444,209,101959,1,8,0:0:0:0:
444,209,102034,1,2,1:2:0:0:
287,374,102184,1,2,1:2:0:0:
215,160,102334,2,0,L|227:70,1,90,8|0,0:0|0:0,0:0:0:0:
14,89,102634,6,0,L|104:101,1,90,6|0,1:2|1:0,0:0:0:0:
305,17,102934,1,8,0:0:0:0:
351,242,103084,2,0,P|264:225|188:270,1,180,6|2,1:2|1:2,0:0:0:0:
287,374,103534,1,10,0:0:0:0:
485,194,103684,6,0,B|513:295|463:278|491:371,1,180,6|2,1:2|1:2,0:0:0:0:
350,244,104134,2,0,P|337:200|342:156,1,90,10|2,0:0|1:2,0:0:0:0:
492,55,104434,1,8,3:0:0:0:
450,72,104509,1,8,3:0:0:0:
405,72,104584,1,8,3:0:0:0:
361,60,104659,1,8,3:0:0:0:
331,26,104734,5,0,1:0:0:0:
273,15,104809,1,0,1:0:0:0:
222,45,104884,1,0,1:0:0:0:
204,100,104959,1,0,1:0:0:0:
230,152,105034,6,0,P|227:196|208:236,1,90,6|0,1:2|0:0,0:0:0:0:
53,134,105334,1,8,0:0:0:0:
0,346,105484,2,0,P|76:300|163:312,1,180,6|2,1:2|1:2,0:0:0:0:
320,384,105934,1,8,0:0:0:0:
466,232,106084,6,0,L|474:322,1,90,6|0,1:2|0:0,0:0:0:0:
290,62,106384,1,2,1:2:0:0:
233,303,106534,1,8,0:0:0:0:
387,143,106684,1,2,0:0:0:0:
387,143,106759,1,2,0:0:0:0:
387,143,106834,1,2,1:2:0:0:
166,95,106984,1,2,0:0:0:0:
0,272,107134,2,0,L|89:263,1,90,10|2,0:2|0:0,0:0:0:0:
372,350,107434,6,0,P|316:284|232:302,1,180,6|8,1:2|0:0,0:0:0:0:
89,262,107884,2,0,L|98:351,1,90,6|0,1:2|0:0,0:0:0:0:
216,123,108184,1,2,0:0:0:0:
291,364,108334,1,8,0:0:0:0:
433,214,108484,6,0,P|391:201|346:204,1,90,6|0,1:2|0:0,0:0:0:0:
97,140,108784,1,2,1:2:0:0:
216,123,108934,1,8,0:0:0:0:
386,298,109084,1,2,1:2:0:0:
445,78,109234,1,8,0:0:0:0:
423,38,109309,1,0,1:0:0:0:
381,21,109384,1,0,1:0:0:0:
336,26,109459,1,0,1:0:0:0:
298,50,109534,2,0,L|253:54,1,45,10|0,1:2|0:0,0:0:0:0:
97,140,109684,2,0,L|141:144,1,45,2|0,0:0|0:0,0:0:0:0:
220,291,109834,6,0,L|214:202,1,90,6|0,1:2|0:0,0:0:0:0:
65,27,110134,1,8,0:0:0:0:
43,272,110284,1,2,1:2:0:0:
203,6,110434,1,8,0:0:0:0:
192,307,110584,1,0,1:0:0:0:
343,28,110734,1,10,0:0:0:0:
310,283,110884,1,0,1:0:0:0:
458,6,111034,5,8,0:0:0:0:
482,318,111184,1,2,1:2:0:0:
175,79,111334,1,8,0:0:0:0:
434,46,111484,1,2,1:2:0:0:
321,271,111634,1,8,0:0:0:0:
58,243,111784,1,0,1:0:0:0:
372,140,111934,1,8,0:0:0:0:
35,106,112084,1,0,1:0:0:0:
182,350,112234,6,0,L|189:261,1,90,4|0,1:2|0:0,0:0:0:0:
386,356,112534,1,10,0:0:0:0:
159,364,112684,1,0,1:0:0:0:
415,252,112834,1,10,0:0:0:0:
109,226,112984,1,2,1:2:0:0:
433,131,113134,1,10,0:0:0:0:
94,73,113284,1,2,1:2:0:0:
299,273,113434,5,8,0:0:0:0:
349,0,113584,1,2,1:2:0:0:
124,211,113734,1,10,0:0:0:0:
406,122,113884,1,0,0:0:0:0:
177,330,114034,1,8,0:0:0:0:
254,134,114184,1,2,1:2:0:0:
442,213,114334,1,8,0:0:0:0:
476,183,114409,1,8,0:0:0:0:
492,141,114484,1,8,0:0:0:0:
489,96,114559,1,8,0:0:0:0:
466,55,114634,5,6,1:2:0:0:
307,317,114784,1,0,0:0:0:0:
259,14,114934,1,8,0:0:0:0:
395,384,115084,1,2,1:2:0:0:
353,70,115234,1,8,1:2:0:0:
193,337,115384,1,2,1:2:0:0:
493,225,115534,1,8,0:0:0:0:
176,144,115684,1,2,1:2:0:0:
477,325,115834,5,8,0:0:0:0:
462,72,115984,1,0,1:0:0:0:
290,374,116134,1,8,0:0:0:0:
176,144,116284,1,2,1:2:0:0:
454,299,116434,1,8,0:0:0:0:
444,100,116584,1,0,1:0:0:0:
299,345,116734,1,8,0:0:0:0:
209,160,116884,1,2,0:0:0:0:
78,338,117034,6,0,L|85:293,1,45,6|0,1:2|0:0,0:0:0:0:
68,217,117184,1,8,0:0:0:0:
68,217,117259,1,8,0:0:0:0:
68,217,117334,1,8,0:0:0:0:
299,345,117484,2,0,P|341:358|386:354,1,90,6|0,0:0|0:0,0:0:0:0:
209,160,117784,1,4,1:2:0:0:
444,100,117934,1,2,0:0:0:0:
353,265,118084,6,0,L|362:175,1,90,10|0,0:0|0:0,0:0:0:0:
182,332,118384,2,0,L|174:242,1,90,10|0,0:0|0:0,0:0:0:0:
386,353,118684,1,10,0:0:0:0:
208,159,118834,2,0,P|163:156|120:168,1,90,10|0,0:0|0:0,0:0:0:0:
129,145,127984,5,2,0:3:0:0:
129,145,128059,1,2,0:3:0:0:
129,145,128134,1,2,1:2:0:0:
375,172,128284,1,8,0:0:0:0:
278,63,128434,1,8,3:0:0:0:
249,145,128584,1,4,3:0:0:0:
265,227,128734,1,8,3:0:0:0:
224,301,128884,6,0,B|124:312|124:312|85:292,1,144,6|0,1:2|0:0,0:0:0:0:
169,384,129334,2,0,L|240:376,1,72,0|2,1:0|0:0,0:0:0:0:
142,231,129634,1,10,0:0:0:0:
142,231,129934,5,2,0:3:0:0:
232,136,130084,2,0,P|239:83|219:33,1,108,2|0,1:2|0:0,0:0:0:0:
151,96,130384,1,8,0:0:0:0:
318,77,130534,2,0,L|389:70,1,72,2|0,1:2|0:0,0:0:0:0:
232,136,130834,1,10,0:0:0:0:
232,136,131134,5,2,0:3:0:0:
305,230,131284,2,0,L|411:245,1,108,0|0,1:0|0:0,0:0:0:0:
502,191,131584,1,10,0:0:0:0:
462,362,131734,2,0,L|390:371,1,72,0|2,1:0|0:0,0:0:0:0:
305,230,132034,1,10,0:0:0:0:
305,230,132334,5,2,0:3:0:0:
215,296,132484,2,0,P|179:291|147:274,1,72,2|0,1:2|0:0,0:0:0:0:
31,192,132784,2,0,P|66:187|98:170,1,72,10|0,0:0|0:0,0:0:0:0:
214,216,133084,1,8,3:0:0:0:
232,173,133159,1,8,3:0:0:0:
230,219,133234,5,0,3:0:0:0:
456,159,133459,1,8,3:0:0:0:
225,80,133684,1,4,3:0:0:0:
315,255,133834,6,0,L|323:112,1,144,6|2,1:2|1:2,0:0:0:0:
129,25,134434,2,0,L|135:96,1,72,10|0,0:0|0:0,0:0:0:0:
98,169,134734,1,2,3:0:0:0:
224,79,134884,6,0,P|278:82|322:110,1,108,2|0,1:2|0:0,0:0:0:0:
358,183,135184,1,0,1:0:0:0:
494,126,135334,1,2,1:2:0:0:
314,309,135634,2,0,P|372:270|441:282,1,144,8|2,0:0|0:3,0:0:0:0:
322,110,136084,6,0,L|214:101,1,108,2|0,1:2|0:0,0:0:0:0:
166,169,136384,1,10,0:0:0:0:
23,45,136534,1,2,1:2:0:0:
275,28,136684,1,8,3:0:0:0:
275,28,136759,1,8,3:0:0:0:
275,28,136834,1,8,3:0:0:0:
166,169,136984,1,8,3:0:0:0:
391,235,137134,1,4,3:0:0:0:
265,128,137284,1,4,3:0:0:0:
146,339,137434,5,6,0:0:0:0:
256,192,137509,12,2,138334,0:0:0:0:
85,203,138634,6,0,P|155:194|223:216,1,144,6|0,1:2|1:0,0:0:0:0:
336,272,139084,2,0,B|332:228|355:202|355:202|327:172|323:141,1,144,2|2,0:0|0:0,0:0:0:0:
448,42,139534,1,2,1:2:0:0:
417,131,139684,1,2,0:0:0:0:
274,62,139834,6,0,L|345:52,1,72,0|2,1:0|0:0,0:0:0:0:
171,109,140134,2,0,L|161:37,1,72,2|0,1:2|0:0,0:0:0:0:
127,208,140434,1,2,1:2:0:0:
179,116,140584,1,0,0:0:0:0:
176,307,140734,1,2,1:2:0:0:
136,215,140884,1,0,0:0:0:0:
290,233,141034,6,0,L|146:224,1,144,2|0,1:2|1:0,0:0:0:0:
48,311,141484,2,0,B|60:237|60:237|40:170,1,144,2|2,0:0|0:0,0:0:0:0:
4,22,141934,1,0,1:0:0:0:
91,68,142084,1,2,0:0:0:0:
184,44,142234,6,0,P|218:33|254:33,1,72,0|2,1:0|0:0,0:0:0:0:
411,91,142534,2,0,P|376:80|340:80,1,72,2|2,1:2|0:0,0:0:0:0:
244,219,142834,1,2,1:2:0:0:
257,127,142984,1,0,0:0:0:0:
374,254,143134,1,2,1:2:0:0:
363,164,143284,1,0,0:0:0:0:
315,322,143434,6,0,P|380:293|450:305,1,144,2|0,1:2|1:0,0:0:0:0:
446,154,143884,2,0,B|410:216|410:216|362:163,1,144,2|2,0:0|0:0,0:0:0:0:
299,36,144334,1,0,1:0:0:0:
257,127,144484,1,2,0:0:0:0:
126,49,144634,6,0,L|198:45,1,72,0|2,0:0|0:0,0:0:0:0:
73,131,144934,1,2,1:2:0:0:
162,212,145084,2,0,L|166:140,1,72,2|0,0:0|1:0,0:0:0:0:
54,278,145384,1,2,0:0:0:0:
155,225,145534,1,2,1:2:0:0:
261,320,145684,1,0,0:0:0:0:
351,261,145834,6,0,L|343:189,1,72,2|0,1:2|0:0,0:0:0:0:
407,56,146134,1,0,1:0:0:0:
432,158,146284,2,0,P|361:149|312:99,1,144,2|0,0:0|0:0,0:0:0:0:
191,182,146734,1,0,1:0:0:0:
207,84,146884,1,2,0:0:0:0:
67,97,147034,6,0,P|83:64|105:36,1,72,0|0,1:0|0:0,0:0:0:0:
82,211,147334,1,2,1:2:0:0:
55,106,147484,1,2,0:0:0:0:
52,322,147634,1,0,1:0:0:0:
92,221,147784,1,0,0:0:0:0:
214,350,147934,2,0,L|285:344,1,72,10|0,1:2|0:0,0:0:0:0:
371,191,148234,6,0,L|365:262,1,72,6|0,1:2|0:0,0:0:0:0:
286,128,148534,1,0,1:0:0:0:
378,104,148684,1,2,0:0:0:0:
464,204,148834,2,0,L|469:275,1,72,0|2,1:0|0:0,0:0:0:0:
285,344,149134,1,2,1:2:0:0:
365,262,149284,1,2,0:0:0:0:
225,284,149434,6,0,P|222:248|230:213,1,72,0|2,1:0|0:0,0:0:0:0:
177,66,149734,2,0,L|171:137,1,72,0|2,1:0|0:0,0:0:0:0:
85,275,150034,1,2,1:2:0:0:
78,181,150184,1,0,0:0:0:0:
187,301,150334,1,2,1:2:0:0:
97,268,150484,1,0,0:0:0:0:
230,213,150634,6,0,P|265:214|300:223,1,72,2|0,1:2|0:0,0:0:0:0:
389,323,150934,1,2,1:2:0:0:
318,233,151084,1,2,0:0:0:0:
325,100,151234,2,0,P|359:91|395:89,1,72,0|2,1:0|0:0,0:0:0:0:
512,157,151534,1,2,1:2:0:0:
415,92,151684,1,2,0:0:0:0:
264,145,151834,6,0,L|192:140,1,72,2|2,1:2|0:0,0:0:0:0:
83,21,152134,2,0,L|114:85,1,72,2|0,1:2|0:0,0:0:0:0:
45,250,152434,1,2,1:2:0:0:
106,176,152584,1,8,0:0:0:0:
153,320,152734,1,2,1:2:0:0:
126,188,152884,1,0,0:0:0:0:
278,287,153034,6,0,P|313:288|349:284,1,72,6|0,1:2|0:0,0:0:0:0:
451,154,153334,1,2,1:2:0:0:
430,241,153484,1,2,0:0:0:0:
496,373,153634,2,0,P|497:337|493:301,1,72,0|2,1:0|0:0,0:0:0:0:
336,181,153934,1,0,1:0:0:0:
437,160,154084,1,2,0:0:0:0:
332,56,154234,6,0,P|296:53|260:49,1,72,0|2,1:0|0:0,0:0:0:0:
128,90,154534,2,0,P|105:61|88:30,1,72,2|0,1:2|0:0,0:0:0:0:
208,155,154834,1,0,1:0:0:0:
235,54,154984,1,2,0:0:0:0:
131,225,155134,1,6,1:2:0:0:
108,108,155284,1,0,0:0:0:0:
29,314,155434,6,0,P|64:310|100:310,1,72,4|0,1:2|0:0,0:0:0:0:
306,368,155734,2,0,P|270:371|234:371,1,72,6|0,1:2|0:0,0:0:0:0:
359,151,156034,1,4,1:2:0:0:
386,323,156184,1,0,0:0:0:0:
512,222,156334,1,4,1:2:0:0:
323,248,156484,1,0,0:0:0:0:
100,152,156634,5,4,1:2:0:0:
283,185,156784,1,0,0:0:0:0:
46,309,156934,1,4,1:2:0:0:
195,130,157084,2,0,L|193:166,1,36,8|0,3:0|0:0,0:0:0:0:
126,65,157234,5,8,0:0:0:0:
168,44,157309,1,8,0:0:0:0:
214,44,157384,1,8,0:0:0:0:
254,68,157459,1,8,0:0:0:0:
291,96,157534,1,8,0:0:0:0:
337,102,157609,1,8,0:0:0:0:
380,81,157684,6,0,L|468:95,1,90,6|0,1:2|0:0,0:0:0:0:
322,16,157984,1,0,1:0:0:0:
271,224,158134,2,0,L|359:238,1,90,14|0,0:0|1:0,0:0:0:0:
511,383,158434,5,8,0:0:0:0:
479,344,158509,1,8,0:0:0:0:
431,329,158584,1,8,0:0:0:0:
381,334,158659,1,8,0:0:0:0:
338,359,158734,1,8,0:0:0:0:
288,363,158809,1,8,0:0:0:0:
243,339,158884,6,0,P|237:295|241:251,1,90,6|0,1:2|0:0,0:0:0:0:
149,374,159184,1,0,1:0:0:0:
31,199,159334,2,0,P|37:154|33:110,1,90,14|0,0:0|1:0,0:0:0:0:
179,39,159634,6,0,P|177:61|173:83,1,45,8|8,3:0|3:0,0:0:0:0:
241,249,159784,2,0,P|236:226|226:207,1,45,4|4,3:0|3:0,0:0:0:0:
351,93,159934,2,0,P|329:100|307:105,1,45,0|0,1:0|1:0,0:0:0:0:
512,232,160084,6,0,P|470:214|426:208,1,90,6|0,1:2|0:0,0:0:0:0:
442,320,160384,1,0,1:0:0:0:
241,249,160534,2,0,P|199:266|155:272,1,90,14|0,0:0|1:0,0:0:0:0:
0,204,160834,5,8,0:0:0:0:
20,158,160909,1,8,0:0:0:0:
61,130,160984,1,8,0:0:0:0:
110,126,161059,1,8,0:0:0:0:
158,118,161134,1,8,0:0:0:0:
190,80,161209,1,8,0:0:0:0:
195,30,161284,6,0,L|105:23,1,90,6|0,1:2|0:0,0:0:0:0:
270,100,161584,1,0,1:0:0:0:
82,300,161734,2,0,P|78:255|91:212,1,90,14|0,0:0|1:0,0:0:0:0:
232,313,162034,6,0,P|255:312|277:307,1,45,8|8,0:0|0:0,0:0:0:0:
424,244,162184,2,0,P|403:235|383:223,1,45,0|0,1:0|1:0,0:0:0:0:
239,132,162334,2,0,P|255:116|269:99,1,45,8|0,0:0|1:0,0:0:0:0:
34,134,162484,6,0,P|75:118|120:118,1,90,6|0,1:2|0:0,0:0:0:0:
215,227,162784,1,0,1:0:0:0:
323,31,162934,2,0,P|281:15|237:16,1,90,14|0,0:0|1:0,0:0:0:0:
448,10,163234,5,8,0:0:0:0:
416,59,163309,1,8,0:0:0:0:
409,117,163384,1,8,0:0:0:0:
431,171,163459,1,8,0:0:0:0:
462,220,163534,1,8,0:0:0:0:
468,278,163609,1,8,0:0:0:0:
453,334,163684,6,0,P|409:333|367:316,1,90,6|0,1:2|0:0,0:0:0:0:
292,220,163984,1,0,1:0:0:0:
82,342,164134,2,0,P|43:318|16:283,1,90,14|0,0:0|1:0,0:0:0:0:
99,101,164434,6,0,L|96:56,1,45,8|8,3:0|3:0,0:0:0:0:
192,237,164584,2,0,L|194:192,1,45,8|8,3:0|3:0,0:0:0:0:
315,90,164734,2,0,L|270:92,1,45,4|4,3:0|3:0,0:0:0:0:
430,274,164884,6,0,P|468:250|495:215,1,90,6|0,1:2|0:0,0:0:0:0:
402,361,165184,1,0,1:0:0:0:
192,237,165334,2,0,L|102:247,1,90,14|0,0:0|1:0,0:0:0:0:
347,91,165634,5,8,0:0:0:0:
324,145,165709,1,8,0:0:0:0:
270,168,165784,1,8,0:0:0:0:
217,146,165859,1,8,0:0:0:0:
159,153,165934,1,8,0:0:0:0:
113,189,166009,1,8,0:0:0:0:
102,247,166082,6,0,L|112:336,1,90,6|0,1:2|0:0,0:0:0:0:
28,163,166384,1,0,1:0:0:0:
280,2,166534,2,0,L|270:91,1,90,14|0,0:0|0:0,0:0:0:0:
491,222,166834,6,0,B|424:213|424:213|384:222,1,107.999996704102,6|0,1:2|0:0,0:0:0:0:
221,303,167059,6,0,B|305:318|305:318|352:304,1,135.000005149842,6|0,1:2|0:0,0:0:0:0:
304,141,167284,6,0,L|300:230,1,90,6|0,1:2|0:0,0:0:0:0:
136,384,167434,6,2,B|144:324|110:327|138:251|138:251|114:288|76:283|76:283|31:274|7:229|39:184,1,337.5,0|0,0:0|0:0,0:1:0:0:
133,144,168634,6,0,L|222:152,1,90,4|0,1:2|0:0,0:0:0:0:
447,332,168934,2,0,L|455:243,1,90,8|0,0:0|0:0,0:0:0:0:
287,70,169234,1,2,1:2:0:0:
221,303,169384,1,2,1:2:0:0:
413,117,169534,1,8,0:0:0:0:
187,168,169684,6,0,L|179:79,1,90,2|0,1:2|0:0,0:0:0:0:
469,39,169984,2,0,P|426:24|382:26,1,90,2|8,1:2|0:0,0:0:0:0:
187,168,170284,1,2,0:0:0:0:
187,168,170359,1,8,0:0:0:0:
187,168,170434,1,0,1:0:0:0:
413,117,170584,1,2,1:2:0:0:
217,269,170734,2,0,B|167:277|123:257|123:257|145:288,1,135,10|0,0:0|0:0,0:0:0:0:
187,167,171034,6,0,P|181:123|156:86,1,90,4|0,1:2|0:0,0:0:0:0:
4,363,171334,2,0,P|9:318|34:281,1,90,10|0,0:0|0:0,0:0:0:0:
210,357,171634,1,2,1:2:0:0:
351,262,171784,1,0,1:0:0:0:
113,225,171934,1,8,0:0:0:0:
307,347,172084,6,0,B|400:374|390:318|484:349,1,180,2|2,1:2|1:2,0:0:0:0:
284,186,172534,2,0,P|262:225|252:269,1,90,8|2,0:0|0:0,0:0:0:0:
435,78,172834,1,0,1:0:0:0:
466,262,172984,1,2,1:2:0:0:
337,94,173134,1,8,0:0:0:0:
123,176,173284,1,2,0:0:0:0:
118,201,173359,1,0,0:0:0:0:
114,225,173434,6,0,L|203:214,1,90,4|0,1:2|0:0,0:0:0:0:
484,348,173734,2,0,L|395:337,1,90,10|0,0:0|0:0,0:0:0:0:
231,105,174034,1,2,1:2:0:0:
197,340,174184,1,0,1:0:0:0:
417,239,174334,1,8,0:0:0:0:
114,225,174484,6,0,P|102:181|107:137,1,90,2|0,1:2|0:0,0:0:0:0:
349,57,174784,1,2,1:2:0:0:
95,26,174934,1,8,0:0:0:0:
357,157,175084,2,0,P|368:113|363:69,1,90,2|0,0:0|1:0,0:0:0:0:
228,103,175384,1,2,1:2:0:0:
473,295,175534,1,10,0:0:0:0:
453,162,175684,1,2,0:0:0:0:
173,273,175834,6,0,L|84:264,1,90,4|0,1:2|0:0,0:0:0:0:
347,239,176134,2,0,L|338:328,1,90,10|0,0:0|1:0,0:0:0:0:
228,103,176434,1,2,1:2:0:0:
335,343,176584,1,0,1:0:0:0:
482,124,176734,1,10,0:0:0:0:
240,224,176884,6,0,P|283:235|328:233,1,90,2|0,1:2|0:0,0:0:0:0:
243,29,177184,1,2,1:2:0:0:
17,154,177334,2,0,P|60:142|105:144,1,90,8|2,0:0|0:0,0:0:0:0:
387,106,177634,1,8,3:0:0:0:
315,117,177709,1,8,3:0:0:0:
243,107,177784,1,8,3:0:0:0:
180,71,177859,1,8,3:0:0:0:
211,155,177934,5,0,1:0:0:0:
166,233,178009,1,0,1:0:0:0:
77,248,178084,1,0,1:0:0:0:
6,192,178159,1,0,1:0:0:0:
2,102,178234,6,0,L|13:12,1,90,4|0,1:2|0:0,0:0:0:0:
165,232,178534,2,0,L|177:322,1,90,10|0,0:0|0:0,0:0:0:0:
456,238,178834,1,0,1:0:0:0:
277,194,178984,1,0,1:0:0:0:
475,381,179134,1,8,0:0:0:0:
390,102,179284,6,0,P|346:90|301:92,1,90,2|0,0:0|0:0,0:0:0:0:
176,321,179584,2,0,P|220:323|264:311,1,90,0|8,1:0|0:0,0:0:0:0:
65,96,179884,1,2,0:0:0:0:
65,96,179959,1,8,0:0:0:0:
65,96,180034,1,0,1:0:0:0:
211,238,180184,1,2,1:2:0:0:
390,102,180334,2,0,B|374:144|380:200|380:200|356:171,1,135,10|0,0:0|0:0,0:0:0:0:
479,163,180634,6,0,P|495:204|496:249,1,90,4|0,1:2|0:0,0:0:0:0:
211,238,180934,2,0,P|212:193|228:151,1,90,8|0,0:0|0:0,0:0:0:0:
465,63,181234,1,0,1:0:0:0:
346,329,181384,1,0,1:0:0:0:
277,47,181534,1,10,0:0:0:0:
130,313,181684,6,0,B|95:219|149:234|121:137,1,180,2|0,1:2|1:0,0:0:0:0:
374,11,182134,2,0,P|374:55|363:99,1,90,10|2,0:0|0:0,0:0:0:0:
206,259,182434,1,2,1:2:0:0:
63,68,182584,1,2,1:2:0:0:
332,208,182734,2,0,L|422:197,1,90,10|0,0:0|0:0,0:0:0:0:
174,43,183034,6,0,P|173:87|158:130,1,90,4|0,1:2|0:0,0:0:0:0:
313,384,183334,2,0,P|311:339|296:296,1,90,10|0,0:0|0:0,0:0:0:0:
66,177,183634,1,2,1:2:0:0:
212,358,183784,1,0,1:0:0:0:
291,145,183934,1,8,0:0:0:0:
14,276,184084,6,0,B|116:305|98:256|192:275,1,180,2|2,1:2|1:2,0:0:0:0:
439,174,184534,2,0,P|394:173|350:163,1,90,8|2,0:0|0:0,0:0:0:0:
469,362,184834,1,0,1:0:0:0:
317,241,184984,1,2,1:2:0:0:
156,366,185134,2,0,P|200:365|244:355,1,90,8|2,0:0|0:0,0:0:0:0:
405,89,185434,6,0,P|330:41|242:35,1,180,6|8,1:2|0:0,0:0:0:0:
0,224,185884,1,0,0:0:0:0:
297,155,186034,1,2,1:2:0:0:
42,82,186184,1,0,1:0:0:0:
139,384,186334,1,8,0:0:0:0:
273,180,186484,1,2,0:0:0:0:
498,281,186634,6,0,L|409:290,1,90,2|0,1:2|1:0,0:0:0:0:
241,35,186934,1,8,0:0:0:0:
443,193,187084,1,2,1:2:0:0:
114,130,187234,1,12,0:0:0:0:
32,282,187309,1,0,0:0:0:0:
54,283,187384,1,4,3:0:0:0:
88,279,187459,1,4,3:0:0:0:
121,267,187534,5,4,3:0:0:0:
164,242,187609,1,4,3:0:0:0:
202,183,187684,1,4,3:0:0:0:
199,106,187759,1,4,3:0:0:0:
151,42,187834,6,0,L|61:35,1,90,6|0,1:2|0:0,0:0:0:0:
190,209,188134,1,8,0:0:0:0:
487,56,188284,2,0,B|372:22|412:80|311:56,1,180,6|2,1:2|1:2,0:0:0:0:
106,117,188734,1,8,0:0:0:0:
326,306,188884,6,0,P|330:261|318:218,1,90,6|0,1:2|0:0,0:0:0:0:
107,322,189184,1,2,1:2:0:0:
151,42,189334,1,10,0:0:0:0:
318,218,189484,1,2,0:0:0:0:
318,218,189559,1,8,0:0:0:0:
318,218,189634,1,2,1:2:0:0:
28,185,189784,1,2,1:2:0:0:
340,109,189934,2,0,L|430:121,1,90,8|0,0:0|0:0,0:0:0:0:
117,196,190234,6,0,L|27:184,1,90,6|0,1:2|1:0,0:0:0:0:
151,42,190534,1,8,0:0:0:0:
320,287,190684,2,0,L|339:108,1,180,6|2,1:2|1:2,0:0:0:0:
117,196,191134,1,10,0:0:0:0:
350,373,191284,6,0,P|306:377|264:363,1,90,6|0,1:2|0:0,0:0:0:0:
457,259,191584,1,2,1:2:0:0:
390,36,191734,2,0,P|347:21|303:25,1,90,10|2,0:0|1:2,0:0:0:0:
252,83,191959,1,0,0:0:0:0:
181,96,192034,1,8,3:0:0:0:
111,76,192109,1,8,3:0:0:0:
74,10,192184,6,0,P|94:2|116:1,1,45,8|8,3:0|3:0,0:0:0:0:
292,164,192334,2,0,P|272:172|250:173,1,45,0|0,1:0|1:0,0:0:0:0:
3,182,192484,2,0,P|23:174|45:173,1,45,0|0,1:0|1:0,0:0:0:0:
79,377,192634,6,0,P|55:340|48:296,1,90,6|0,1:2|0:0,0:0:0:0:
111,76,192934,1,8,0:0:0:0:
265,334,193084,2,0,P|270:245|320:171,1,180,6|2,1:2|1:2,0:0:0:0:
512,124,193534,1,8,0:0:0:0:
371,384,193684,6,0,L|363:294,1,90,6|0,1:2|0:0,0:0:0:0:
275,71,193984,1,2,1:2:0:0:
496,263,194134,1,8,0:0:0:0:
419,32,194284,1,2,0:0:0:0:
419,32,194359,1,2,0:0:0:0:
419,32,194434,1,2,1:2:0:0:
247,207,194584,1,2,0:0:0:0:
51,45,194734,2,0,L|140:36,1,90,10|2,0:2|0:0,0:0:0:0:
381,250,195034,6,0,P|329:184|246:206,1,180,6|8,1:2|0:0,0:0:0:0:
51,45,195484,2,0,L|60:134,1,90,6|0,1:2|0:0,0:0:0:0:
150,331,195784,1,2,0:0:0:0:
207,83,195934,1,8,0:0:0:0:
381,250,196084,6,0,L|390:161,1,90,6|0,1:2|0:0,0:0:0:0:
429,357,196384,1,2,1:2:0:0:
150,331,196534,2,0,L|141:242,1,90,10|2,0:0|1:2,0:0:0:0:
308,82,196834,5,10,0:0:0:0:
375,53,196909,1,8,3:0:0:0:
444,74,196984,1,12,3:0:0:0:
487,132,197059,1,12,3:0:0:0:
487,203,197134,2,0,L|442:209,1,45,10|0,0:0|0:0,0:0:0:0:
278,157,197284,2,0,L|233:154,1,45
61,339,197434,6,0,P|104:328|149:330,1,90,4|0,1:2|0:0,0:0:0:0:
401,359,197734,1,10,0:0:0:0:
44,254,197884,1,2,1:2:0:0:
424,244,198034,1,8,0:0:0:0:
44,176,198184,1,0,1:0:0:0:
426,144,198334,1,8,0:0:0:0:
28,69,198484,1,0,1:0:0:0:
431,54,198634,5,8,0:0:0:0:
303,353,198784,1,2,1:2:0:0:
43,84,198934,1,8,0:0:0:0:
186,346,199084,1,2,1:2:0:0:
308,58,199234,1,8,0:0:0:0:
429,343,199384,1,2,1:2:0:0:
174,94,199534,1,8,0:0:0:0:
59,373,199684,1,0,1:0:0:0:
363,305,199834,6,0,L|355:214,1,90,4|0,1:2|0:0,0:0:0:0:
54,174,200134,1,8,0:0:0:0:
288,371,200284,1,2,1:2:0:0:
353,85,200434,1,8,0:0:0:0:
117,333,200584,1,2,1:2:0:0:
188,50,200734,1,8,0:0:0:0:
401,245,200884,1,2,1:2:0:0:
60,149,201034,5,8,0:0:0:0:
353,85,201184,1,2,1:2:0:0:
117,333,201334,1,10,0:0:0:0:
401,245,201484,1,2,1:2:0:0:
188,50,201634,1,10,0:0:0:0:
288,371,201784,1,2,1:2:0:0:
60,149,201934,1,8,0:0:0:0:
38,190,202009,1,8,3:0:0:0:
37,235,202084,1,12,3:0:0:0:
50,278,202159,1,12,3:0:0:0:
77,315,202234,5,4,1:2:0:0:
446,229,202384,1,0,0:0:0:0:
105,57,202534,1,10,0:0:0:0:
390,354,202684,1,2,1:2:0:0:
38,190,202834,1,8,0:0:0:0:
408,90,202984,1,2,1:2:0:0:
168,377,203134,1,10,0:0:0:0:
225,50,203284,1,2,1:2:0:0:
370,348,203434,5,8,0:0:0:0:
319,94,203584,1,0,1:0:0:0:
54,371,203734,1,8,0:0:0:0:
92,68,203884,1,0,1:0:0:0:
378,376,204034,1,8,0:0:0:0:
311,60,204184,1,0,1:0:0:0:
59,339,204334,1,8,0:0:0:0:
91,97,204484,1,2,0:0:0:0:
358,345,204634,6,0,L|364:300,1,45,4|0,1:2|0:0,0:0:0:0:
323,223,204784,1,8,3:0:0:0:
323,223,204859,1,8,3:0:0:0:
323,223,204934,1,8,3:0:0:0:
59,339,205084,2,0,P|101:351|146:347,1,90,4|0,1:2|0:0,0:0:0:0:
377,158,205384,1,4,1:2:0:0:
184,128,205534,1,0,0:0:0:0:
221,384,205684,6,0,L|232:294,1,90,10|0,0:0|0:0,0:0:0:0:
472,125,205984,2,0,L|461:215,1,90,10|0,0:0|0:0,0:0:0:0:
199,17,206284,1,10,0:0:0:0:
321,351,206434,1,10,0:0:0:0:
