osu file format v14

[General]
AudioFilename: audio.mp3
AudioLeadIn: 0
PreviewTime: 167434
Countdown: 0
SampleSet: Soft
StackLeniency: 0.3
Mode: 0
LetterboxInBreaks: 0
WidescreenStoryboard: 1

[Editor]
Bookmarks: 61684,138634,154234,206959
DistanceSpacing: 1.4
BeatDivisor: 4
GridSize: 8
TimelineZoom: 2.5

[Metadata]
Title:Additional Memory
TitleUnicode:アディショナルメモリー
Artist:JIN
ArtistUnicode:じん
Creator:Rizen
Version:Normal
Source:
Tags:Ayano Tateyama 楯山文乃 Kagerou Project Daze Days カゲロウプロジェクト Mekakucity Actors メカクシティアクターズ Shizen no Teki P Teki-P TekiP自然の敵P Vocaloid Hatsune Miku 初音ミク moph YelloJello
BeatmapID:1781247
BeatmapSetID:851797

[Difficulty]
HPDrainRate:3
CircleSize:3
OverallDifficulty:4
ApproachRate:6
SliderMultiplier:1
SliderTickRate:1

[Events]
//Background and Video events
0,0,"cropped-1920-1200-948407.jpg",0,0
Video,0,"sweet60fps.avi"
//Break Periods
2,119284,126934
//Storyboard Layer 0 (Background)
//Storyboard Layer 1 (Fail)
//Storyboard Layer 2 (Pass)
//Storyboard Layer 3 (Foreground)
//Storyboard Layer 4 (Overlay)
//Storyboard Sound Samples

[TimingPoints]
13834,300,4,2,1,50,1,0
13834,-100,4,2,1,50,0,0
22834,-100,4,2,1,70,0,0
23434,-100,4,2,1,70,0,0
42484,-100,4,2,1,50,0,0
52084,-100,4,2,1,60,0,0
61684,-100,4,2,1,50,0,0
76234,-100,4,2,1,60,0,0
80434,-100,4,2,1,50,0,0
81034,-100,4,2,1,70,0,1
119284,-100,4,2,1,50,0,0
127834,-100,4,2,1,50,0,0
157684,-100,4,2,1,70,0,0
167434,-100,4,2,1,50,0,0
168634,-100,4,2,1,70,0,1
206959,-100,4,2,1,70,0,0

[Colours]
Combo1 : 108,63,40
Combo2 : 255,21,21
Combo3 : 75,74,73
Combo4 : 148,148,148

[HitObjects]
478,227,13834,6,0,P|431:210|382:219,1,100,2|2,0:0|0:0,0:0:0:0:
324,287,14434,2,0,L|328:336,1,50,2|2,0:0|0:0,0:0:0:0:
243,366,14884,2,0,L|235:266,1,100,2|2,0:0|0:0,0:0:0:0:
201,235,15334,1,2,0:0:0:0:
118,271,15634,2,0,P|112:246|111:221,1,50,2|2,0:0|0:0,0:0:0:0:
57,149,16084,6,0,L|65:50,1,100,2|2,0:0|0:0,0:0:0:0:
99,20,16534,1,2,0:0:0:0:
181,56,16834,2,0,L|231:54,1,50,2|2,0:0|0:0,0:0:0:0:
316,27,17284,2,0,P|311:76|321:125,1,100,2|2,0:0|0:0,0:0:0:0:
397,172,17884,2,0,P|401:221|391:270,1,100,2|2,0:0|0:0,0:0:0:0:
400,314,18334,1,2,0:3:0:0:
400,314,18484,6,0,L|300:304,1,100,2|2,0:0|0:0,0:0:0:0:
257,318,18934,1,2,0:0:0:0:
172,348,19234,2,0,L|167:298,1,50,2|2,0:0|0:0,0:0:0:0:
202,215,19684,2,0,P|152:212|106:231,1,100,2|2,0:0|0:0,0:0:0:0:
82,269,20134,1,2,0:0:0:0:
29,196,20434,2,0,L|33:146,1,50,2|2,0:0|0:0,0:0:0:0:
92,79,20884,6,0,P|138:96|188:93,1,100,2|2,0:0|0:0,0:0:0:0:
229,75,21334,1,2,0:0:0:0:
310,113,21634,2,0,L|359:107,1,50,2|2,0:0|0:0,0:0:0:0:
443,73,22084,5,4,3:2:0:0:
489,148,22384,2,0,P|509:220|480:287,1,150,8|8,3:0|3:0,0:0:0:0:
441,311,22984,1,8,3:0:0:0:
321,248,23434,6,0,B|210:213|226:282|125:253,1,200,4|8,0:0|0:0,0:0:0:0:
167,173,24334,1,8,0:0:0:0:
97,115,24634,2,0,P|92:65|109:18,1,100,8|8,0:0|0:0,0:0:0:0:
150,1,25084,1,0,1:0:0:0:
150,1,25234,2,0,P|173:45|214:74,1,100,8|8,0:0|0:0,0:0:0:0:
298,45,25834,6,0,P|392:26|459:95,1,200,12|8,0:0|0:0,0:0:0:0:
434,182,26734,1,8,0:0:0:0:
452,270,27034,2,0,L|402:265,1,50,8|0,0:0|1:0,0:0:0:0:
362,288,27334,2,0,L|312:283,1,50,8|0,0:0|1:0,0:0:0:0:
272,304,27634,2,0,P|285:257|281:207,1,100,8|8,0:0|3:2,0:0:0:0:
324,127,28234,6,0,P|244:181|153:151,1,200,4|8,1:2|0:0,0:0:0:0:
103,75,29134,1,8,0:0:0:0:
27,122,29434,2,0,P|22:172|39:218,1,100,8|8,0:0|0:0,0:0:0:0:
69,252,29884,1,0,1:0:0:0:
69,252,30034,2,0,P|111:277|160:282,1,100,8|8,0:0|0:0,0:0:0:0:
218,351,30634,6,0,P|243:309|248:260,1,100,12|8,0:0|0:0,0:0:0:0:
286,235,31084,1,0,1:0:0:0:
286,235,31234,2,0,L|385:245,1,100,8|8,0:0|0:0,0:0:0:0:
460,195,31834,2,0,L|509:189,2,50,8|0|8,0:0|1:0|0:0,0:0:0:0:
389,138,32434,2,0,P|378:90|399:45,1,100,8|4,3:2|3:0,0:0:0:0:
440,26,32884,1,4,3:0:0:0:
440,26,33034,6,0,L|241:46,1,200,4|8,0:0|0:0,0:0:0:0:
153,25,33934,1,8,0:0:0:0:
77,74,34234,2,0,P|65:122|79:169,1,100,8|8,0:0|0:0,0:0:0:0:
107,204,34684,1,0,1:0:0:0:
107,204,34834,2,0,P|120:251|109:299,1,100,8|8,0:0|0:0,0:0:0:0:
187,344,35434,6,0,B|283:278|282:351|374:287,1,200,12|8,0:0|0:0,0:0:0:0:
412,206,36334,1,8,0:0:0:0:
339,152,36634,2,0,L|349:52,1,100,8|8,0:0|0:0,0:0:0:0:
320,17,37084,2,0,L|270:13,1,50,0|8,1:0|0:0,0:0:0:0:
188,51,37534,2,0,L|138:47,1,50,8|8,3:2|3:2,0:0:0:0:
102,19,37834,6,0,P|125:109|45:157,1,200,4|8,1:2|0:0,0:0:0:0:
17,242,38734,1,8,0:0:0:0:
77,308,39034,2,0,P|124:294|173:302,1,100,8|8,0:0|0:0,0:0:0:0:
211,277,39484,1,0,1:0:0:0:
211,277,39634,2,0,P|244:313|260:360,1,100,8|8,0:0|0:0,0:0:0:0:
339,317,40234,6,0,P|400:356|469:336,2,150,12|12|12,0:0|0:0|0:0,0:0:0:0:
415,269,41434,1,8,3:0:0:0:
414,269,41584,2,0,P|429:196|402:127,1,150,8|12,3:0|1:2,0:0:0:0:
363,103,42184,1,8,0:0:0:0:
396,19,42484,6,0,L|246:26,1,150,6|8,0:0|0:0,0:0:0:0:
177,84,43234,1,0,1:0:0:0:
223,161,43534,1,10,0:0:0:0:
222,160,43684,2,0,P|219:234|165:283,1,150,2|8,1:2|0:0,0:0:0:0:
77,264,44434,1,0,1:0:0:0:
48,178,44734,2,0,P|49:154|53:129,1,50,8|0,0:0|1:0,0:0:0:0:
86,98,45034,6,0,P|66:52|74:4,2,100,0|8|0,0:0|0:0|1:0,0:0:0:0:
160,46,45934,1,8,0:0:0:0:
160,46,46084,2,0,L|309:56,1,150,2|8,1:3|0:0,0:0:0:0:
387,101,46834,2,0,L|436:97,2,50,2|2|8,1:2|0:0|0:0,0:0:0:0:
357,134,47284,6,0,P|399:196|400:270,1,150,2|8,1:3|0:0,0:0:0:0:
346,343,48034,1,0,1:0:0:0:
261,313,48334,1,8,0:0:0:0:
261,313,48484,2,0,L|273:154,1,150,2|8,1:3|0:0,0:0:0:0:
226,85,49234,1,0,1:0:0:0:
138,58,49534,2,0,P|114:62|93:76,1,50,8|2,0:0|1:3,0:0:0:0:
50,89,49834,6,0,P|68:134|68:184,1,100,0|8,0:0|0:0,0:0:0:0:
39,269,50434,2,0,P|38:318|57:364,1,100,0|8,1:0|0:0,0:0:0:0:
99,381,50884,1,2,1:2:0:0:
182,346,51184,1,2,1:2:0:0:
270,352,51484,2,0,P|314:376|363:372,1,100,2|2,1:2|1:2,0:0:0:0:
430,313,52084,6,0,L|423:213,1,100,6|2,0:0|1:2,0:0:0:0:
394,178,52534,2,0,L|400:78,1,100,10|2,0:0|1:2,0:0:0:0:
327,26,53134,1,8,0:0:0:0:
327,26,53284,2,0,P|253:29|203:82,1,150,2|10,1:2|0:0,0:0:0:0:
154,156,54034,2,0,P|146:107|118:67,1,100,0|8,1:0|0:0,0:0:0:0:
74,78,54484,1,2,0:0:0:0:
74,78,54634,6,0,P|45:118|38:167,1,100,0|10,0:0|0:0,0:0:0:0:
66,253,55234,1,0,1:2:0:0:
140,302,55534,1,10,0:0:0:0:
139,301,55684,2,0,P|213:294|267:244,1,150,4|8,0:0|0:0,0:0:0:0:
254,155,56434,2,0,L|303:160,2,50,2|2|8,1:2|0:0|0:0,0:0:0:0:
214,132,56884,6,0,P|268:82|341:75,1,150,4|10,0:0|0:0,0:0:0:0:
378,101,57484,2,0,L|387:200,1,100,2|2,0:0|1:2,0:0:0:0:
428,281,58084,2,0,P|373:230|300:224,1,150,4|8,0:0|0:0,0:0:0:0:
280,311,58834,2,0,L|329:318,2,50,0|2|10,1:0|1:2|0:0,0:0:0:0:
239,332,59284,6,0,P|170:322|154:254,1,150,4|8,0:0|0:0,0:0:0:0:
210,183,60034,2,0,L|309:192,2,100,2|8|8,1:2|0:0|0:0,0:0:0:0:
183,146,60784,5,6,0:0:0:0:
96,121,61084,1,6,0:0:0:0:
26,178,61384,1,6,0:0:0:0:
25,268,61684,6,0,P|99:273|151:325,1,150,4|8,0:0|0:0,0:0:0:0:
235,297,62434,2,0,P|261:227|246:155,1,150,0|8,1:0|0:0,0:0:0:0:
229,113,63034,2,0,P|228:63|242:15,1,100,0|8,0:0|0:0,0:0:0:0:
331,0,63634,2,0,P|344:48|344:97,1,100,0|8,1:0|3:0,0:0:0:0:
338,142,64084,1,4,3:0:0:0:
338,141,64234,6,0,P|415:97|458:176,1,200,4|0,0:0|0:0,0:0:0:0:
395,242,65134,2,0,L|396:291,1,50,8|0,0:0|0:0,0:0:0:0:
365,323,65434,2,0,P|325:293|276:285,1,100,4|4,0:0|3:0,0:0:0:0:
195,324,66034,1,8,3:0:0:0:
108,298,66334,1,4,3:0:0:0:
51,226,66634,6,0,P|64:139|148:165,1,200,4|4,0:0|1:2,0:0:0:0:
227,209,67534,2,0,L|276:204,1,50,4|0,1:0|0:0,0:0:0:0:
317,219,67834,2,0,P|304:172|312:123,2,100,0|0|12,1:0|1:0|0:0,0:0:0:0:
390,167,68734,1,0,1:0:0:0:
470,207,69034,6,0,L|453:356,2,150,12|12|4,0:0|0:0|1:0,0:0:0:0:
466,116,70234,2,0,P|479:68|471:19,1,100,4|0,0:0|1:0,0:0:0:0:
393,65,70834,1,8,3:0:0:0:
303,77,71134,1,4,3:0:0:0:
219,42,71434,6,0,L|119:35,1,100,4|0,0:0|1:0,0:0:0:0:
46,88,72034,1,8,0:0:0:0:
57,177,72334,1,0,1:0:0:0:
136,219,72634,2,0,L|235:212,1,100,0|0,1:0|1:0,0:0:0:0:
299,148,73234,1,0,1:0:0:0:
386,167,73534,1,0,1:0:0:0:
455,224,73834,6,0,L|443:323,1,100,4|0,0:0|1:0,0:0:0:0:
462,363,74284,1,8,0:0:0:0:
462,363,74434,2,0,L|511:366,2,50,0|0|0,1:0|0:0|1:0,0:0:0:0:
373,378,75034,2,0,P|354:332|363:283,1,100,4|4,0:0|3:0,0:0:0:0:
295,223,75634,2,0,P|314:177|305:128,1,100,8|8,3:0|0:0,0:0:0:0:
225,87,76234,6,0,L|125:92,1,100,4|0,0:0|3:0,0:0:0:0:
43,54,76834,2,0,L|50:153,1,100,0|0,3:0|3:0,0:0:0:0:
79,188,77284,2,0,P|58:233|61:282,1,100,0|0,3:0|3:0,0:0:0:0:
92,314,77734,1,0,3:0:0:0:
181,307,78034,2,0,P|202:262|199:213,1,100,0|0,3:0|3:0,0:0:0:0:
243,203,78484,1,0,3:0:0:0:
242,203,78634,6,0,P|249:276|295:334,1,150,4|4,0:0|0:0,0:0:0:0:
426,303,79534,2,0,P|472:245|479:171,1,150,4|4,0:0|0:0,0:0:0:0:
403,59,80434,6,2,B|356:73|356:73|308:56|308:56|260:72,1,150,2|0,0:0|0:0,1:0:0:0:
229,104,81034,6,0,P|179:106|130:95,2,100,4|8|2,1:2|0:0|1:2,0:0:0:0:
310,149,81934,1,8,0:0:0:0:
310,149,82084,2,0,L|302:248,1,100,2|2,1:2|1:2,0:0:0:0:
352,323,82684,2,0,L|202:308,1,150,2|10,0:0|0:0,0:0:0:0:
112,299,83434,6,0,P|119:347|152:384,2,100,4|10|2,1:2|0:0|1:2,0:0:0:0:
166,227,84334,1,8,0:0:0:0:
166,227,84484,2,0,L|148:78,1,150,2|8,1:2|0:0,0:0:0:0:
223,28,85234,2,0,P|268:48|317:43,1,100,0|8,1:0|0:0,0:0:0:0:
358,62,85684,1,2,0:0:0:0:
358,62,85834,6,0,P|407:58|452:79,1,100,4|10,1:2|0:0,0:0:0:0:
432,166,86434,2,0,L|332:176,1,100,2|8,1:2|0:0,0:0:0:0:
292,155,86884,1,2,1:2:0:0:
242,230,87184,2,0,L|142:240,1,100,2|2,1:2|0:0,0:0:0:0:
83,172,87784,2,0,L|88:122,2,50,2|10|2,1:2|0:0|0:0,0:0:0:0:
38,178,88234,6,0,P|18:223|25:272,1,100,4|10,1:2|0:0,0:0:0:0:
75,347,88834,2,0,P|120:366|169:359,1,100,2|10,1:2|0:0,0:0:0:0:
213,371,89284,2,0,L|198:221,1,150,2|8,1:2|0:0,0:0:0:0:
135,157,90034,1,8,3:0:0:0:
128,67,90334,2,0,P|139:44|154:24,1,50,0|0,1:0|1:0,0:0:0:0:
196,7,90634,6,0,L|295:19,2,100,4|10|0,1:2|0:0|1:0,0:0:0:0:
224,98,91534,1,8,0:0:0:0:
224,98,91684,2,0,L|323:110,1,100,2|0,0:0|1:0,0:0:0:0:
403,70,92284,2,0,P|378:139|391:212,1,150,2|10,0:0|0:0,0:0:0:0:
445,284,93034,6,0,P|475:323|480:372,2,100,4|8|0,1:2|0:0|1:0,0:0:0:0:
409,311,93784,2,0,L|359:305,1,50,0|10,1:0|0:0,0:0:0:0:
322,330,94084,2,0,P|250:326|221:261,1,150,6|10,1:2|0:0,0:0:0:0:
269,185,94834,1,2,1:2:0:0:
245,97,95134,1,10,0:0:0:0:
163,57,95434,6,0,P|113:52|66:69,1,100,4|10,1:2|0:0,0:0:0:0:
43,156,96034,2,0,P|92:151|139:168,1,100,2|8,1:2|0:0,0:0:0:0:
152,211,96484,2,0,B|174:299|128:283|150:358,1,150,2|8,1:2|0:0,0:0:0:0:
233,324,97234,2,0,P|282:329|325:354,1,100,0|8,1:0|0:0,0:0:0:0:
401,305,97834,6,0,P|394:256|410:209,1,100,6|8,1:2|0:0,0:0:0:0:
439,175,98284,1,0,0:0:0:0:
439,175,98434,2,0,P|447:126|431:79,1,100,2|8,1:2|0:0,0:0:0:0:
358,26,99034,2,0,L|258:34,1,100,2|8,1:2|0:0,0:0:0:0:
217,114,99634,1,12,0:0:0:0:
266,189,99934,2,0,L|256:288,1,100,4|6,3:0|1:2,0:0:0:0:
174,325,100534,5,8,0:0:0:0:
174,325,100684,2,0,P|124:271|51:275,1,150,6|8,1:2|0:0,0:0:0:0:
25,238,101284,2,0,L|34:88,1,150,6|10,1:2|0:0,0:0:0:0:
117,55,102034,1,2,1:2:0:0:
181,118,102334,2,0,L|280:110,1,100,8|6,0:0|1:2,0:0:0:0:
361,69,102934,5,8,0:0:0:0:
361,69,103084,2,0,P|422:108|435:179,1,150,6|10,1:2|0:0,0:0:0:0:
410,217,103684,2,0,L|260:203,1,150,6|10,1:2|0:0,0:0:0:0:
190,259,104434,1,8,3:0:0:0:
243,331,104734,2,0,P|197:350|148:342,1,100,0|6,1:0|1:2,0:0:0:0:
59,355,105334,5,8,0:0:0:0:
58,354,105484,2,0,P|78:283|60:211,1,150,6|8,1:2|0:0,0:0:0:0:
24,183,106084,2,0,L|173:170,1,150,6|8,1:2|0:0,0:0:0:0:
228,99,106834,1,2,1:2:0:0:
306,142,107134,2,0,P|309:191|292:238,1,100,10|6,0:2|1:2,0:0:0:0:
249,317,107734,5,8,0:0:0:0:
248,317,107884,2,0,P|314:284|386:297,1,150,6|8,1:2|0:0,0:0:0:0:
423,323,108484,2,0,L|407:173,1,150,6|8,1:2|0:0,0:0:0:0:
441,90,109234,2,0,P|391:86|345:105,1,100,8|10,0:0|1:2,0:0:0:0:
271,52,109834,6,0,P|221:48|176:68,1,100,6|8,1:2|0:0,0:0:0:0:
136,46,110284,2,0,L|120:196,1,150,2|10,1:2|0:0,0:0:0:0:
82,220,110884,1,2,1:2:0:0:
82,220,111034,2,0,P|101:265|98:315,1,100,8|8,0:0|0:0,0:0:0:0:
163,378,111634,1,8,0:0:0:0:
246,345,111934,2,0,L|250:295,1,50,8|0,0:0|1:0,0:0:0:0:
281,262,112234,6,0,P|335:283|392:269,1,100,4|10,1:2|0:0,0:0:0:0:
402,241,112684,2,0,P|474:235|512:174,1,150,0|10,1:0|0:0,0:0:0:0:
484,138,113284,1,2,1:2:0:0:
484,138,113434,2,0,L|384:148,1,100,8|10,0:0|0:0,0:0:0:0:
326,79,114034,1,8,0:0:0:0:
238,99,114334,2,0,L|188:94,1,50,8|8,0:0|0:0,0:0:0:0:
148,72,114634,6,0,P|152:121|138:168,1,100,6|8,1:2|0:0,0:0:0:0:
100,194,115084,2,0,P|168:221|188:291,1,150,2|8,1:2|0:0,0:0:0:0:
213,326,115684,1,2,1:2:0:0:
213,326,115834,2,0,L|113:332,1,100,8|8,0:0|0:0,0:0:0:0:
37,283,116434,1,8,0:0:0:0:
71,200,116734,2,0,L|69:150,1,50,8|2,0:0|0:0,0:0:0:0:
104,120,117034,6,0,P|150:137|199:132,1,100,4|8,1:2|0:0,0:0:0:0:
235,104,117484,1,6,0:0:0:0:
234,104,117634,2,0,P|308:105|362:154,1,150,0|10,0:0|0:0,0:0:0:0:
388,239,118384,1,10,0:0:0:0:
408,326,118684,2,0,L|402:375,1,50,10|10,0:0|0:0,0:0:0:0:
88,306,127984,6,0,P|137:306|184:289,1,100,2|8,0:3|0:0,0:0:0:0:
267,322,128584,2,0,P|272:297|272:272,1,50,4|8,3:0|3:0,0:0:0:0:
259,229,128884,6,0,B|336:215|326:250|408:234,1,150,6|0,1:2|1:0,0:0:0:0:
491,200,129634,1,10,0:0:0:0:
430,79,130084,2,0,B|353:65|363:100|281:84,1,150,2|2,1:2|1:2,0:0:0:0:
198,50,130834,1,10,0:0:0:0:
69,90,131284,6,0,P|108:152|112:226,1,150,0|0,1:0|1:0,0:0:0:0:
71,307,132034,1,10,0:0:0:0:
202,336,132484,2,0,P|241:274|245:200,1,150,2|0,1:2|0:0,0:0:0:0:
288,120,133234,2,0,L|294:45,2,75,0|8|4,3:0|3:0|3:0,0:0:0:0:
319,152,133834,6,0,P|368:154|417:143,1,100,6|2,1:2|1:2,0:0:0:0:
500,177,134434,1,10,0:0:0:0:
458,305,134884,2,0,P|383:310|312:289,1,150,2|2,1:2|1:2,0:0:0:0:
227,320,135634,1,8,0:0:0:0:
96,287,136084,6,0,P|110:239|105:190,1,100,2|10,1:2|0:0,0:0:0:0:
75,156,136534,1,2,1:2:0:0:
75,156,136684,2,0,L|91:57,1,100,8|8,3:0|3:0,0:0:0:0:
131,36,137134,2,0,L|180:44,1,50,4|4,3:0|3:0,0:0:0:0:
222,27,137434,5,6,0:0:0:0:
446,53,138634,6,0,P|459:100|451:149,1,100,6|0,1:2|1:0,0:0:0:0:
414,176,139084,2,0,P|356:214|384:277,1,150,2|2,0:0|1:2,0:0:0:0:
426,295,139684,2,0,L|276:283,1,150,2|2,0:0|1:2,0:0:0:0:
192,315,140434,1,2,1:2:0:0:
132,247,140734,2,0,P|129:222|133:197,1,50,2|0,1:2|0:0,0:0:0:0:
153,156,141034,6,0,L|53:161,1,100,2|0,1:2|1:0,0:0:0:0:
32,120,141484,2,0,P|98:88|117:18,1,150,2|0,0:0|1:0,0:0:0:0:
156,42,142084,2,0,L|305:50,1,150,2|2,0:0|1:2,0:0:0:0:
393,30,142834,1,2,1:2:0:0:
446,102,143134,2,0,L|443:151,1,50,2|0,1:2|0:0,0:0:0:0:
404,175,143434,6,0,P|355:166|314:137,1,100,2|0,1:2|1:0,0:0:0:0:
311,93,143884,2,0,P|242:121|169:109,1,150,2|0,0:0|1:0,0:0:0:0:
149,69,144484,2,0,P|103:127|34:154,1,150,2|2,0:0|1:2,0:0:0:0:
59,241,145234,2,0,L|158:252,1,100,0|2,1:0|1:2,0:0:0:0:
179,292,145684,1,0,0:0:0:0:
179,291,145834,6,0,P|224:272|273:279,1,100,2|0,1:2|1:0,0:0:0:0:
307,309,146284,2,0,P|342:243|348:169,1,150,2|0,0:0|1:0,0:0:0:0:
385,143,146884,2,0,P|391:215|450:258,1,150,2|2,0:0|1:2,0:0:0:0:
468,170,147634,1,0,1:0:0:0:
485,81,147934,2,0,P|441:56|392:53,1,100,10|6,1:2|1:2,0:0:0:0:
304,32,148534,5,0,1:0:0:0:
304,32,148684,2,0,L|154:43,1,150,2|2,0:0|1:2,0:0:0:0:
129,80,149284,2,0,P|202:78|255:127,1,150,2|0,0:0|1:0,0:0:0:0:
260,217,150034,1,2,1:2:0:0:
182,263,150334,2,0,P|134:253|84:256,1,100,2|2,1:2|1:2,0:0:0:0:
57,345,150934,5,2,1:2:0:0:
57,345,151084,2,0,P|131:337|203:357,1,150,2|2,0:0|1:2,0:0:0:0:
240,331,151684,2,0,P|312:311|386:318,1,150,2|2,0:0|1:2,0:0:0:0:
417,234,152434,1,2,1:2:0:0:
368,156,152734,2,0,P|361:108|382:63,1,100,2|6,1:2|1:2,0:0:0:0:
453,123,153334,5,2,1:2:0:0:
453,123,153484,2,0,L|283:137,1,150,2|0,0:0|1:0,0:0:0:0:
282,175,154084,2,0,L|132:162,1,150,2|2,0:0|1:2,0:0:0:0:
42,166,154834,2,0,P|42:141|51:117,1,50,0|2,1:0|0:0,0:0:0:0:
43,73,155134,2,0,P|56:51|75:36,1,50,6|0,1:2|0:0,0:0:0:0:
116,17,155434,6,0,L|215:25,1,100,4|6,1:2|1:2,0:0:0:0:
303,2,156034,2,0,P|320:48|316:97,1,100,4|4,1:2|1:2,0:0:0:0:
296,138,156484,2,0,P|369:143|425:97,1,150,0|4,0:0|1:2,0:0:0:0:
493,156,157234,6,0,B|488:209|488:209|498:254|498:254|494:304,1,150,8|6,0:0|1:2,0:0:0:0:
370,358,158134,1,14,0:0:0:0:
348,270,158434,2,0,B|351:219|351:219|341:174|341:174|346:121,1,150,8|6,0:0|1:2,0:0:0:0:
233,46,159334,1,14,0:0:0:0:
176,116,159634,6,0,P|152:118|127:118,1,50,8|4,3:0|3:0,0:0:0:0:
83,106,159934,2,0,P|60:96|38:83,1,50,0|6,1:0|1:2,0:0:0:0:
7,214,160534,1,14,0:0:0:0:
61,285,160834,2,0,B|112:288|112:288|157:278|157:278|210:283,1,150,8|6,0:0|1:2,0:0:0:0:
332,338,161734,1,14,0:0:0:0:
414,301,162034,6,0,L|415:251,1,50,8|0,0:0|1:0,0:0:0:0:
397,209,162334,2,0,L|398:159,1,50,8|6,0:0|1:2,0:0:0:0:
304,62,162934,1,14,0:0:0:0:
226,108,163234,2,0,B|173:103|173:103|128:113|128:113|77:110,1,150,8|6,0:0|1:2,0:0:0:0:
29,236,164134,1,14,0:0:0:0:
87,304,164434,6,0,P|111:301|135:293,1,50,8|8,3:0|3:0,0:0:0:0:
174,272,164734,2,0,P|194:257|210:238,1,50,4|6,3:0|1:2,0:0:0:0:
226,108,165334,1,14,0:0:0:0:
310,140,165634,2,0,B|307:191|307:191|317:236|317:236|312:289,1,150,8|6,0:0|1:2,0:0:0:0:
198,361,166534,1,14,0:0:0:0:
141,292,166834,6,0,L|145:217,2,75,6|6|6,1:2|1:2|1:2,0:0:0:0:
102,315,167434,2,2,P|40:192|151:110,1,300,2|0,0:1|0:0,1:0:0:0:
222,165,168634,6,0,P|240:119|232:70,2,100,4|8|2,1:2|0:0|1:2,0:0:0:0:
261,245,169534,1,8,0:0:0:0:
261,245,169684,2,0,L|360:237,1,100,2|2,1:2|1:2,0:0:0:0:
432,181,170284,2,0,P|405:250|414:323,1,150,2|10,0:0|0:0,0:0:0:0:
504,315,171034,6,0,P|516:267|513:217,2,100,4|10|2,1:2|0:0|1:2,0:0:0:0:
426,362,171934,1,8,0:0:0:0:
426,362,172084,2,0,L|277:344,1,150,2|8,1:2|0:0,0:0:0:0:
187,349,172834,2,0,P|207:304|202:255,1,100,0|8,1:0|0:0,0:0:0:0:
183,213,173284,1,2,0:0:0:0:
183,213,173434,6,0,P|154:172|110:151,1,100,4|10,1:2|0:0,0:0:0:0:
157,74,174034,2,0,L|257:84,1,100,2|8,1:2|0:0,0:0:0:0:
295,60,174484,1,2,1:2:0:0:
324,145,174784,2,0,L|314:245,1,100,2|2,1:2|0:0,0:0:0:0:
278,327,175384,2,0,L|328:332,2,50,2|10|2,1:2|0:0|0:0,0:0:0:0:
241,352,175834,6,0,P|192:359|147:338,1,100,4|10,1:2|0:0,0:0:0:0:
126,251,176434,2,0,P|174:258|219:237,1,100,2|10,1:2|0:0,0:0:0:0:
241,198,176884,2,0,P|180:156|106:161,1,150,2|8,1:2|0:0,0:0:0:0:
37,220,177634,1,8,3:0:0:0:
60,306,177934,2,0,L|54:355,1,50,0|0,1:0|1:0,0:0:0:0:
91,382,178234,6,0,L|190:371,1,100,4|10,1:2|0:0,0:0:0:0:
255,309,178834,1,0,1:0:0:0:
318,372,179134,1,8,0:0:0:0:
318,372,179284,2,0,L|417:384,1,100,2|0,0:0|1:0,0:0:0:0:
405,294,179884,2,0,P|422:221|473:168,1,150,2|10,0:0|0:0,0:0:0:0:
401,113,180634,6,0,P|396:63|366:24,1,100,4|8,1:2|0:0,0:0:0:0:
277,39,181234,1,0,1:0:0:0:
277,39,181384,2,0,L|227:33,1,50,0|10,1:0|0:0,0:0:0:0:
192,64,181684,2,0,P|264:68|293:133,1,150,2|10,1:2|0:0,0:0:0:0:
257,215,182434,1,2,1:2:0:0:
173,247,182734,1,10,0:0:0:0:
86,220,183034,6,0,P|69:173|74:123,1,100,4|10,1:2|0:0,0:0:0:0:
17,54,183634,2,0,P|63:37|113:42,1,100,2|8,1:2|0:0,0:0:0:0:
149,69,184084,2,0,B|237:91|221:45|296:67,1,150,2|8,1:2|0:0,0:0:0:0:
380,35,184834,2,0,P|429:40|472:65,1,100,0|8,1:0|0:0,0:0:0:0:
438,148,185434,6,0,L|430:247,1,100,6|8,1:2|0:0,0:0:0:0:
399,280,185884,1,0,0:0:0:0:
399,280,186034,2,0,L|391:379,1,100,2|8,1:2|0:0,0:0:0:0:
303,363,186634,2,0,L|295:263,1,100,2|8,1:2|0:0,0:0:0:0:
210,292,187234,1,12,0:0:0:0:
161,367,187534,2,0,P|111:372|64:358,1,100,4|6,3:0|1:2,0:0:0:0:
34,272,188134,5,8,0:0:0:0:
34,272,188284,2,0,P|88:222|84:149,1,150,6|8,1:2|0:0,0:0:0:0:
59,111,188884,2,0,P|132:115|184:64,1,150,6|10,1:2|0:0,0:0:0:0:
267,29,189634,1,2,1:2:0:0:
352,58,189934,2,0,L|344:157,1,100,8|6,0:0|1:2,0:0:0:0:
395,231,190534,5,8,0:0:0:0:
395,231,190684,2,0,L|245:217,1,150,6|10,1:2|0:0,0:0:0:0:
211,187,191284,2,0,L|61:201,1,150,6|10,1:2|0:0,0:0:0:0:
33,286,192034,1,8,3:0:0:0:
104,340,192334,2,0,P|152:347|198:328,1,100,0|6,1:0|1:2,0:0:0:0:
280,365,192934,5,8,0:0:0:0:
280,365,193084,2,0,P|299:294|363:258,1,150,6|8,1:2|0:0,0:0:0:0:
407,266,193684,2,0,P|388:195|425:132,1,150,6|8,1:2|0:0,0:0:0:0:
473,55,194434,1,2,1:2:0:0:
400,1,194734,2,0,L|300:11,1,100,10|6,0:2|1:2,0:0:0:0:
232,70,195334,5,8,0:0:0:0:
233,70,195484,2,0,P|167:37|95:50,1,150,6|8,1:2|0:0,0:0:0:0:
51,36,196084,2,0,P|64:108|31:174,1,150,6|10,1:2|0:0,0:0:0:0:
81,249,196834,2,0,P|77:299|96:345,1,100,10|10,0:0|0:0,0:0:0:0:
165,286,197434,6,0,P|211:305|260:301,1,100,4|10,1:2|0:0,0:0:0:0:
299,324,197884,2,0,L|315:174,1,150,2|8,1:2|0:0,0:0:0:0:
352,149,198484,1,0,1:0:0:0:
352,149,198634,2,0,P|401:145|447:164,1,100,8|8,0:0|0:0,0:0:0:0:
483,247,199234,1,8,0:0:0:0:
437,324,199534,2,0,L|387:328,1,50,8|0,0:0|1:0,0:0:0:0:
353,297,199834,6,0,P|303:301|258:281,1,100,4|8,1:2|0:0,0:0:0:0:
233,244,200284,2,0,P|249:316|221:384,1,150,2|8,1:2|0:0,0:0:0:0:
176,381,200884,1,2,1:2:0:0:
176,381,201034,2,0,L|76:371,1,100,8|10,0:0|0:0,0:0:0:0:
27,295,201634,1,10,0:0:0:0:
62,212,201934,2,0,L|57:162,1,50,8|12,0:0|3:0,0:0:0:0:
89,130,202234,6,0,P|103:82|99:32,1,100,4|10,1:2|0:0,0:0:0:0:
132,63,202684,2,0,P|202:83|268:50,1,150,2|10,1:2|0:0,0:0:0:0:
304,76,203284,1,2,1:2:0:0:
304,76,203434,2,0,L|298:176,1,100,8|8,0:0|0:0,0:0:0:0:
225,229,204034,1,8,0:0:0:0:
137,207,204334,2,0,L|139:257,1,50,8|2,0:0|0:0,0:0:0:0:
159,297,204634,6,0,P|203:318|253:318,1,100,4|8,1:2|3:0,0:0:0:0:
292,296,205084,1,4,1:2:0:0:
292,296,205234,2,0,P|336:274|386:274,1,100,0|0,0:0|0:0,0:0:0:0:
425,296,205684,1,10,0:0:0:0:
453,210,205984,1,10,0:0:0:0:
409,131,206284,1,10,0:0:0:0:
409,131,206434,1,10,0:0:0:0:
