osu file format v14

[General]
AudioFilename: audio.mp3
AudioLeadIn: 0
PreviewTime: 167434
Countdown: 0
SampleSet: Soft
StackLeniency: 0.3
Mode: 0
LetterboxInBreaks: 0
WidescreenStoryboard: 1

[Editor]
Bookmarks: 61684,138634,206959
DistanceSpacing: 1.1
BeatDivisor: 4
GridSize: 8
TimelineZoom: 2.5

[Metadata]
Title:Additional Memory
TitleUnicode:アディショナルメモリー
Artist:JIN
ArtistUnicode:じん
Creator:Rizen
Version:Extra Collab (wip)
Source:
Tags:Ayano Tateyama 楯山文乃 Kagerou Project Daze Days カゲロウプロジェクト Mekakucity Actors メカクシティアクターズ Shizen no Teki P Teki-P TekiP自然の敵P Vocaloid Hatsune Miku 初音ミク moph YelloJello
BeatmapID:1956712
BeatmapSetID:851797

[Difficulty]
HPDrainRate:5
CircleSize:5
OverallDifficulty:8
ApproachRate:9
SliderMultiplier:1.6
SliderTickRate:1

[Events]
//Background and Video events
0,0,"cropped-1920-1200-948407.jpg",0,0
Video,0,"sweet60fps.avi"
//Break Periods
//Storyboard Layer 0 (Background)
//Storyboard Layer 1 (Fail)
//Storyboard Layer 2 (Pass)
//Storyboard Layer 3 (Foreground)
//Storyboard Layer 4 (Overlay)
//Storyboard Sound Samples

[TimingPoints]
13834,300,4,2,1,50,1,0
13834,-125,4,2,1,50,0,0
22834,-100,4,2,1,70,0,0
23434,-100,4,2,1,70,0,0
42484,-125,4,2,1,50,0,0
52084,-125,4,2,1,60,0,0
61684,-125,4,2,1,50,0,0
76234,-125,4,2,1,60,0,0
80434,-125,4,2,1,50,0,0
81034,-100,4,2,1,70,0,1
119284,-125,4,2,1,50,0,0
127834,-125,4,2,1,50,0,0
157684,-100,4,2,1,70,0,0
167434,-125,4,2,1,50,0,0
168634,-100,4,2,1,70,0,1
206959,-100,4,2,1,70,0,0

[Colours]
Combo1 : 108,63,40
Combo2 : 255,21,21
Combo3 : 75,74,73
Combo4 : 148,148,148

[HitObjects]
68,145,13834,6,0,L|195:152,1,128,2|2,0:0|0:0,0:0:0:0:
206,168,14434,1,2,0:0:0:0:
206,168,14583,2,0,L|142:165,1,64,2|0,0:0|0:0,0:0:0:0:
278,113,14884,6,0,P|294:173|271:232,1,128,2|2,0:0|0:0,0:0:0:0:
372,206,15334,1,2,0:0:0:0:
390,220,15634,1,2,0:0:0:0:
390,220,15784,2,0,L|393:283,1,64,2|0,0:0|0:0,0:0:0:0:
473,177,16084,6,0,P|411:182|365:139,1,128,2|2,0:0|0:0,0:0:0:0:
428,26,16534,1,2,0:0:0:0:
445,43,16834,1,2,0:0:0:0:
445,43,16984,2,0,P|445:74|436:105,1,64,2|0,0:0|0:0,0:0:0:0:
231,70,17284,6,0,L|358:59,1,128,2|2,0:0|0:0,0:0:0:0:
179,158,17884,2,0,L|51:147,1,128,2|2,0:0|0:0,0:0:0:0:
110,242,18334,1,2,0:3:0:0:
110,242,18409,1,2,0:3:0:0:
110,242,18484,6,0,P|125:302|101:360,1,128,2|2,0:0|0:0,0:0:0:0:
15,288,18934,1,2,0:0:0:0:
31,301,19234,1,2,0:0:0:0:
31,301,19384,2,0,P|62:302|93:292,1,64,2|0,0:0|0:0,0:0:0:0:
214,339,19684,6,0,P|274:358|337:351,1,128,2|2,0:0|0:0,0:0:0:0:
431,279,20134,1,2,0:0:0:0:
446,292,20434,1,2,0:0:0:0:
446,292,20584,2,0,P|414:293|383:283,1,64,2|0,0:0|0:0,0:0:0:0:
372,116,20884,6,0,P|425:145|428:206,1,128,2|2,0:0|0:0,0:0:0:0:
307,238,21334,2,0,L|302:174,1,64,2|0,0:0|0:0,0:0:0:0:
326,67,21634,1,2,0:0:0:0:
326,67,21784,2,0,L|330:3,1,64,2|0,0:0|0:0,0:0:0:0:
172,134,22084,6,0,P|157:179|150:227,1,96,4|0,3:2|0:0,0:0:0:0:
174,310,22384,1,8,3:0:0:0:
200,332,22459,1,4,3:0:0:0:
234,340,22534,1,4,3:0:0:0:
269,334,22609,1,4,3:0:0:0:
294,312,22684,1,0,3:0:0:0:
310,281,22759,1,0,3:0:0:0:
307,238,22834,1,8,3:0:0:0:
441,307,22984,1,8,3:0:0:0:
441,307,23434,6,0,L|446:147,1,160,4|8,0:0|0:0,0:0:0:0:
357,90,23884,1,0,1:0:0:0:
258,119,24035,2,0,P|230:90|215:53,1,80,8|0,0:0|1:0,0:0:0:0:
229,213,24334,2,0,L|223:292,1,80,8|0,0:0|0:0,0:0:0:0:
101,375,24634,6,0,B|197:345|168:395|257:376,1,160,8|8,0:0|0:0,0:0:0:0:
312,301,25084,1,0,1:0:0:0:
229,213,25234,2,0,L|223:292,1,80,8|0,0:0|1:0,0:0:0:0:
312,301,25534,1,8,0:0:0:0:
229,213,25684,1,0,1:0:0:0:
103,288,25834,6,0,L|113:128,1,160,12|8,0:0|0:0,0:0:0:0:
194,70,26284,1,0,1:0:0:0:
280,126,26434,2,0,P|319:127|358:119,1,80,8|0,0:0|1:0,0:0:0:0:
506,177,26734,2,0,P|467:185|427:183,1,80,8|0,0:0|0:0,0:0:0:0:
343,285,27034,6,0,L|337:205,1,80,8|0,0:0|1:0,0:0:0:0:
357,118,27334,2,0,L|352:39,1,80,8|0,0:0|1:0,0:0:0:0:
427,183,27634,1,8,0:0:0:0:
351,38,27784,1,0,1:0:0:0:
204,60,27934,1,8,3:2:0:0:
160,63,28009,1,8,3:2:0:0:
126,91,28084,1,8,3:2:0:0:
121,134,28159,1,8,3:2:0:0:
139,173,28234,6,0,B|172:255|120:240|148:329,1,160,4|8,1:2|0:0,0:0:0:0:
220,282,28684,1,0,1:0:0:0:
68,220,28834,2,0,L|-11:229,1,80,8|0,0:0|1:0,0:0:0:0:
139,173,29134,2,0,L|59:182,1,80,8|0,0:0|0:0,0:0:0:0:
193,101,29434,6,0,B|234:147|223:194|223:194|257:194|275:215,1,160,8|8,0:0|0:0,0:0:0:0:
307,301,29884,1,0,1:0:0:0:
148,329,30034,1,8,0:0:0:0:
221,280,30184,1,0,1:0:0:0:
313,312,30334,2,0,L|392:317,1,80,8|0,0:0|1:0,0:0:0:0:
460,299,30634,6,0,L|300:289,1,160,12|8,0:0|0:0,0:0:0:0:
221,280,31084,1,0,1:0:0:0:
191,152,31234,2,0,L|270:147,1,80,8|0,0:0|1:0,0:0:0:0:
213,269,31534,2,0,L|134:264,1,80,8|0,0:0|0:0,0:0:0:0:
40,326,31834,5,8,0:0:0:0:
112,254,31984,1,0,1:0:0:0:
129,153,32134,1,8,0:0:0:0:
98,50,32284,1,0,1:0:0:0:
143,163,32434,1,8,3:2:0:0:
167,173,32509,1,8,3:2:0:0:
202,180,32584,1,8,3:0:0:0:
237,180,32659,1,8,3:0:0:0:
269,170,32734,1,4,3:0:0:0:
304,157,32809,1,4,3:0:0:0:
335,162,32884,1,4,3:0:0:0:
360,183,32959,1,4,3:0:0:0:
376,208,33034,6,0,P|363:275|304:239,1,160,4|8,0:0|0:0,0:0:0:0:
304,239,33484,1,0,1:0:0:0:
386,361,33634,2,0,P|347:367|308:357,1,80,8|0,0:0|1:0,0:0:0:0:
215,302,33934,2,0,P|177:311|138:306,1,80,8|0,0:0|0:0,0:0:0:0:
34,368,34234,6,0,L|41:208,1,160,8|8,0:0|0:0,0:0:0:0:
92,123,34684,1,0,1:0:0:0:
176,157,34834,2,0,P|182:196|174:235,1,80,8|0,0:0|1:0,0:0:0:0:
92,123,35134,1,8,0:0:0:0:
174,235,35284,1,0,1:0:0:0:
230,88,35434,6,0,P|153:75|92:123,1,160,12|8,0:0|0:0,0:0:0:0:
92,122,35884,1,0,1:0:0:0:
174,235,36034,2,0,P|182:196|176:157,1,80,8|0,0:0|1:0,0:0:0:0:
228,10,36334,2,0,P|221:49|229:88,1,80,8|0,0:0|1:0,0:0:0:0:
316,148,36634,6,0,L|395:143,1,80,8|0,0:0|1:0,0:0:0:0:
426,45,36934,2,0,L|346:49,1,80,8|0,0:0|1:0,0:0:0:0:
325,164,37234,2,0,L|404:159,1,80,8|0,0:0|1:0,0:0:0:0:
476,290,37534,1,8,3:2:0:0:
447,272,37609,1,8,3:2:0:0:
410,270,37684,1,8,3:2:0:0:
386,290,37759,1,8,3:2:0:0:
371,317,37834,6,0,B|286:356|297:288|217:321,1,160,4|8,1:2|0:0,0:0:0:0:
217,321,38284,1,0,1:0:0:0:
327,243,38434,2,0,P|330:203|325:164,1,80,8|0,0:0|1:0,0:0:0:0:
217,321,38734,2,0,P|239:288|254:250,1,80,8|0,0:0|1:0,0:0:0:0:
109,337,39034,6,0,P|73:267|0:245,1,160,8|8,0:0|0:0,0:0:0:0:
19,336,39484,1,0,1:0:0:0:
124,354,39634,2,0,P|132:315|129:275,1,80,8|0,0:0|1:0,0:0:0:0:
106,181,39934,1,8,0:0:0:0:
29,120,40084,1,0,1:0:0:0:
189,36,40234,6,0,P|181:75|183:115,1,80,12|0,0:0|1:0,0:0:0:0:
183,115,40534,1,0,1:0:0:0:
359,209,40684,6,0,P|330:182|295:165,1,80,12|0,0:0|1:0,0:0:0:0:
295,165,40984,1,0,1:0:0:0:
131,274,41134,6,0,P|169:264|201:240,1,80,12|0,0:0|1:0,0:0:0:0:
200,240,41434,5,8,3:0:0:0:
213,282,41509,1,8,3:0:0:0:
200,324,41584,1,8,3:0:0:0:
166,352,41659,1,8,3:0:0:0:
122,360,41734,1,0,1:0:0:0:
80,346,41809,1,0,1:0:0:0:
53,310,41884,1,0,1:0:0:0:
47,266,41959,1,0,1:0:0:0:
62,224,42034,1,12,1:2:0:0:
281,328,42184,2,0,L|360:318,1,80,8|0,0:0|0:0,0:0:0:0:
359,316,42484,6,0,P|306:284|286:224,1,128,6|0,0:0|0:0,0:0:0:0:
412,182,42934,2,0,P|380:183|349:173,1,64,8|0,0:0|0:0,0:0:0:0:
310,101,43234,2,0,P|340:92|372:93,1,64,0|0,1:0|1:0,0:0:0:0:
412,182,43534,1,10,0:0:0:0:
493,94,43684,6,0,L|365:82,1,128,2|0,1:2|1:0,0:0:0:0:
243,118,44134,2,0,P|211:119|180:111,1,64,8|0,0:0|0:0,0:0:0:0:
51,172,44434,2,0,P|81:164|113:165,1,64,0|0,1:0|1:0,0:0:0:0:
199,195,44734,1,8,0:0:0:0:
113,165,44884,1,0,1:0:0:0:
34,286,45034,6,0,P|92:261|154:271,1,128,0|8,0:0|0:0,0:0:0:0:
227,346,45484,1,0,0:0:0:0:
320,312,45634,2,0,L|316:248,1,64,0|0,1:0|1:0,0:0:0:0:
418,355,45934,1,8,0:0:0:0:
418,215,46084,6,0,L|425:342,1,128,2|2,1:3|1:2,0:0:0:0:
316,248,46534,1,8,0:0:0:0:
316,248,46834,1,2,1:2:0:0:
386,146,46984,2,0,P|417:140|448:144,1,64,2|8,0:0|0:0,0:0:0:0:
316,248,47284,6,0,L|188:233,1,128,2|0,1:3|1:0,0:0:0:0:
206,381,47734,2,0,P|220:352|225:320,1,64,8|0,0:0|0:0,0:0:0:0:
188,233,48034,2,0,P|185:201|174:171,1,64,0|0,1:0|1:0,0:0:0:0:
100,118,48334,1,8,0:0:0:0:
0,235,48484,6,0,P|60:249|114:218,1,128,2|0,1:3|1:0,0:0:0:0:
212,306,48934,2,0,L|148:310,1,64,8|0,0:0|0:0,0:0:0:0:
6,382,49234,2,0,L|69:377,1,64,0|0,1:0|1:0,0:0:0:0:
148,310,49534,1,8,0:0:0:0:
250,341,49684,1,2,1:3:0:0:
360,315,49834,6,0,L|232:324,1,128,0|8,0:0|0:0,0:0:0:0:
294,239,50284,1,0,0:0:0:0:
437,280,50434,2,0,P|445:310|441:342,1,64,0|0,1:0|1:0,0:0:0:0:
360,315,50734,1,8,0:0:0:0:
426,182,50884,6,0,L|489:188,1,64,2|0,1:2|0:0,0:0:0:0:
499,167,51184,2,0,L|435:173,1,64,2|8,1:2|0:0,0:0:0:0:
226,106,51484,6,0,L|289:112,1,64,2|0,1:2|0:0,0:0:0:0:
299,91,51784,2,0,L|235:97,1,64,2|8,1:2|0:0,0:0:0:0:
249,297,52084,6,0,P|283:245|270:184,1,128,6|2,0:0|1:2,0:0:0:0:
133,226,52534,2,0,P|164:232|196:228,1,64,10|2,0:0|0:0,0:0:0:0:
311,294,52834,2,0,P|279:300|248:297,1,64,2|2,1:2|0:0,0:0:0:0:
196,228,53134,1,10,0:0:0:0:
311,294,53284,6,0,L|438:279,1,128,2|2,1:2|1:2,0:0:0:0:
475,186,53734,2,0,L|411:182,1,64,10|2,0:0|1:2,0:0:0:0:
435,92,54034,2,0,L|498:88,1,64,0|2,1:0|0:0,0:0:0:0:
475,186,54334,1,8,0:0:0:0:
385,212,54484,1,2,0:0:0:0:
312,141,54634,6,0,P|300:78|316:17,1,128,0|10,0:0|0:0,0:0:0:0:
316,17,55084,1,0,0:0:0:0:
209,178,55234,1,0,1:2:0:0:
312,141,55384,1,2,1:2:0:0:
231,71,55534,1,10,0:0:0:0:
131,109,55684,6,0,L|3:95,1,128,4|2,0:0|1:2,0:0:0:0:
56,212,56134,2,0,P|85:201|117:202,1,64,8|2,0:0|0:0,0:0:0:0:
209,178,56434,2,0,P|237:191|259:215,1,64,2|2,1:2|0:0,0:0:0:0:
332,274,56734,1,8,0:0:0:0:
178,384,56884,6,0,B|168:353|168:353|180:257,1,128,4|0,0:0|0:0,0:0:0:0:
259,215,57334,1,10,0:0:0:0:
332,273,57484,2,0,P|345:245|347:213,1,64,2|2,0:0|1:2,0:0:0:0:
455,236,57784,2,0,P|441:207|439:175,1,64,2|8,1:2|0:0,0:0:0:0:
307,61,58084,6,0,L|302:124,1,64,4|0,0:0|0:0,0:0:0:0:
459,89,58384,2,0,L|395:84,1,64,2|8,1:2|0:0,0:0:0:0:
302,124,58684,1,2,0:0:0:0:
201,92,58834,2,0,L|205:28,2,64,0|2|10,1:0|1:2|0:0,0:0:0:0:
94,174,59284,6,0,L|106:46,1,128,4|0,0:0|1:0,0:0:0:0:
106,46,59734,1,8,0:0:0:0:
226,168,59884,1,2,0:0:0:0:
226,168,59959,1,2,0:0:0:0:
226,168,60034,2,0,P|194:172|164:162,1,64,2|2,1:2|0:0,0:0:0:0:
32,179,60334,2,0,P|62:169|93:173,1,64,8|2,0:0|0:0,0:0:0:0:
164,264,60634,5,8,0:0:0:0:
289,129,60784,2,0,L|281:44,1,64,6|0,0:0|0:0,0:0:0:0:
305,200,61084,2,0,L|297:115,1,64,6|0,0:0|0:0,0:0:0:0:
322,277,61384,2,0,L|314:192,1,64,6|0,0:0|0:0,0:0:0:0:
409,349,61684,6,0,B|345:331|354:374|283:350,1,128,4|0,0:0|0:0,0:0:0:0:
198,375,62134,1,8,0:0:0:0:
284,350,62284,1,0,0:0:0:0:
322,277,62434,2,0,L|314:192,1,64,0|0,1:0|0:0,0:0:0:0:
405,184,62734,2,0,L|399:247,1,64,0|8,1:0|0:0,0:0:0:0:
316,213,63034,6,0,P|284:210|254:220,1,64,0|4,0:0|3:0,0:0:0:0:
200,147,63334,2,0,P|164:198|173:260,1,128,8|0,0:0|1:0,0:0:0:0:
254,220,63784,1,8,0:0:0:0:
286,138,63934,2,0,L|282:74,1,64,8|4,3:0|3:0,0:0:0:0:
217,28,64234,6,0,P|278:41|335:13,1,128,4|0,0:0|1:0,0:0:0:0:
404,123,64684,2,0,P|342:109|285:137,1,128,12|0,0:0|0:0,0:0:0:0:
354,196,65134,1,8,0:0:0:0:
285,137,65284,1,0,0:0:0:0:
198,155,65434,5,4,0:0:0:0:
223,218,65584,1,8,3:0:0:0:
211,277,65734,1,4,3:0:0:0:
190,309,65884,1,8,3:0:0:0:
164,328,66034,5,8,3:0:0:0:
153,307,66184,1,8,3:0:0:0:
161,252,66334,1,4,3:0:0:0:
223,218,66484,1,4,3:0:0:0:
301,239,66634,6,0,L|290:366,1,128,4|0,0:0|1:0,0:0:0:0:
401,343,67084,2,0,L|390:215,1,128,8|0,0:0|0:0,0:0:0:0:
346,137,67534,1,4,1:0:0:0:
395,64,67684,1,0,0:0:0:0:
345,136,67834,6,0,P|313:139|283:131,1,64,0|8,1:0|0:0,0:0:0:0:
210,82,68134,6,0,P|179:90|147:87,1,64,0|0,1:0|0:0,0:0:0:0:
75,124,68434,2,0,P|120:81|114:20,1,128,12|0,0:0|1:0,0:0:0:0:
114,20,68884,1,0,0:0:0:0:
140,169,69034,6,0,L|127:296,1,128,12|0,0:0|1:0,0:0:0:0:
209,327,69484,2,0,L|222:200,1,128,12|0,0:0|0:0,0:0:0:0:
304,164,69934,1,4,1:0:0:0:
384,200,70084,1,0,0:0:0:0:
408,289,70234,2,0,P|364:334|302:345,1,128,4|0,0:0|1:0,0:0:0:0:
302,345,70684,1,0,3:0:0:0:
287,264,70834,1,8,3:0:0:0:
304,164,70984,1,8,3:0:0:0:
371,64,71134,1,4,3:0:0:0:
495,0,71284,1,4,3:0:0:0:
371,64,71434,6,0,P|308:72|247:52,1,128,4|0,0:0|1:0,0:0:0:0:
161,24,71884,1,0,0:0:0:0:
34,181,72034,2,0,P|96:189|157:169,1,128,8|0,0:0|1:0,0:0:0:0:
157,169,72634,5,0,1:0:0:0:
138,281,72784,1,0,0:0:0:0:
240,240,72934,2,0,L|303:236,1,64,0|0,1:0|0:0,0:0:0:0:
442,197,73234,1,0,1:0:0:0:
303,235,73384,1,8,0:0:0:0:
397,337,73534,2,0,P|401:306|400:274,1,64,0|0,1:0|0:0,0:0:0:0:
309,149,73834,6,0,B|330:77|296:88|316:23,1,128,4|0,0:0|1:0,0:0:0:0:
393,60,74284,1,8,0:0:0:0:
236,112,74434,1,0,1:0:0:0:
149,101,74584,1,0,0:0:0:0:
97,32,74734,1,0,1:0:0:0:
17,107,74884,1,0,1:0:0:0:
17,107,74959,1,0,1:0:0:0:
17,107,75034,6,0,L|22:170,1,64,4|0,0:0|3:0,0:0:0:0:
94,218,75334,2,0,L|88:281,1,64,4|4,3:0|3:0,0:0:0:0:
35,361,75634,1,8,3:0:0:0:
94,218,75784,1,0,1:0:0:0:
186,337,75934,1,8,0:0:0:0:
186,337,76234,6,0,L|313:351,1,128,4|0,0:0|3:0,0:0:0:0:
413,331,76684,1,0,3:0:0:0:
354,195,76834,2,0,P|347:226|348:258,1,64,0|0,3:0|3:0,0:0:0:0:
413,331,77134,1,0,3:0:0:0:
354,195,77284,6,0,L|226:180,1,128,0|0,3:0|3:0,0:0:0:0:
119,263,77734,1,0,3:0:0:0:
226,180,77884,1,2,3:2:0:0:
97,125,78034,1,0,3:0:0:0:
119,263,78184,1,2,3:2:0:0:
184,77,78334,1,0,3:0:0:0:
135,251,78484,1,0,3:0:0:0:
354,195,78634,6,0,L|348:131,1,64,4|0,0:0|1:0,0:0:0:0:
341,56,78934,1,0,1:0:0:0:
297,252,79084,6,0,L|355:279,1,64,4|0,0:0|1:0,0:0:0:0:
423,310,79384,1,0,1:0:0:0:
274,175,79534,6,0,L|221:211,1,64,4|0,0:0|1:0,0:0:0:0:
160,255,79834,1,0,1:0:0:0:
354,195,79984,5,4,0:0:0:0:
221,210,80134,1,0,1:0:0:0:
87,224,80284,1,0,1:0:0:0:
264,337,80434,6,2,B|243:113,1,224,0|0,0:1|0:1,0:1:0:0:
