osu file format v14

[General]
AudioFilename: audio.mp3
AudioLeadIn: 0
PreviewTime: 81020
Countdown: 0
SampleSet: Soft
StackLeniency: 0.5
Mode: 0
LetterboxInBreaks: 0
WidescreenStoryboard: 1

[Editor]
Bookmarks: 23495,42545,61745,100295,109895
DistanceSpacing: 1
BeatDivisor: 2
GridSize: 4
TimelineZoom: 2.7

[Metadata]
Title:Additional Memory
TitleUnicode:アディショナルメモリー
Artist:JIN
ArtistUnicode:じん
Creator:Nevo
Version:Seto's Normal
Source:
Tags:vocaloid Mekakucity Actors project カゲロウプロジェ自然の敵P Shizen no Teki P Teki-P TekiP じん Blindfold daze カゲロウプロジェクト メカクシティアクターズ hatsune miku kagerou hypercyte seto kousuke reload foxygrandpa
BeatmapID:1776030
BeatmapSetID:848963

[Difficulty]
HPDrainRate:3
CircleSize:3
OverallDifficulty:4
ApproachRate:5
SliderMultiplier:0.899999999999999
SliderTickRate:1

[Events]
//Background and Video events
0,0,"ayanoiscute.jpg",0,0
//Break Periods
//Storyboard Layer 0 (Background)
//Storyboard Layer 1 (Fail)
//Storyboard Layer 2 (Pass)
//Storyboard Layer 3 (Foreground)
//Storyboard Sound Samples

[TimingPoints]
13895,300,4,2,1,70,1,0
14120,-100,4,2,1,5,0,0
14195,-100,4,2,2,50,0,0
14870,-100,4,2,2,5,0,0
14945,-100,4,2,2,50,0,0
16070,-100,4,2,2,5,0,0
16145,-100,4,2,2,50,0,0
18395,-100,4,2,3,55,0,0
18545,-100,4,2,2,60,0,0
19970,-100,4,2,2,5,0,0
20045,-100,4,2,2,60,0,0
20420,-100,4,2,2,5,0,0
20495,-100,4,2,2,60,0,0
22145,-100,4,2,4,65,0,0
22895,-100,4,2,2,75,0,0
23495,-100,4,2,1,70,0,0
24845,-100,4,2,4,70,0,0
24995,-100,4,2,1,70,0,0
26645,-100,4,2,4,70,0,0
26795,-100,4,2,1,70,0,0
26945,-100,4,2,4,70,0,0
27095,-100,4,2,1,70,0,0
29645,-100,4,2,4,70,0,0
29795,-100,4,2,1,70,0,0
32045,-100,4,2,4,70,0,0
32195,-100,4,2,1,70,0,0
32345,-100,4,2,4,70,0,0
32795,-100,4,2,1,70,0,0
34445,-100,4,2,4,70,0,0
34595,-100,4,2,1,70,0,0
35945,-100,4,2,4,70,0,0
36095,-100,4,2,1,70,0,0
36845,-100,4,2,4,70,0,0
36995,-100,4,2,1,70,0,0
39245,-100,4,2,4,70,0,0
39395,-100,4,2,1,70,0,0
39545,-100,4,2,4,70,0,0
39695,-100,4,2,1,70,0,0
40295,-100,4,2,1,75,0,0
41495,-100,4,2,4,70,0,0
41795,-100,4,2,4,60,0,0
42095,-100,4,2,2,80,0,0
42545,-100,4,2,1,60,0,0
52145,-100,4,2,1,65,0,0
59945,-100,4,2,3,65,0,0
60095,-100,4,2,1,65,0,0
60845,-100,4,2,2,65,0,0
61745,-100,4,2,1,70,0,0
63695,-100,4,2,4,70,0,0
64145,-100,4,2,1,70,0,0
65945,-100,4,2,4,70,0,0
66695,-100,4,2,1,70,0,0
70745,-100,4,2,4,70,0,0
70895,-100,4,2,4,70,0,0
71495,-100,4,2,1,70,0,0
75395,-100,4,2,4,70,0,0
75995,-100,4,2,1,70,0,0
76595,-100,4,2,1,40,0,0
76895,-100,4,2,1,45,0,0
77195,-100,4,2,1,50,0,0
77495,-100,4,2,1,55,0,0
77795,-100,4,2,1,60,0,0
78095,-100,4,2,1,65,0,0
78395,-100,4,2,1,70,0,0
78695,-100,4,2,1,75,0,0
80495,-100,4,2,1,70,0,0
81095,-100,4,2,1,70,0,1
90095,-100,4,2,4,70,0,1
90170,-100,4,2,1,70,0,1
90395,-100,4,2,4,70,0,1
90470,-100,4,2,1,70,0,1
90920,-100,4,2,1,5,0,1
90995,-100,4,2,1,70,0,1
91220,-100,4,2,1,5,0,1
91295,-100,4,2,1,70,0,1
104495,-100,4,2,4,70,0,1
105095,-100,4,2,1,70,0,1
105545,-100,4,2,4,70,0,1
105845,-100,4,2,1,70,0,1
107945,-100,4,2,4,70,0,1
108395,-100,4,2,1,70,0,1
109295,-100,4,2,4,70,0,1
109895,-100,4,2,1,85,0,1
118145,-100,4,2,4,70,0,1
118895,-100,4,2,4,70,0,0
118970,-100,4,2,1,5,0,0

[Colours]
Combo1 : 218,218,218
Combo2 : 206,0,0
Combo3 : 96,96,96
Combo4 : 252,96,44

[HitObjects]
101,157,13895,6,0,L|201:186,1,89.9999999999999,4|0,3:2|0:0,0:0:0:0:
227,262,14495,2,0,L|293:237,1,45,0|0,0:0|0:0,0:0:0:0:
334,184,14945,2,0,P|341:136|305:93,1,89.9999999999999,2|0,0:0|0:0,0:0:0:0:
278,85,15395,1,0,0:0:0:0:
188,78,15695,2,0,L|137:77,1,45,0|0,0:0|0:0,0:0:0:0:
77,139,16145,6,0,L|38:248,1,89.9999999999999,2|0,0:0|0:0,0:0:0:0:
31,266,16595,1,0,0:0:0:0:
74,344,16895,2,0,L|157:340,1,45,0|0,0:0|0:0,0:0:0:0:
186,281,17345,2,0,P|232:268|288:296,1,89.9999999999999,2|0,0:0|0:0,0:0:0:0:
344,333,17945,1,2,0:0:0:0:
422,289,18245,1,0,0:0:0:0:
412,199,18545,6,0,L|387:109,1,89.9999999999999,6|0,0:2|0:0,0:0:0:0:
395,68,18995,1,0,0:0:0:0:
322,14,19295,2,0,L|244:6,1,45,0|0,0:0|0:0,0:0:0:0:
194,45,19745,2,0,P|171:91|190:155,1,89.9999999999999,2|0,0:0|0:0,0:0:0:0:
206,159,20195,1,0,0:0:0:0:
281,208,20495,2,0,L|348:206,1,45,0|0,0:0|0:0,0:0:0:0:
405,247,20945,6,0,P|426:285|406:342,1,89.9999999999999,2|0,0:0|0:0,0:0:0:0:
387,363,21395,1,0,0:0:0:0:
297,368,21695,2,0,L|235:354,1,45,0|0,0:0|0:0,0:0:0:0:
194,289,22145,2,0,B|168:231|219:212|185:145,1,135,12|2,3:2|3:0,0:0:0:0:
129,90,22895,1,8,0:0:0:0:
129,90,23045,1,8,0:0:0:0:
260,60,23495,6,0,P|297:86|290:218,1,180,4|10,3:2|3:2,0:0:0:0:
236,274,24395,1,10,3:2:0:0:
147,263,24695,2,0,L|47:207,1,89.9999999999999,10|10,3:2|3:2,0:0:0:0:
23,296,25295,2,0,L|101:339,1,89.9999999999999,10|10,3:2|3:2,0:0:0:0:
141,361,25745,1,0,3:0:0:0:
141,361,25895,6,0,B|202:361|202:361|248:328|248:328|335:328,1,180,4|10,3:2|3:2,0:0:0:0:
400,329,26795,1,10,3:2:0:0:
454,257,27095,2,0,P|456:207|416:160,1,89.9999999999999,10|10,3:2|3:2,0:0:0:0:
378,104,27695,2,0,L|288:116,1,89.9999999999999,10|8,3:2|3:0,0:0:0:0:
250,92,28145,1,8,3:0:0:0:
250,92,28295,6,0,P|202:163|242:248,1,180,4|10,3:2|3:2,0:0:0:0:
323,262,29195,1,10,3:2:0:0:
276,336,29495,2,0,L|194:373,1,89.9999999999999,10|10,3:2|3:2,0:0:0:0:
104,363,30095,2,0,P|73:320|79:264,1,89.9999999999999,10|10,3:2|3:2,0:0:0:0:
136,220,30695,5,4,3:2:0:0:
78,150,30995,1,10,3:2:0:0:
117,69,31295,2,0,L|194:7,1,89.9999999999999,10|10,3:2|3:2,0:0:0:0:
277,11,31895,2,0,L|353:58,1,89.9999999999999,10|10,3:2|3:2,0:0:0:0:
431,103,32495,2,0,P|455:146|441:204,1,89.9999999999999,8|8,3:2|3:2,0:0:0:0:
451,230,32945,1,8,3:2:0:0:
451,230,33095,6,0,B|415:278|415:278|254:256,1,180,4|10,3:2|3:2,0:0:0:0:
214,223,33995,1,10,3:2:0:0:
256,143,34295,2,0,P|259:100|205:49,1,89.9999999999999,10|10,3:2|3:2,0:0:0:0:
144,46,34895,2,0,L|50:48,1,89.9999999999999,10|10,3:2|3:2,0:0:0:0:
20,78,35345,1,0,3:0:0:0:
20,78,35495,6,0,L|39:286,1,180,4|10,3:2|3:2,0:0:0:0:
87,331,36395,1,10,3:2:0:0:
170,294,36695,2,0,L|190:193,1,89.9999999999999,10|10,3:2|3:2,0:0:0:0:
141,128,37295,1,10,3:2:0:0:
186,50,37595,1,8,3:0:0:0:
259,102,37895,6,0,P|337:130|408:71,1,180,4|10,3:2|3:2,0:0:0:0:
478,20,38795,1,10,3:2:0:0:
498,107,39095,2,0,L|486:213,1,89.9999999999999,10|10,3:2|3:2,0:0:0:0:
425,261,39695,2,0,L|413:367,1,89.9999999999999,10|10,3:2|3:2,0:0:0:0:
326,365,40295,6,0,B|284:344|284:344|185:346,1,135,12|12,3:3|3:2,0:0:0:0:
115,237,41195,2,0,B|157:258|157:258|256:256,1,135,12|2,3:1|3:0,0:0:0:0:
359,184,42095,2,0,L|359:127,1,45,12|12,0:1|0:1,0:0:0:0:
311,62,42545,6,0,P|241:29|168:71,1,135,4|10,0:0|0:0,0:0:0:0:
148,126,43295,1,2,3:2:0:0:
224,184,43595,1,10,0:0:0:0:
224,184,43745,2,0,L|370:184,1,135,2|10,0:0|0:0,0:0:0:0:
429,240,44495,2,0,P|447:284|430:333,1,89.9999999999999,2|10,3:2|0:0,0:0:0:0:
400,350,44945,6,0,L|265:350,1,135,2|10,0:0|0:0,0:0:0:0:
196,292,45695,1,0,3:0:0:0:
112,325,45995,1,10,0:0:0:0:
112,325,46145,2,0,P|76:274|103:180,1,135,2|10,0:0|0:0,0:0:0:0:
138,133,46895,2,0,P|143:84|113:43,1,89.9999999999999,2|8,3:2|0:0,0:0:0:0:
86,23,47345,6,0,L|256:22,1,135,2|10,0:0|0:0,0:0:0:0:
308,2,48095,1,2,3:2:0:0:
386,56,48395,1,8,0:0:0:0:
386,56,48545,2,0,P|412:123|380:181,1,135,2|10,0:0|0:0,0:0:0:0:
309,224,49295,2,0,L|236:225,1,45,2|0,3:2|0:0,0:0:0:0:
224,201,49595,1,10,0:0:0:0:
224,201,49745,6,0,P|215:125|135:132,1,135,2|10,0:0|0:0,0:0:0:0:
106,46,50495,2,0,L|13:97,1,89.9999999999999,2|10,3:2|0:0,0:0:0:0:
13,132,50945,1,2,0:0:0:0:
65,205,51245,1,2,0:0:0:0:
20,282,51545,1,2,0:0:0:0:
85,344,51845,2,0,L|200:323,1,89.9999999999999,2|4,0:0|0:0,0:0:0:0:
296,271,52595,5,10,0:0:0:0:
238,201,52895,2,0,P|223:153|264:105,1,89.9999999999999,2|10,3:2|3:2,0:0:0:0:
279,96,53345,2,0,L|391:90,1,89.9999999999999,0|0,0:0|0:0,0:0:0:0:
414,93,53795,1,10,3:2:0:0:
465,166,54095,2,0,L|485:231,1,45,2|0,3:2|0:0,0:0:0:0:
481,254,54395,1,10,3:2:0:0:
416,317,54695,6,0,L|286:313,1,89.9999999999999,2|10,0:0|3:2,0:0:0:0:
290,231,55295,2,0,L|184:227,1,89.9999999999999,2|10,3:2|0:0,0:0:0:0:
156,215,55745,2,0,P|125:149|174:77,1,135,0|8,0:0|0:0,0:0:0:0:
208,28,56495,2,0,L|253:28,1,45,2|2,3:2|3:2,0:0:0:0:
286,58,56795,1,10,3:2:0:0:
286,58,56945,6,0,L|426:52,1,135,4|10,0:0|3:2,0:0:0:0:
490,109,57695,1,2,3:2:0:0:
488,198,57995,1,10,3:2:0:0:
488,198,58145,2,0,P|457:241|367:231,1,135,0|10,0:0|3:2,0:0:0:0:
302,196,58895,2,0,L|184:243,1,89.9999999999999,2|10,3:2|3:2,0:0:0:0:
191,265,59345,6,0,P|181:311|222:362,1,89.9999999999999,4|0,3:2|3:0,0:0:0:0:
240,367,59795,1,10,3:2:0:0:
324,334,60095,2,0,L|425:317,1,89.9999999999999,2|10,3:2|3:2,0:0:0:0:
459,242,60695,1,8,0:0:0:0:
459,242,60845,2,0,L|441:133,1,89.9999999999999,4|4,3:1|3:1,0:0:0:0:
381,88,61445,1,4,3:1:0:0:
311,144,61745,1,4,0:0:0:0:
113,36,62495,6,0,P|62:113|129:199,1,180,2|2,3:2|3:2,0:0:0:0:
206,327,63695,2,0,B|267:351|269:298|360:329,1,135,4|8,0:0|0:0,0:0:0:0:
378,343,64295,6,0,P|351:251|422:168,1,180,4|0,3:0|0:0,0:0:0:0:
458,123,65195,2,0,L|506:135,2,45,12|0|8,3:2|0:0|0:0,0:0:0:0:
392,60,65795,2,0,L|303:74,1,89.9999999999999,0|2,0:0|3:0,0:0:0:0:
218,41,66395,1,8,3:0:0:0:
129,24,66695,6,0,P|142:94|261:126,1,180,4|4,0:1|0:3,0:0:0:0:
320,163,67595,2,0,L|404:156,1,45,10|0,0:0|0:0,0:0:0:0:
408,148,67895,1,0,3:0:0:0:
460,221,68195,1,0,3:0:0:0:
414,298,68495,2,0,L|312:292,1,89.9999999999999,12|12,0:0|0:0,0:0:0:0:
259,355,69095,6,0,P|206:311|116:339,2,135,12|8|10,0:3|0:0|0:0,0:0:0:0:
349,358,70295,2,0,L|476:352,1,89.9999999999999,12|0,0:1|0:0,0:0:0:0:
488,278,70895,1,2,0:3:0:0:
481,188,71195,1,4,0:3:0:0:
469,98,71495,6,0,P|384:52|300:102,1,180,4|10,3:2|3:2,0:0:0:0:
258,154,72395,1,2,3:2:0:0:
190,94,72695,2,0,P|105:48|21:98,1,180,2|2,3:2|3:2,0:0:0:0:
3,163,73595,1,2,3:2:0:0:
38,245,73895,6,0,L|166:273,1,89.9999999999999,12|2,3:1|3:2,0:0:0:0:
192,324,74495,2,0,L|183:378,2,45,2|0|10,3:2|3:0|3:2,0:0:0:0:
269,278,75095,1,2,3:2:0:0:
230,100,75695,2,0,L|339:66,1,89.9999999999999,2|8,3:0|0:0,0:0:0:0:
391,24,76295,5,4,3:2:0:0:
477,50,76595,1,8,3:0:0:0:
484,139,76895,2,0,L|487:252,1,89.9999999999999,8|8,3:0|3:0,0:0:0:0:
489,274,77345,2,0,P|456:296|389:277,1,89.9999999999999,8|8,3:0|3:0,0:0:0:0:
363,299,77795,2,0,L|315:253,1,45,8|8,3:0|3:0,0:0:0:0:
317,224,78095,2,0,P|268:197|207:227,1,89.9999999999999,8|8,3:0|3:0,0:0:0:0:
160,251,78695,5,4,3:1:0:0:
83,139,79145,1,12,3:3:0:0:
195,62,79595,1,12,3:2:0:0:
272,174,80045,1,8,0:0:0:0:
342,289,80495,5,0,0:0:0:0:
462,155,81095,6,0,P|479:100|442:59,1,89.9999999999999,4|10,3:2|3:2,0:0:0:0:
428,47,81545,1,0,0:0:0:0:
428,47,81695,2,0,L|320:39,1,89.9999999999999,2|10,3:2|3:2,0:0:0:0:
296,58,82145,2,0,P|259:36|191:55,1,89.9999999999999,0|0,0:0|0:0,0:0:0:0:
147,101,82745,2,0,B|135:148|135:148|138:187|138:187|121:260,1,135,0|10,0:0|3:2,0:0:0:0:
60,293,83495,6,0,P|96:321|153:319,1,89.9999999999999,2|10,3:2|3:2,0:0:0:0:
210,268,84095,1,2,3:2:0:0:
275,336,84395,1,10,3:2:0:0:
275,336,84545,2,0,B|342:353|348:316|426:336,1,135,0|10,0:0|3:2,0:0:0:0:
495,353,85295,1,2,3:2:0:0:
495,263,85595,2,0,L|442:228,1,45,10|0,3:2|0:0,0:0:0:0:
414,223,85895,6,0,P|430:183|409:128,1,89.9999999999999,4|10,3:1|3:2,0:0:0:0:
362,68,86495,1,2,3:2:0:0:
277,98,86795,1,10,3:2:0:0:
277,98,86945,2,0,L|178:85,1,89.9999999999999,0|0,0:0|0:0,0:0:0:0:
119,27,87545,1,0,0:0:0:0:
39,69,87845,1,0,3:2:0:0:
39,69,87995,2,0,L|21:131,1,45,10|0,3:2|0:0,0:0:0:0:
26,157,88295,6,0,L|54:267,1,89.9999999999999,4|10,3:0|3:2,0:0:0:0:
36,333,88895,1,2,3:2:0:0:
116,373,89195,1,10,3:2:0:0:
116,373,89345,2,0,B|205:373|205:373|247:338,1,135,0|10,0:0|3:2,0:0:0:0:
313,291,90095,1,8,0:0:0:0:
263,215,90395,1,8,0:0:0:0:
322,147,90695,6,0,P|340:101|304:43,1,89.9999999999999,4|10,3:2|3:2,0:0:0:0:
294,34,91145,1,0,0:0:0:0:
294,34,91295,2,0,L|193:39,1,89.9999999999999,2|10,3:2|3:2,0:0:0:0:
159,41,91745,2,0,P|115:88|138:137,1,89.9999999999999,0|0,0:0|0:0,0:0:0:0:
160,187,92345,2,0,L|296:183,1,135,0|10,0:0|3:2,0:0:0:0:
374,141,93095,5,2,3:2:0:0:
447,193,93395,1,10,3:2:0:0:
460,282,93695,2,0,L|435:338,1,45,2|0,3:2|3:0,0:0:0:0:
416,360,93995,1,8,3:0:0:0:
416,360,94145,2,0,P|356:332|284:367,1,135,4|10,0:0|3:2,0:0:0:0:
226,295,94895,1,2,3:2:0:0:
152,346,95195,1,10,3:2:0:0:
65,320,95495,6,0,P|36:290|47:221,1,89.9999999999999,6|10,3:2|3:2,0:0:0:0:
106,190,96095,2,0,P|104:145|74:113,1,89.9999999999999,2|10,3:2|3:2,0:0:0:0:
48,76,96545,2,0,L|148:45,1,89.9999999999999,0|0,0:0|0:0,0:0:0:0:
173,28,96995,1,10,3:2:0:0:
238,90,97295,2,0,P|286:102|344:73,1,89.9999999999999,2|10,3:2|3:2,0:0:0:0:
405,127,97895,6,0,B|420:203|420:203|406:228|406:228|421:310,2,180,2|2|2,3:2|3:2|3:2,0:0:0:0:
351,54,99395,1,10,3:2:0:0:
283,113,99695,2,0,L|180:102,1,89.9999999999999,12|8,0:3|0:0,0:0:0:0:
107,75,100295,6,0,P|100:117|126:163,1,89.9999999999999,4|8,0:0|3:0,0:0:0:0:
152,189,100745,2,0,L|241:198,1,89.9999999999999,4|0,0:3|0:0,0:0:0:0:
284,212,101195,1,8,3:0:0:0:
284,212,101345,2,0,P|315:277|252:341,1,135,4|8,0:1|0:0,0:0:0:0:
201,355,102095,1,0,3:0:0:0:
115,326,102395,1,8,0:0:0:0:
103,236,102695,6,0,L|94:116,1,89.9999999999999,4|8,0:0|3:0,0:0:0:0:
78,105,103145,2,0,P|129:110|180:60,1,89.9999999999999,4|0,0:3|0:0,0:0:0:0:
182,51,103595,1,8,3:0:0:0:
182,51,103745,2,0,L|342:54,1,135,4|8,0:1|0:0,0:0:0:0:
397,13,104495,1,8,3:2:0:0:
482,39,104795,1,2,3:0:0:0:
498,127,105095,6,0,L|486:228,1,89.9999999999999,4|8,3:2|0:0,0:0:0:0:
452,245,105545,2,0,P|486:288|480:346,1,89.9999999999999,4|0,3:2|3:0,0:0:0:0:
470,363,105995,1,8,0:0:0:0:
470,363,106145,2,0,L|298:359,1,135,4|8,3:0|0:0,0:0:0:0:
268,298,106895,1,0,3:0:0:0:
196,352,107195,2,0,L|117:344,1,45,8|0,0:0|0:0,0:0:0:0:
110,327,107495,6,0,P|96:281|129:223,1,89.9999999999999,4|8,3:2|0:0,0:0:0:0:
143,213,107945,2,0,L|254:200,1,89.9999999999999,4|0,3:2|0:0,0:0:0:0:
273,183,108395,1,8,0:0:0:0:
273,183,108545,2,0,P|284:110|238:71,1,135,4|8,0:3|0:0,0:0:0:0:
163,30,109295,2,0,L|48:37,1,89.9999999999999,8|12,3:2|0:2,0:0:0:0:
20,108,109895,6,0,L|16:225,1,89.9999999999999,4|10,3:2|3:2,0:0:0:0:
30,286,110495,1,10,3:2:0:0:
115,315,110795,1,10,3:2:0:0:
176,249,111095,2,0,L|194:156,1,89.9999999999999,10|10,3:2|3:2,0:0:0:0:
283,159,111695,2,0,L|300:247,1,89.9999999999999,10|10,3:2|3:2,0:0:0:0:
371,302,112295,6,0,P|415:306|456:174,1,180,12|10,3:0|3:2,0:0:0:0:
445,116,113195,1,10,3:2:0:0:
415,31,113495,1,10,3:2:0:0:
341,83,113795,1,10,3:2:0:0:
266,32,114095,2,0,L|153:27,1,89.9999999999999,10|8,3:2|3:2,0:0:0:0:
130,27,114545,1,8,3:2:0:0:
130,27,114695,6,0,P|136:74|120:142,1,89.9999999999999,4|10,3:1|3:2,0:0:0:0:
56,168,115295,1,10,3:2:0:0:
41,256,115595,1,10,3:2:0:0:
95,327,115895,2,0,L|198:327,1,89.9999999999999,10|10,3:2|3:2,0:0:0:0:
258,275,116495,1,10,3:2:0:0:
325,334,116795,1,10,3:2:0:0:
325,334,116945,6,0,P|401:331|443:261,1,135,0|8,3:0|3:0,0:0:0:0:
439,199,117695,2,0,L|429:78,1,89.9999999999999,2|10,3:2|3:2,0:0:0:0:
411,68,118145,2,0,P|375:41|305:59,1,89.9999999999999,8|8,3:2|3:2,0:0:0:0:
250,80,118745,1,8,3:2:0:0:
250,80,118895,1,8,3:2:0:0:
