osu file format v14

[General]
AudioFilename: audio.mp3
AudioLeadIn: 0
PreviewTime: 167434
Countdown: 0
SampleSet: Soft
StackLeniency: 0.4
Mode: 0
LetterboxInBreaks: 0
WidescreenStoryboard: 1

[Editor]
Bookmarks: 13826,23426,42484,61684,81034,100234,119284,138634,157684,168634,187834,206884
DistanceSpacing: 0.4
BeatDivisor: 8
GridSize: 4
TimelineZoom: 2.5

[Metadata]
Title:Additional Memory
TitleUnicode:アディショナルメモリー
Artist:JIN
ArtistUnicode:じん
Creator:Ilay
Version:Len's Classic Extra
Source:カゲロウプロジェクト
Tags:Japanese Reload Rock Ayano Tateyama 楯山文乃 Kagerou Project Daze Days Mekakucity Actors メカクシティアクターズ Shizen no Teki P Teki-P TekiP 自然の敵P Vocaloid Hatsune Miku 初音ミク moph Len Fast JRock J-Rock
BeatmapID:3173897
BeatmapSetID:1521890

[Difficulty]
HPDrainRate:5
CircleSize:3.7
OverallDifficulty:9.1
ApproachRate:9.5
SliderMultiplier:1.86
SliderTickRate:1

[Events]
//Background and Video events
Video,0,"video.mp4"
0,0,"BG.jpg",0,0
//Break Periods
2,120684,127459
2,129084,136909
//Storyboard Layer 0 (Background)
//Storyboard Layer 1 (Fail)
//Storyboard Layer 2 (Pass)
//Storyboard Layer 3 (Foreground)
//Storyboard Layer 4 (Overlay)
//Storyboard Sound Samples

[TimingPoints]
13826,300,4,2,1,50,1,0
13826,-111.111111111111,4,2,1,50,0,0
14051,-111.111111111111,4,2,1,5,0,0
14126,-111.111111111111,4,2,1,50,0,0
15101,-111.111111111111,4,2,1,5,0,0
15176,-111.111111111111,4,2,1,50,0,0
16301,-111.111111111111,4,2,1,5,0,0
16376,-111.111111111111,4,2,1,50,0,0
22826,-90.9090909090909,4,2,1,50,0,0
22976,-76.9230769230769,4,2,1,50,0,0
23426,-83.3333333333333,4,2,1,75,0,0
23651,-83.3333333333333,4,2,1,5,0,0
23726,-83.3333333333333,4,2,1,75,0,0
23876,-90.9090909090909,4,2,1,75,0,0
28451,-90.9090909090909,4,2,1,5,0,0
28526,-90.9090909090909,4,2,1,75,0,0
33251,-90.9090909090909,4,2,1,5,0,0
33326,-90.9090909090909,4,2,1,75,0,0
38051,-90.9090909090909,4,2,1,5,0,0
38126,-90.9090909090909,4,2,1,75,0,0
40234,291.26213592233,4,2,1,75,1,0
40234,-90.9090909090909,4,2,1,75,0,0
40670,-100,4,2,1,75,0,0
41107,-111.111111111111,4,2,1,75,0,0
41399,317.460317460317,4,2,1,75,1,0
42034,300,4,2,1,75,1,0
42184,-125,4,2,1,75,0,0
42484,-100,4,2,1,55,0,0
42634,300,4,2,1,55,1,0
50884,-83.3333333333333,4,2,1,65,0,0
52084,-100,4,2,1,65,0,0
58309,-100,4,2,1,5,0,0
58384,-100,4,2,1,65,0,0
59509,-100,4,2,1,5,0,0
59584,-100,4,2,1,65,0,0
59734,-83.3333333333333,4,2,1,65,0,0
61009,-83.3333333333333,4,2,1,5,0,0
61084,-83.3333333333333,4,2,1,65,0,0
61309,-83.3333333333333,4,2,1,5,0,0
61384,-83.3333333333333,4,2,1,65,0,0
61609,-83.3333333333333,4,2,1,5,0,0
61684,-83.3333333333333,4,2,1,55,0,0
62134,-125,4,2,1,55,0,0
76159,-125,4,2,1,5,0,0
76234,-100,4,2,1,65,0,0
80434,-333.333333333333,4,2,1,65,0,0
81034,-83.3333333333333,4,2,1,75,0,1
83359,-83.3333333333333,4,2,1,5,0,1
83434,-83.3333333333333,4,2,1,75,0,1
89059,-83.3333333333333,4,2,1,5,0,1
89134,-83.3333333333333,4,2,1,75,0,1
96259,-83.3333333333333,4,2,1,5,0,1
96334,-83.3333333333333,4,2,1,75,0,1
98434,-83.3333333333333,4,2,1,75,0,1
98659,-83.3333333333333,4,2,1,5,0,1
98734,-83.3333333333333,4,2,1,75,0,1
100459,-83.3333333333333,4,2,1,5,0,1
100534,-83.3333333333333,4,2,1,75,0,1
103309,-83.3333333333333,4,2,1,5,0,1
103384,-83.3333333333333,4,2,1,75,0,1
105259,-83.3333333333333,4,2,1,5,0,1
105334,-83.3333333333333,4,2,1,75,0,1
107659,-83.3333333333333,4,2,1,5,0,1
107734,-83.3333333333333,4,2,1,75,0,1
108109,-83.3333333333333,4,2,1,5,0,1
108184,-83.3333333333333,4,2,1,75,0,1
109834,-76.9230769230769,4,2,1,75,0,1
119284,-76.9230769230769,4,2,1,60,0,0
120484,-76.9230769230769,4,2,1,5,0,0
127984,-76.9230769230769,4,2,1,45,0,0
128134,-100,4,2,1,45,0,0
138634,-100,4,2,1,55,0,0
147934,-90.9090909090909,4,2,1,55,0,0
148234,-90.9090909090909,4,2,1,60,0,0
150859,-90.9090909090909,4,2,1,5,0,0
150934,-90.9090909090909,4,2,1,60,0,0
157684,-83.3333333333333,4,2,1,65,0,0
159109,-83.3333333333333,4,2,1,5,0,0
159184,-83.3333333333333,4,2,1,65,0,0
160309,-83.3333333333333,4,2,1,5,0,0
160384,-83.3333333333333,4,2,1,65,0,0
161509,-83.3333333333333,4,2,1,5,0,0
161584,-83.3333333333333,4,2,1,65,0,0
166834,-66.6666666666667,4,2,1,65,0,0
167059,-66.6666666666667,4,2,1,70,0,0
167284,-66.6666666666667,4,2,1,75,0,0
167434,-714.285714285714,4,2,1,55,0,0
168559,-714.285714285714,4,2,1,5,0,0
168634,-76.9230769230769,4,2,1,75,0,1
168859,-76.9230769230769,4,2,1,5,0,1
168934,-76.9230769230769,4,2,1,75,0,1
170959,-76.9230769230769,4,2,1,5,0,1
171034,-76.9230769230769,4,2,1,75,0,1
171259,-76.9230769230769,4,2,1,5,0,1
171334,-76.9230769230769,4,2,1,75,0,1
173959,-76.9230769230769,4,2,1,5,0,1
174034,-76.9230769230769,4,2,1,75,0,1
174259,-76.9230769230769,4,2,1,5,0,1
174334,-76.9230769230769,4,2,1,75,0,1
176059,-76.9230769230769,4,2,1,5,0,1
176134,-76.9230769230769,4,2,1,75,0,1
178459,-76.9230769230769,4,2,1,5,0,1
178534,-76.9230769230769,4,2,1,75,0,1
180859,-76.9230769230769,4,2,1,5,0,1
180934,-76.9230769230769,4,2,1,75,0,1
183559,-76.9230769230769,4,2,1,5,0,1
183634,-76.9230769230769,4,2,1,75,0,1
186034,-76.9230769230769,4,2,1,75,0,1
186259,-76.9230769230769,4,2,1,5,0,1
186334,-76.9230769230769,4,2,1,75,0,1
188059,-76.9230769230769,4,2,1,5,0,1
188134,-76.9230769230769,4,2,1,75,0,1
190909,-76.9230769230769,4,2,1,5,0,1
190984,-76.9230769230769,4,2,1,75,0,1
192859,-76.9230769230769,4,2,1,5,0,1
192934,-76.9230769230769,4,2,1,75,0,1
195259,-76.9230769230769,4,2,1,5,0,1
195334,-76.9230769230769,4,2,1,75,0,1
195709,-76.9230769230769,4,2,1,5,0,1
195784,-76.9230769230769,4,2,1,75,0,1
197434,-71.4285714285714,4,2,1,75,0,1
206884,-71.4285714285714,4,2,1,45,0,0

[Colours]
Combo1 : 212,212,212
Combo2 : 221,0,0
Combo3 : 126,125,122
Combo4 : 250,78,155

[HitObjects]
256,192,12626,12,0,13676,2:0:0:0:
357,26,13826,6,0,B|375:10|375:10|363:142,1,125.55,2|0,2:0|2:0,2:0:0:0:
296,170,14126,2,0,B|275:135|275:135|287:86,1,83.7000000000001,2|0,2:0|2:0,2:0:0:0:
472,74,14426,1,2,2:0:0:0:
450,260,14576,2,0,P|392:268|342:282,1,83.7000000000001,2|0,2:1|2:0,2:0:0:0:
192,383,14876,6,0,P|183:295|171:239,1,125.55,2|0,2:0|2:0,2:0:0:0:
103,214,15176,2,0,B|80:250|80:250|106:300,1,83.7000000000001,2|2,2:0|2:0,2:0:0:0:
245,178,15476,1,0,2:0:0:0:
58,103,15626,2,0,P|53:47|44:5,1,83.7000000000001,2|2,2:0|2:1,2:0:0:0:
47,20,16076,6,0,B|39:-4|39:-4|162:35,1,125.55,2|0,2:0|2:0,2:0:0:0:
184,88,16376,2,0,P|233:78|281:74,1,83.7000000000001,2|2,2:0|2:0,2:0:0:0:
390,9,16676,1,0,2:0:0:0:
416,201,16826,1,2,2:0:0:0:
356,102,16976,2,0,P|397:106|438:115,1,83.7000000000001,2|0,2:1|2:0,2:0:0:0:
291,263,17276,6,0,P|249:269|151:299,1,125.55,2|0,2:0|2:0,2:0:0:0:
122,364,17576,2,0,P|77:349|15:343,1,83.7000000000001,2|0,2:0|2:0,2:0:0:0:
168,193,17876,2,0,P|117:149|92:123,1,83.7000000000001,2|0,2:0|2:0,2:0:0:0:
306,119,18176,2,0,P|289:68|280:15,1,83.7000000000001,2|0,2:0|2:0,2:0:0:0:
294,13,18401,1,0,2:0:0:0:
296,6,18476,1,6,2:0:0:0:
256,192,18551,12,12,22076,2:0:0:0:
423,185,22376,5,10,2:0:0:0:
371,215,22451,1,4,3:0:0:0:
320,203,22526,1,4,3:0:0:0:
303,155,22601,1,8,3:0:0:0:
313,118,22676,1,8,3:0:0:0:
335,97,22751,1,8,3:0:0:0:
354,93,22826,2,0,B|360:105|360:105|355:155,1,51.15,10|0,2:0|2:0,2:0:0:0:
206,246,22976,2,0,P|168:252|116:269,1,60.45,10|0,2:0|2:0,2:0:0:0:
146,257,23426,6,0,B|137:242|119:227|119:227|270:277,1,167.4,6|0,1:2|2:0,2:0:0:0:
291,341,23726,1,10,2:0:0:0:
441,243,23876,2,0,B|462:219|462:219|444:137,1,102.3,2|8,1:2|2:0,2:0:0:0:
283,12,24176,1,2,1:2:0:0:
451,55,24326,2,0,P|408:68|341:84,1,102.3,10|0,2:0|2:0,2:0:0:0:
250,248,24626,5,8,2:0:0:0:
91,48,24776,1,0,1:2:0:0:
11,289,24926,1,8,2:0:0:0:
109,197,25076,5,0,1:2:0:0:
113,188,25151,1,0,1:0:0:0:
112,178,25226,1,8,2:0:0:0:
16,158,25376,5,0,1:2:0:0:
151,274,25526,1,8,2:0:0:0:
186,100,25676,1,0,1:2:0:0:
26,272,25826,6,0,P|38:319|41:376,1,102.3,6|0,1:2|2:0,2:0:0:0:
112,178,26126,1,10,2:0:0:0:
210,337,26276,2,0,P|251:351|314:378,1,102.3,2|8,1:2|2:0,2:0:0:0:
401,148,26576,1,2,1:2:0:0:
475,335,26726,2,0,P|426:314|400:258,1,102.3,10|0,2:0|2:0,2:0:0:0:
364,40,27026,5,8,2:0:0:0:
266,251,27176,1,0,1:0:0:0:
206,7,27326,1,8,2:0:0:0:
371,181,27476,5,0,1:0:0:0:
155,268,27626,1,8,2:0:0:0:
276,72,27776,1,0,1:0:0:0:
321,352,27926,5,10,2:0:0:0:
346,353,28001,1,8,2:0:0:0:
371,356,28076,1,8,2:0:0:0:
397,360,28151,1,8,2:0:0:0:
425,368,28226,6,0,B|451:354|467:326|467:326|461:268|454:207,1,153.45,4|0,1:2|2:0,2:0:0:0:
488,156,28526,1,10,2:0:0:0:
369,12,28676,2,0,P|315:27|263:33,1,102.3,2|8,1:2|2:0,2:0:0:0:
173,187,28976,1,2,1:2:0:0:
375,280,29126,2,0,P|370:224|360:151,1,102.3,10|0,2:0|2:0,2:0:0:0:
162,32,29426,5,8,2:0:0:0:
71,277,29576,1,0,1:0:0:0:
226,112,29726,1,8,2:0:0:0:
249,362,29876,5,0,1:0:0:0:
257,352,29951,1,0,1:0:0:0:
257,340,30026,1,8,2:0:0:0:
182,250,30176,5,0,1:0:0:0:
371,121,30326,1,8,2:0:0:0:
371,348,30476,1,0,1:0:0:0:
291,227,30626,6,0,P|327:241|404:269,1,102.3,10|0,2:0|2:0,2:0:0:0:
451,87,30926,1,10,2:0:0:0:
255,8,31076,2,0,P|221:47|228:96,1,102.3,2|10,1:2|2:0,2:0:0:0:
382,180,31376,1,0,1:0:0:0:
260,302,31526,2,0,P|199:310|148:322,1,102.3,10|0,2:0|1:0,2:0:0:0:
17,44,31826,5,10,2:0:0:0:
89,260,31976,1,0,1:0:0:0:
212,10,32126,1,10,2:0:0:0:
171,224,32276,1,0,1:0:0:0:
279,90,32426,6,0,L|282:154,1,51.15,2|0,1:2|1:2,2:0:0:0:
251,332,32576,1,2,1:2:0:0:
296,353,32651,1,0,1:2:0:0:
344,339,32726,1,2,1:2:0:0:
370,297,32801,1,0,1:2:0:0:
361,247,32876,2,0,P|326:234|300:227,1,51.15,2|0,1:2|1:2,2:0:0:0:
455,327,33026,6,0,P|464:258|491:136,1,153.45,6|0,1:2|2:0,2:0:0:0:
451,94,33326,2,0,P|399:101|378:153,1,102.3,10|2,2:0|1:2,2:0:0:0:
281,310,33626,1,8,2:0:0:0:
203,78,33776,1,2,1:2:0:0:
110,245,33926,2,0,P|53:234|1:230,1,102.3,10|0,2:0|2:0,2:0:0:0:
297,97,34226,5,8,2:0:0:0:
193,318,34376,1,0,1:0:0:0:
40,128,34526,1,8,2:0:0:0:
312,234,34676,5,0,1:0:0:0:
321,223,34751,1,0,1:0:0:0:
326,206,34826,1,8,2:0:0:0:
212,142,34976,5,0,1:0:0:0:
294,364,35126,1,8,2:0:0:0:
388,105,35276,1,0,1:0:0:0:
193,318,35426,6,0,B|173:292|173:292|192:209,1,102.3,6|0,1:2|2:0,2:0:0:0:
317,51,35726,1,10,2:0:0:0:
418,223,35876,2,0,P|368:208|318:198,1,102.3,2|8,1:2|2:0,2:0:0:0:
203,9,36176,1,2,1:2:0:0:
406,3,36326,2,0,P|393:53|387:104,1,102.3,10|0,2:0|2:0,2:0:0:0:
425,366,36626,5,8,2:0:0:0:
268,121,36776,1,2,1:2:0:0:
495,273,36926,1,8,2:0:0:0:
234,361,37076,5,2,1:2:0:0:
449,185,37226,1,8,2:0:0:0:
190,91,37376,1,2,1:2:0:0:
336,363,37526,5,10,2:0:0:0:
330,337,37601,1,8,2:0:0:0:
326,312,37676,1,8,2:0:0:0:
322,287,37751,1,8,2:0:0:0:
321,261,37826,6,0,B|325:237|338:211|338:211|281:191|227:250,1,153.45,6|0,1:2|2:0,2:0:0:0:
171,187,38126,1,10,2:0:0:0:
70,370,38276,2,0,P|63:317|48:260,1,102.3,2|8,1:2|2:0,2:0:0:0:
223,117,38576,1,2,1:2:0:0:
24,6,38726,2,0,B|-12:39|-12:39|9:103,1,102.3,10|0,2:0|2:0,2:0:0:0:
159,207,39026,5,8,2:0:0:0:
358,32,39176,1,0,1:0:0:0:
227,277,39326,1,8,2:0:0:0:
279,1,39476,1,0,1:0:0:0:
376,301,39626,5,8,2:0:0:0:
220,69,39776,1,0,1:0:0:0:
487,224,39926,1,10,2:0:0:0:
218,370,40076,1,2,1:2:0:0:
419,118,40234,6,0,P|404:174|403:232,1,102.3,10|0,2:0|1:2,2:0:0:0:
347,42,40525,1,0,1:2:0:0:
284,307,40670,6,0,P|281:259|265:195,1,93,10|0,2:0|1:2,2:0:0:0:
218,370,40962,1,0,1:2:0:0:
166,118,41107,6,0,P|163:166|146:225,1,83.7000000000001,10|0,2:0|2:0,2:0:0:0:
93,78,41399,1,8,1:2:0:0:
88,74,41478,1,0,1:2:0:0:
84,71,41557,1,0,1:2:0:0:
80,68,41637,1,0,1:2:0:0:
75,65,41716,1,0,1:2:0:0:
71,63,41795,1,0,1:2:0:0:
66,61,41875,1,0,1:2:0:0:
61,59,41954,1,0,1:2:0:0:
56,58,42034,5,6,1:2:0:0:
3,245,42184,2,0,B|35:236|35:236|61:197|54:161,1,111.6,2|0,1:2|2:0,2:0:0:0:
156,201,42484,6,0,B|140:245|94:265|94:265|56:239|3:245,1,186,6|0,1:2|1:0,2:0:0:0:
75,384,42934,2,0,P|123:364|137:318,1,93,8|0,2:0|2:0,2:0:0:0:
211,289,43234,1,0,1:2:0:0:
203,281,43384,1,0,2:0:0:0:
205,268,43534,1,8,2:0:0:0:
362,276,43684,2,0,P|320:244|273:255,1,93,2|0,2:1|2:0,2:0:0:0:
362,276,43984,6,0,P|346:324|337:373,2,93,2|10|2,1:2|2:0|2:0,2:0:0:0:
443,198,44434,1,2,1:2:0:0:
446,187,44584,1,2,1:2:0:0:
445,178,44734,1,10,2:0:0:0:
440,170,44884,1,2,1:2:0:0:
486,0,45034,6,0,P|480:45|474:92,1,93,2|0,2:0|1:0,2:0:0:0:
399,28,45334,1,10,2:0:0:0:
390,22,45484,1,0,2:0:0:0:
359,193,45634,2,0,P|353:146|346:100,1,93,2|0,1:2|1:0,2:0:0:0:
295,2,45934,1,10,2:0:0:0:
257,147,46084,6,0,P|224:93|105:90,1,186,2|2,1:2|2:1,2:0:0:0:
13,44,46534,2,0,P|21:94|25:145,1,93,8|2,2:0|2:0,2:0:0:0:
77,376,46834,1,2,1:2:0:0:
7,285,46984,6,0,L|55:302,1,46.5,2|0,1:2|2:0,2:0:0:0:
198,361,47134,1,8,2:0:0:0:
198,361,47284,6,0,B|240:335|243:284|243:284|206:238|217:181,1,186,6|0,1:2|1:0,2:0:0:0:
402,325,47734,2,0,P|369:292|325:283,1,93,10|0,2:0|2:0,2:0:0:0:
136,290,48034,1,0,1:2:0:0:
125,294,48184,1,0,1:2:0:0:
113,291,48334,1,8,2:0:0:0:
100,115,48484,2,0,P|110:160|119:206,1,93,0|0,1:0|2:0,2:0:0:0:
100,115,48784,6,0,P|52:93|30:55,2,93,2|10|2,1:2|2:0|2:0,2:0:0:0:
180,60,49234,1,2,1:2:0:0:
191,60,49384,1,2,1:2:0:0:
203,63,49534,1,10,2:0:0:0:
211,71,49684,1,2,1:2:0:0:
305,148,49834,6,0,P|299:95|292:43,1,93,2|0,2:0|1:0,2:0:0:0:
375,12,50134,1,10,2:0:0:0:
383,7,50284,1,0,2:0:0:0:
293,240,50434,2,0,P|298:194|305:148,1,93,2|0,1:2|2:0,2:0:0:0:
211,117,50734,1,10,2:0:0:0:
329,331,50884,6,0,P|392:326|380:212,1,167.4,2|0,1:0|2:0,2:0:0:0:
293,240,51184,2,0,B|289:250|289:250|180:227,1,111.6,2|0,1:0|2:0,2:0:0:0:
46,384,51484,1,2,1:0:0:0:
208,315,51634,1,0,2:0:0:0:
66,206,51784,6,0,L|79:274,1,55.8,2|0,1:0|2:0,2:0:0:0:
114,332,51934,1,0,2:0:0:0:
0,160,52084,6,0,B|-19:188|-19:188|145:130,1,186,6|0,1:2|1:2,2:0:0:0:
220,0,52534,2,0,P|196:38|198:91,1,93,10|0,2:0|2:0,2:0:0:0:
241,165,52834,1,0,1:2:0:0:
253,172,52984,1,0,1:2:0:0:
266,172,53134,1,8,2:0:0:0:
434,150,53284,2,0,P|389:139|344:129,1,93,0|0,2:0|2:0,2:0:0:0:
229,337,53584,6,0,P|210:291|219:243,2,93,2|10|2,1:2|2:0|2:0,2:0:0:0:
314,377,54034,1,2,1:2:0:0:
325,284,54184,2,0,P|318:330|314:377,1,93,2|10,1:2|2:0,2:0:0:0:
403,352,54484,1,2,1:2:0:0:
229,337,54634,6,0,P|173:323|73:328,1,139.5,2|0,2:0|2:0,2:0:0:0:
91,324,54934,2,0,B|77:332|77:332|101:243,1,93,10|0,2:0|2:0,2:0:0:0:
79,84,55234,1,2,1:2:0:0:
167,211,55384,2,0,P|162:169|156:99,1,93,2|10,1:2|2:0,2:0:0:0:
191,4,55684,6,0,B|181:34|181:34|240:50|306:69|306:69|294:113,1,186,2|2,2:0|2:0,2:0:0:0:
465,83,56134,2,0,P|428:55|383:60,1,93,8|2,2:0|2:0,2:0:0:0:
247,159,56434,1,2,1:2:0:0:
313,210,56584,2,0,P|352:188|366:144,1,93,2|10,1:2|2:0,2:0:0:0:
267,26,56884,6,0,B|184:35|184:35|180:40|180:40|63:55,1,186,6|0,1:2|1:0,2:0:0:0:
9,21,57334,1,10,2:0:0:0:
90,178,57484,2,0,P|44:185|0:196,1,93,2|0,2:0|1:0,2:0:0:0:
172,135,57784,2,0,B|180:119|180:119|161:233,1,93,2|8,1:2|2:0,2:0:0:0:
263,355,58084,6,0,P|319:365|364:281,1,139.5,2|0,1:2|2:0,2:0:0:0:
342,229,58384,2,0,L|279:216,1,46.5,2|0,1:2|2:0,2:0:0:0:
187,313,58534,2,0,P|126:320|65:335,1,93,8|0,2:0|2:0,2:0:0:0:
246,162,58834,5,2,1:2:0:0:
198,92,58984,1,2,1:2:0:0:
282,38,59134,1,8,2:0:0:0:
246,162,59284,6,0,P|252:228|253:328,1,139.5,6|0,1:2|2:0,2:0:0:0:
220,373,59584,1,2,1:2:0:0:
338,253,59734,2,0,P|341:230|358:200,1,55.8,10|0,2:0|2:0,2:0:0:0:
159,192,59884,1,2,2:0:0:0:
157,182,59959,1,2,2:0:0:0:
153,173,60034,1,2,1:2:0:0:
268,21,60184,1,2,2:0:0:0:
246,162,60334,6,0,L|233:92,1,55.8,10|0,2:0|2:0,2:0:0:0:
254,155,60484,2,0,L|241:85,1,55.8,2|0,2:0|2:0,2:0:0:0:
268,21,60634,1,8,2:0:0:0:
40,167,60784,6,0,P|16:216|95:290,1,167.4,2|0,1:0|2:0,2:0:0:0:
184,206,61084,2,0,B|268:198|268:198|271:191|271:191|368:182,1,167.4,2|0,3:2|3:0,3:0:0:0:
445,333,61384,2,0,P|382:351|325:272,1,167.4,2|0,1:2|2:0,2:0:0:0:
378,36,61684,5,6,2:0:0:0:
385,44,61984,1,0,2:0:0:0:
385,44,62134,2,0,L|395:123,1,74.4,10|0,2:0|2:0,2:0:0:0:
466,180,62434,1,2,1:2:0:0:
466,180,62584,1,0,2:0:0:0:
466,180,62734,2,0,L|456:259,1,74.4,0|8,1:0|2:0,2:0:0:0:
371,380,63034,5,2,2:0:0:0:
313,322,63184,1,0,1:0:0:0:
239,350,63334,2,0,L|229:276,1,74.4,8|0,2:0|2:0,2:0:0:0:
101,193,63634,2,0,L|169:221,1,74.4,2|8,2:0|2:0,2:0:0:0:
266,182,63934,1,8,2:0:0:0:
141,309,64084,1,8,2:0:0:0:
141,309,64234,6,0,P|97:314|-1:358,1,148.8,6|0,1:2|1:0,2:0:0:0:
2,355,64684,2,0,P|32:327|34:272,1,74.4,10|0,2:0|2:0,2:0:0:0:
0,62,64984,1,2,2:0:0:0:
0,62,65059,1,2,2:0:0:0:
0,62,65134,1,2,1:2:0:0:
39,144,65284,1,2,2:0:0:0:
120,73,65434,6,0,L|131:-5,1,74.4,2|0,1:2|2:0,2:0:0:0:
196,105,65734,2,0,L|207:27,1,74.4,0|0,1:0|1:0,2:0:0:0:
194,194,66034,2,0,L|183:116,1,74.4,0|0,1:0|1:0,2:0:0:0:
279,209,66334,2,0,L|268:131,1,74.4,2|0,1:2|1:2,2:0:0:0:
223,298,66634,6,0,P|267:264|377:248,1,148.8,6|0,1:2|1:0,2:0:0:0:
501,180,67084,2,0,P|452:154|339:166,1,148.8,8|0,2:0|2:0,2:0:0:0:
361,333,67534,1,10,2:0:0:0:
449,350,67684,1,2,2:0:0:0:
356,245,67834,6,0,P|307:256|279:263,1,74.4,2|8,1:2|2:0,2:0:0:0:
197,263,68134,2,0,P|233:254|269:246,1,74.4,2|0,1:2|2:0,2:0:0:0:
360,156,68434,1,10,2:0:0:0:
360,156,68584,1,0,2:0:0:0:
252,58,68734,2,0,P|275:114|279:154,1,74.4,10|0,2:0|2:0,2:0:0:0:
269,246,69034,6,0,P|204:236|88:235,1,148.8,10|0,2:0|2:0,2:0:0:0:
4,137,69484,2,0,P|78:134|152:124,1,148.8,10|0,2:0|2:0,2:0:0:0:
37,224,69934,1,2,1:2:0:0:
6,300,70084,1,2,1:2:0:0:
23,40,70234,6,0,P|73:20|98:5,1,74.4,10|0,2:0|2:0,2:0:0:0:
109,149,70534,2,0,P|159:169|184:184,1,74.4,0|0,1:0|1:2,2:0:0:0:
212,89,70834,1,2,1:2:0:0:
222,82,70984,1,0,1:2:0:0:
229,70,71134,1,2,1:2:0:0:
230,54,71284,1,0,1:2:0:0:
144,34,71434,6,0,P|164:107|179:202,1,148.8,6|2,1:2|1:0,2:0:0:0:
196,315,71884,1,0,2:0:0:0:
274,281,72034,2,0,P|283:221|291:184,1,74.4,10|0,2:0|2:0,2:0:0:0:
135,256,72334,2,0,P|96:243|63:239,1,74.4,2|0,1:2|2:0,2:0:0:0:
203,353,72634,6,0,P|259:361|361:387,1,148.8,2|2,1:2|1:0,2:0:0:0:
393,305,73084,1,0,2:0:0:0:
446,131,73234,1,2,1:2:0:0:
497,229,73384,1,8,2:0:0:0:
347,183,73534,2,0,P|336:132|325:96,1,74.4,2|0,1:2|2:0,2:0:0:0:
470,3,73834,5,14,2:0:0:0:
470,3,74134,1,2,1:2:0:0:
416,134,74284,1,8,2:0:0:0:
305,31,74434,1,2,1:2:0:0:
254,190,74584,1,0,2:0:0:0:
154,15,74734,1,10,2:0:0:0:
99,234,74884,2,0,L|47:241,1,37.2,8|8,2:0|2:0,2:0:0:0:
7,160,75034,6,0,P|17:114|22:59,1,74.4,6|0,1:2|1:2,2:0:0:0:
18,59,75259,1,0,1:0:0:0:
16,47,75334,1,2,1:2:0:0:
165,182,75484,1,0,1:2:0:0:
173,192,75559,1,0,1:0:0:0:
183,199,75634,1,2,1:2:0:0:
30,310,75784,1,0,1:2:0:0:
18,317,75859,1,0,1:0:0:0:
9,333,75934,2,8,B|59:357|59:357|90:311,1,111.6,10|0,2:0|2:0,2:0:0:0:
67,195,76234,6,0,P|118:208|267:250,1,186,6|2,1:2|1:2,2:0:0:0:
288,331,76684,1,0,1:2:0:0:
465,253,76834,2,0,B|478:235|478:235|465:144,1,93,2|0,1:2|1:2,2:0:0:0:
323,26,77134,1,2,1:2:0:0:
337,223,77284,2,0,P|279:235|237:246,1,93,2|0,1:2|1:2,2:0:0:0:
0,98,77584,5,2,1:2:0:0:
207,161,77734,1,10,2:0:0:0:
59,321,77884,1,10,2:0:0:0:
99,162,78034,2,0,P|110:233|118:276,1,93,8|10,2:0|2:0,2:0:0:0:
324,375,78334,1,10,2:0:0:0:
398,138,78484,1,10,2:0:0:0:
176,319,78634,5,6,1:2:0:0:
482,179,78784,1,2,1:2:0:0:
482,179,78859,1,0,1:0:0:0:
482,179,78934,1,0,1:0:0:0:
210,18,79084,5,6,1:2:0:0:
440,259,79234,1,2,1:2:0:0:
440,259,79309,1,0,1:0:0:0:
440,259,79384,1,0,1:0:0:0:
120,384,79534,5,14,2:0:0:0:
359,222,79684,1,2,1:2:0:0:
359,222,79759,1,0,1:0:0:0:
359,222,79834,1,0,1:0:0:0:
52,67,79984,5,10,2:0:0:0:
482,179,80134,1,2,1:2:0:0:
482,179,80209,1,0,1:0:0:0:
482,179,80284,1,0,1:0:0:0:
26,356,80434,6,0,P|15:298|0:266,1,83.7000000000001,6|0,2:0|2:0,2:0:0:0:
105,135,81034,6,0,B|167:156|166:224|166:224|214:264|266:229,1,223.2,6|10,1:2|2:0,2:0:0:0:
171,277,81484,2,0,P|120:290|96:300,1,55.8,0|0,2:0|2:0,2:0:0:0:
269,21,81634,2,0,B|258:76|258:76|253:80|253:80|243:128,1,111.6,2|0,1:2|1:0,2:0:0:0:
242,128,81859,1,0,1:0:0:0:
243,128,81934,1,10,2:0:0:0:
404,91,82084,6,0,B|442:139|442:139|340:113,1,167.4,2|0,1:0|2:0,2:0:0:0:
131,82,82384,2,0,B|105:28|105:28|154:45,1,111.6,2|8,2:0|2:0,2:0:0:0:
248,123,82609,1,0,1:0:0:0:
243,128,82684,6,0,L|231:189,1,55.8,2|0,2:0|2:0,2:0:0:0:
311,278,82834,2,0,P|322:332|332:387,1,111.6,0|2,1:0|2:1,2:0:0:0:
379,237,83134,2,0,B|363:272|363:272|209:261,1,167.4,10|0,2:0|2:0,2:0:0:0:
153,302,83434,6,0,P|104:263|126:196,1,111.6,6|0,1:2|2:0,2:0:0:0:
181,19,83734,2,0,P|171:80|102:95,1,111.6,10|0,2:0|2:0,2:0:0:0:
0,90,84034,6,0,P|78:106|176:144,1,167.4,2|0,1:2|2:0,2:0:0:0:
225,197,84334,1,10,2:0:0:0:
225,197,84484,2,0,P|245:164|248:130,1,55.8,2|0,1:0|2:0,2:0:0:0:
376,30,84634,6,0,P|322:45|266:53,1,111.6,0|0,2:0|1:0,2:0:0:0:
177,303,84934,1,8,2:0:0:0:
359,137,85084,1,2,2:0:0:0:
413,384,85234,1,2,1:2:0:0:
302,274,85384,5,0,1:0:0:0:
311,271,85534,1,10,2:0:0:0:
309,281,85684,1,2,2:0:0:0:
177,303,85834,6,0,P|110:318|53:339,1,111.6,6|0,1:2|2:0,2:0:0:0:
310,306,86134,2,0,P|377:291|434:270,1,111.6,10|0,2:0|2:0,2:0:0:0:
154,194,86434,2,0,P|169:247|177:303,1,111.6,2|0,1:2|2:0,2:0:0:0:
296,20,86734,1,10,2:0:0:0:
417,276,86884,6,0,B|447:282|454:298|454:298|499:222|415:179,1,167.4,2|0,1:0|2:0,2:0:0:0:
480,105,87184,1,2,1:2:0:0:
310,306,87334,1,10,2:0:0:0:
209,22,87484,6,0,B|287:34|379:46|379:46,1,167.4,2|0,2:0|2:0,2:0:0:0:
459,7,87784,2,0,P|490:51|479:105,1,111.6,2|8,1:2|2:0,2:0:0:0:
417,276,88084,1,2,2:0:0:0:
156,114,88234,6,0,P|212:120|267:131,1,111.6,6|0,1:2|2:0,2:0:0:0:
350,344,88534,2,0,P|312:375|249:366,1,111.6,10|0,2:0|2:0,2:0:0:0:
118,218,88834,2,0,P|114:140|98:40,1,167.4,2|0,1:2|2:0,2:0:0:0:
176,0,89134,1,8,2:0:0:0:
19,242,89284,6,0,B|39:263|39:263|204:243|204:243|186:292,1,223.2,2|0,1:0|1:0,2:0:0:0:
118,218,89734,2,0,P|128:174|130:141,1,55.8,8|0,2:0|2:0,2:0:0:0:
141,348,89884,2,0,P|114:356|89:369,1,55.8,2|0,2:0|2:0,2:0:0:0:
277,232,90034,6,0,P|289:281|295:302,1,55.8,2|0,1:2|1:2,2:0:0:0:
381,362,90184,2,0,P|387:334|394:307,1,55.8,0|0,1:2|1:2,2:0:0:0:
501,104,90334,1,2,1:2:0:0:
501,104,90409,1,0,1:2:0:0:
501,104,90484,1,8,2:0:0:0:
501,104,90559,1,8,2:0:0:0:
501,104,90634,6,0,B|438:108|412:52|412:52|347:44|319:128,1,223.2,6|10,1:2|2:0,2:0:0:0:
393,37,91084,2,0,P|396:18|411:-19,1,55.8,0|0,2:0|2:0,2:0:0:0:
142,197,91234,2,0,B|193:184|193:184|197:179|197:179|261:164,1,111.6,2|0,1:2|1:0,2:0:0:0:
248,167,91459,1,0,1:0:0:0:
248,167,91534,1,10,2:0:0:0:
367,356,91684,6,0,B|409:395|469:361|469:361|429:345|424:300,1,167.4,2|0,1:0|2:0,2:0:0:0:
377,165,91984,2,0,B|377:129|404:106|404:106|393:132|402:178,1,111.6,2|8,1:2|2:0,2:0:0:0:
354,258,92209,1,0,2:0:0:0:
347,265,92284,6,0,L|261:249,1,55.8,2|0,1:2|1:2,2:0:0:0:
197,364,92434,2,0,P|131:376|78:387,1,111.6,0|2,1:2|2:1,2:0:0:0:
15,133,92734,2,0,B|31:162|31:162|182:190,1,167.4,10|0,2:0|2:0,2:0:0:0:
125,294,93034,6,0,P|81:265|83:208,1,111.6,6|0,1:2|2:0,2:0:0:0:
282,29,93334,2,0,P|282:82|238:112,1,111.6,10|0,2:0|2:0,2:0:0:0:
453,299,93634,2,0,P|379:273|275:252,1,167.4,2|0,1:2|2:0,2:0:0:0:
318,171,93934,1,10,2:0:0:0:
422,384,94084,6,0,P|479:356|447:237,1,167.4,6|0,1:2|2:0,2:0:0:0:
512,170,94384,1,0,2:0:0:0:
269,340,94534,1,10,2:0:0:0:
172,49,94684,1,2,2:0:0:0:
366,153,94834,5,2,1:2:0:0:
366,153,94909,1,0,1:0:0:0:
366,153,94984,1,2,1:2:0:0:
256,192,95134,1,10,2:0:0:0:
146,231,95284,1,0,2:0:0:0:
392,330,95434,6,0,P|367:281|316:263,1,111.6,6|0,1:2|2:0,2:0:0:0:
166,135,95734,2,0,B|162:101|171:84|171:84|170:104|179:143,1,111.6,10|0,2:0|2:0,2:0:0:0:
43,373,96034,2,0,P|110:349|227:335,1,167.4,2|0,1:2|2:0,2:0:0:0:
293,352,96334,1,10,2:0:0:0:
52,161,96484,6,0,P|84:207|94:289,1,111.6,2|0,1:0|2:0,2:0:0:0:
95,260,96709,1,0,2:0:0:0:
95,260,96784,2,0,P|111:222|135:199,1,55.8,2|0,1:2|2:0,2:0:0:0:
254,104,96934,2,0,P|192:83|139:51,1,111.6,10|0,2:0|2:0,2:0:0:0:
418,346,97234,5,2,1:2:0:0:
480,94,97384,1,0,2:0:0:0:
299,274,97534,1,10,2:0:0:0:
480,94,97684,1,0,2:0:0:0:
418,346,97834,6,0,P|388:299|406:230,1,111.6,6|0,1:2|2:0,2:0:0:0:
512,0,98134,1,10,2:0:0:0:
480,94,98284,1,0,2:0:0:0:
480,94,98359,1,0,1:0:0:0:
480,94,98434,2,0,P|403:103|291:135,1,167.4,2|0,1:2|2:0,2:0:0:0:
216,72,98734,2,0,P|235:21|302:12,1,111.6,10|0,2:0|2:0,2:0:0:0:
327,384,99034,5,2,1:2:0:0:
99,331,99184,1,0,1:2:0:0:
316,125,99334,5,10,2:0:0:0:
59,250,99484,1,0,1:2:0:0:
387,310,99634,5,6,1:2:0:0:
89,162,99784,1,10,2:0:0:0:
89,162,99859,1,8,2:0:0:0:
89,162,99934,1,10,2:0:0:0:
402,7,100084,1,8,2:0:0:0:
243,384,100234,6,0,P|251:315|272:207,1,167.4,6|0,1:2|2:0,2:0:0:0:
221,141,100534,1,10,2:0:0:0:
402,7,100684,2,0,P|445:49|411:129,1,111.6,2|0,1:0|2:0,2:0:0:0:
497,175,100909,1,0,1:0:0:0:
497,175,100984,1,2,1:2:0:0:
290,25,101134,1,10,2:0:0:0:
216,310,101284,6,0,P|158:319|105:341,1,111.6,2|0,1:0|2:0,2:0:0:0:
142,79,101584,2,0,P|81:63|29:36,1,111.6,2|10,1:2|2:0,2:0:0:0:
27,285,101884,1,0,1:0:0:0:
27,285,101959,1,0,1:0:0:0:
27,285,102034,5,10,2:0:0:0:
234,35,102184,1,2,2:0:0:0:
322,357,102334,2,0,B|314:325|331:299|331:299|330:325|347:354,1,111.6,8|2,2:0|2:0,2:0:0:0:
463,113,102634,6,0,P|403:131|412:258,1,167.4,6|2,1:2|2:0,2:0:0:0:
422,305,102934,1,10,2:0:0:0:
318,30,103084,2,0,B|260:25|209:-9|209:-9|237:17|239:74,1,167.4,2|0,1:0|2:0,2:0:0:0:
278,117,103384,1,2,2:0:0:0:
67,9,103534,1,10,2:0:0:0:
33,286,103684,6,0,P|24:228|-3:179,1,111.6,2|0,1:0|2:0,2:0:0:0:
310,273,103984,2,0,P|284:323|277:378,1,111.6,0|8,1:0|2:0,2:0:0:0:
103,124,104284,1,0,1:0:0:0:
103,124,104359,1,0,2:0:0:0:
103,124,104434,6,0,L|43:101,1,55.8,2|0,1:2|1:2,2:0:0:0:
272,0,104584,2,0,L|266:55,1,55.8,0|0,1:2|1:2,2:0:0:0:
221,226,104734,1,2,1:2:0:0:
261,234,104809,1,0,1:2:0:0:
302,243,104884,1,2,1:2:0:0:
343,252,104959,1,0,1:2:0:0:
384,261,105034,6,0,B|410:256|423:238|423:238|389:361,1,167.4,6|0,1:2|2:0,2:0:0:0:
482,323,105334,1,10,2:0:0:0:
253,341,105484,2,0,P|180:348|111:368,1,111.6,2|0,1:0|2:0,2:0:0:0:
60,322,105709,1,0,2:0:0:0:
60,322,105784,1,2,2:0:0:0:
231,136,105934,1,10,2:0:0:0:
8,17,106084,6,0,P|31:82|35:128,1,111.6,2|0,1:0|2:0,2:0:0:0:
315,179,106384,2,0,P|321:123|342:71,1,111.6,2|8,2:0|2:0,2:0:0:0:
121,52,106684,1,0,1:0:0:0:
121,52,106759,1,0,1:0:0:0:
121,52,106834,5,2,1:2:0:0:
412,202,106984,1,2,1:2:0:0:
155,382,107134,2,0,P|108:355|101:302,1,111.6,10|2,2:0|2:0,2:0:0:0:
395,346,107434,6,0,P|315:327|206:317,1,167.4,6|0,1:2|2:0,2:0:0:0:
155,382,107734,1,10,2:0:0:0:
54,115,107884,2,0,B|72:80|72:80|133:76|168:121|146:179,1,167.4,2|0,1:0|2:0,2:0:0:0:
224,82,108184,1,2,2:0:0:0:
36,244,108334,1,10,2:0:0:0:
293,384,108484,6,0,P|341:351|343:294,1,111.6,2|0,1:0|2:0,2:0:0:0:
287,0,108784,2,0,B|295:43|295:43|298:48|298:48|307:99,1,111.6,2|10,2:0|2:0,2:0:0:0:
483,367,109084,2,0,P|456:359|428:353,1,55.8,2|0,1:0|2:0,2:0:0:0:
502,179,109234,5,10,2:0:0:0:
449,161,109309,1,0,1:0:0:0:
393,164,109384,1,0,1:0:0:0:
342,186,109459,1,0,2:0:0:0:
302,224,109534,1,10,2:0:0:0:
249,241,109609,1,0,2:0:0:0:
193,238,109684,1,2,2:0:0:0:
142,216,109759,1,0,2:0:0:0:
102,178,109834,6,0,B|79:50|79:50|91:79|122:90,1,181.35,6|0,2:0|2:0,2:0:0:0:
216,26,110134,2,0,L|152:13,1,60.45,10|0,2:0|2:0,2:0:0:0:
333,225,110284,2,0,P|388:214|459:206,1,120.9,2|8,1:2|2:0,2:0:0:0:
333,225,110584,1,0,1:2:0:0:
482,45,110734,6,0,L|465:125,1,60.45,10|0,2:0|2:0,2:0:0:0:
452,283,110884,2,0,L|435:203,1,60.45,2|0,1:0|2:0,2:0:0:0:
298,56,111034,6,0,P|224:41|145:19,1,120.9,8|2,2:0|1:0,2:0:0:0:
69,144,111259,1,0,1:0:0:0:
74,156,111334,2,0,P|139:150|160:88,1,120.9,10|2,2:0|1:2,2:0:0:0:
19,16,111559,1,0,1:0:0:0:
12,9,111634,6,0,P|24:59|25:90,1,60.45,10|0,2:0|2:0,2:0:0:0:
23,265,111784,1,2,1:2:0:0:
25,261,111934,1,10,2:0:0:0:
21,260,112084,1,2,1:2:0:0:
161,105,112234,6,0,B|185:102|199:81|199:81|169:177|144:267,1,181.35,14|0,2:0|2:0,2:0:0:0:
119,344,112534,2,0,L|108:265,1,60.45,10|0,2:0|2:0,2:0:0:0:
395,272,112684,2,0,B|337:253|337:253|337:250|337:250|282:232,1,120.9,2|8,1:0|2:0,2:0:0:0:
395,272,112984,1,2,1:2:0:0:
458,105,113134,6,0,L|396:122,1,60.45,10|0,2:0|2:0,2:0:0:0:
243,303,113284,2,0,L|301:287,1,60.45,2|0,2:0|2:0,2:0:0:0:
327,13,113434,6,0,P|315:76|300:154,1,120.9,10|2,0:2|1:2,2:0:0:0:
167,246,113659,1,0,1:0:0:0:
161,254,113734,2,0,P|104:237|96:156,1,120.9,10|0,2:0|1:0,2:0:0:0:
111,46,113959,1,0,1:0:0:0:
116,41,114034,6,0,B|107:26|107:26|145:41|237:65,1,120.9,10|2,2:0|1:2,2:0:0:0:
434,19,114334,1,10,2:0:0:0:
420,62,114409,1,8,2:0:0:0:
409,106,114484,1,8,2:0:0:0:
402,150,114559,1,8,2:0:0:0:
399,196,114634,6,0,B|422:236|422:236|327:214,1,120.9,6|2,2:0|2:0,2:0:0:0:
271,181,114859,1,0,1:0:0:0:
271,181,114934,2,0,P|267:141|262:112,1,60.45,10|0,2:0|2:0,2:0:0:0:
69,278,115084,6,0,B|50:253|50:253|153:287,1,120.9,2|8,1:2|2:0,2:0:0:0:
228,312,115309,1,0,1:0:0:0:
228,312,115384,2,0,P|224:272|219:243,1,60.45,0|0,1:2|2:0,2:0:0:0:
296,46,115534,1,10,2:0:0:0:
77,11,115684,6,0,P|94:67|100:139,1,120.9,2|10,2:0|2:0,2:0:0:0:
308,376,115984,2,0,P|313:315|331:258,1,120.9,2|10,1:0|2:0,2:0:0:0:
397,205,116209,1,0,1:0:0:0:
393,199,116284,2,0,P|424:205|454:211,1,60.45,2|0,1:2|2:0,2:0:0:0:
503,56,116434,5,10,2:0:0:0:
453,35,116509,1,0,2:0:0:0:
411,71,116584,1,2,1:2:0:0:
417,83,116659,1,0,2:0:0:0:
429,90,116734,2,0,P|427:51|425:21,2,60.45,10|0|2,2:0|2:0|1:2,2:0:0:0:
470,321,117034,5,6,1:2:0:0:
304,142,117184,1,8,2:0:0:0:
309,171,117259,1,8,2:0:0:0:
313,201,117334,1,10,2:0:0:0:
317,231,117409,1,0,1:0:0:0:
319,261,117484,2,0,P|302:307|296:334,1,60.45,2|0,1:0|2:0,2:0:0:0:
198,365,117634,6,0,P|137:371|78:384,1,120.9,2|0,2:0|1:2,2:0:0:0:
5,338,117859,1,0,1:0:0:0:
0,332,117934,1,2,1:2:0:0:
44,49,118084,5,10,2:0:0:0:
47,46,118384,1,10,2:0:0:0:
48,53,118684,1,10,2:0:0:0:
44,52,118834,1,10,2:0:0:0:
512,384,119284,5,2,2:0:0:0:
256,192,119359,12,0,120484,2:0:0:0:
439,33,127984,5,2,2:0:0:0:
439,33,128059,1,0,2:0:0:0:
439,33,128134,2,0,B|458:47|458:47|439:142,1,93,0|8,1:2|2:0,2:0:0:0:
427,200,128434,1,0,1:2:0:0:
325,85,128584,2,0,B|312:130|312:130|349:158,1,93,2|0,1:0|2:0,2:0:0:0:
427,200,128884,5,6,1:2:0:0:
256,192,137434,12,0,138034,2:0:0:0:
453,347,138184,5,2,2:0:0:0:
456,337,138334,1,2,2:0:0:0:
453,327,138484,1,2,2:0:0:0:
512,260,138634,6,0,B|407:253|466:334|329:328,1,186,2|2,1:2|1:2,2:0:0:0:
272,216,139084,2,0,P|324:216|373:252,1,93,2|0,2:0|1:2,2:0:0:0:
270,383,139384,1,0,2:0:0:0:
184,349,139534,2,0,P|171:283|155:235,1,93,2|2,1:2|2:0,2:0:0:0:
203,14,139834,5,0,1:0:0:0:
248,231,139984,1,0,2:0:0:0:
51,164,140134,1,2,1:2:0:0:
163,130,140284,5,0,2:0:0:0:
170,133,140359,1,0,1:0:0:0:
165,138,140434,1,2,1:2:0:0:
94,69,140584,2,0,P|55:64|3:50,1,93,2|2,2:0|1:2,2:0:0:0:
204,223,140884,1,2,2:0:0:0:
204,223,141034,6,0,P|268:224|354:331,1,186,2|2,1:2|1:2,2:0:0:0:
302,384,141484,2,0,P|308:341|321:263,1,93,0|2,2:0|1:2,2:0:0:0:
395,117,141784,1,0,2:0:0:0:
460,253,141934,2,0,P|480:212|473:167,1,93,2|2,1:2|2:0,2:0:0:0:
331,43,142234,6,0,P|285:52|229:59,1,93,0|0,1:0|2:0,2:0:0:0:
295,173,142534,2,0,P|238:154|183:150,1,93,2|0,1:2|2:0,2:0:0:0:
173,237,142759,1,0,2:0:0:0:
168,246,142834,2,0,P|124:261|78:268,1,93,2|2,1:2|2:0,2:0:0:0:
68,85,143134,2,0,P|105:126|108:187,1,93,2|2,1:2|2:0,2:0:0:0:
58,372,143434,6,0,B|129:338|177:334|177:334|192:363|227:379,1,186,2|2,1:2|1:2,2:0:0:0:
379,316,143884,2,0,B|404:281|404:281|331:291|263:297,1,186,2|0,2:0|2:0,2:0:0:0:
342,154,144334,2,0,P|336:200|330:246,1,93,2|2,1:2|2:0,2:0:0:0:
243,0,144634,5,0,1:2:0:0:
412,101,144784,1,0,2:0:0:0:
242,194,144934,1,2,1:2:0:0:
289,90,145084,5,0,2:0:0:0:
297,87,145159,1,0,1:0:0:0:
295,95,145234,1,2,1:2:0:0:
192,114,145384,2,0,P|184:60|164:10,1,93,2|2,2:0|1:2,2:0:0:0:
340,190,145684,1,2,2:0:0:0:
340,190,145834,6,0,P|322:250|320:301,1,93,2|0,1:2|2:0,2:0:0:0:
447,356,146134,1,2,1:2:0:0:
494,259,146284,2,0,P|447:266|398:281,1,93,2|0,2:0|1:0,2:0:0:0:
238,142,146584,1,0,2:0:0:0:
165,259,146734,2,0,P|162:212|149:168,1,93,2|2,1:2|2:0,2:0:0:0:
289,65,147034,5,0,1:2:0:0:
293,62,147184,1,0,2:0:0:0:
294,66,147259,1,0,1:0:0:0:
293,69,147334,1,2,1:2:0:0:
290,65,147484,1,0,2:0:0:0:
293,61,147634,6,0,P|349:71|429:77,1,93,2|2,1:2|2:0,2:0:0:0:
502,227,147934,2,0,P|433:230|373:321,1,153.45,8|0,2:0|2:0,2:0:0:0:
338,356,148234,6,0,B|315:363|315:363|290:266,1,102.3,2|0,1:0|2:0,2:0:0:0:
385,163,148534,1,2,1:2:0:0:
200,288,148684,2,0,P|195:237|189:187,1,102.3,2|0,2:0|1:0,2:0:0:0:
83,367,148984,1,0,2:0:0:0:
4,152,149134,2,0,B|55:163|55:163|104:110,1,102.3,2|2,1:2|2:0,2:0:0:0:
119,33,149434,5,0,1:0:0:0:
91,259,149584,1,0,2:0:0:0:
198,85,149734,5,2,1:2:0:0:
210,238,149884,1,0,2:0:0:0:
210,238,149959,1,0,1:0:0:0:
210,238,150034,1,2,1:2:0:0:
307,48,150184,5,2,2:0:0:0:
279,297,150334,1,2,1:2:0:0:
367,116,150484,1,2,2:0:0:0:
496,237,150634,6,0,B|527:228|527:228|472:221|384:205,1,153.45,2|0,1:0|2:0,2:0:0:0:
366,309,150934,2,0,P|429:303|456:257,1,102.3,2|2,1:2|2:0,2:0:0:0:
378,14,151234,2,0,P|372:65|367:116,1,102.3,2|0,1:2|2:0,2:0:0:0:
234,372,151534,1,2,1:2:0:0:
181,156,151684,1,2,2:0:0:0:
41,360,151834,6,0,B|87:350|87:350|89:347|89:347|140:337,1,102.3,0|0,1:0|2:0,2:0:0:0:
269,186,152134,2,0,B|306:193|306:193|298:272,1,102.3,2|0,1:2|2:0,2:0:0:0:
71,87,152434,2,0,B|79:138|79:138|82:143|82:143|93:204,1,102.3,2|2,1:2|2:0,2:0:0:0:
264,13,152734,1,2,1:2:0:0:
164,241,152884,5,2,2:0:0:0:
164,241,152959,1,0,1:0:0:0:
164,241,153034,2,0,P|121:182|-27:218,1,204.6,2|2,1:0|1:2,2:0:0:0:
175,0,153484,2,0,P|166:51|155:101,1,102.3,2|0,2:0|1:0,2:0:0:0:
67,59,153784,1,0,2:0:0:0:
66,268,153934,2,0,B|72:318|72:318|76:324|76:324|82:389,1,102.3,0|2,1:2|2:0,2:0:0:0:
298,132,154234,6,0,B|330:99|330:99|313:181,1,102.3,0|0,1:0|2:0,2:0:0:0:
459,303,154534,2,0,P|402:279|362:270,1,102.3,2|0,1:2|2:0,2:0:0:0:
240,358,154834,1,2,1:2:0:0:
400,189,154984,1,2,2:0:0:0:
240,358,155134,1,2,1:2:0:0:
169,101,155284,1,2,2:0:0:0:
279,280,155434,6,0,B|230:273|230:273|228:270|228:270|180:265,1,102.3,0|0,1:0|2:0,2:0:0:0:
361,31,155734,1,2,1:2:0:0:
361,31,156034,6,0,B|311:38|311:38|309:41|309:41|261:46,1,102.3,2|0,1:2|2:0,2:0:0:0:
98,302,156334,1,2,1:2:0:0:
47,41,156484,1,2,2:0:0:0:
6,234,156634,6,0,P|52:193|38:131,1,102.3,0|0,2:0|2:0,2:0:0:0:
237,123,156934,2,0,P|191:142|145:121,1,102.3,0|0,2:0|2:0,2:0:0:0:
47,41,157234,6,0,L|61:-15,1,51.15,8|8,2:0|2:0,2:0:0:0:
34,55,157384,5,8,2:0:0:0:
31,105,157459,1,8,2:0:0:0:
52,155,157534,1,8,2:0:0:0:
47,206,157609,1,8,2:0:0:0:
70,256,157684,6,0,B|49:303|49:303|113:285|236:252,1,223.2,6|0,1:2|1:2,2:0:0:0:
392,384,158134,2,0,P|406:321|389:288,1,55.8,10|0,2:0|2:0,2:0:0:0:
225,237,158284,2,0,P|228:271|237:334,1,55.8,0|0,1:0|2:0,2:0:0:0:
475,296,158434,5,8,2:0:0:0:
434,300,158509,1,8,2:0:0:0:
392,307,158584,1,8,2:0:0:0:
352,317,158659,1,8,2:0:0:0:
313,332,158734,2,0,P|317:301|323:256,1,55.8,8|8,2:0|2:0,2:0:0:0:
376,116,158884,6,0,P|359:90|350:54,3,55.8,6|0|0|0,1:2|2:0|2:0|2:0,2:0:0:0:
468,8,159184,2,0,P|445:46|440:71,1,55.8,0|0,1:2|2:0,2:0:0:0:
398,218,159334,6,0,P|331:189|248:179,1,111.6,10|0,2:0|2:0,2:0:0:0:
240,104,159559,1,0,1:0:0:0:
245,90,159634,5,2,1:2:0:0:
208,109,159709,1,0,1:2:0:0:
167,108,159784,1,0,1:2:0:0:
132,86,159859,1,0,1:2:0:0:
112,50,159934,2,0,P|126:10|130:-8,1,55.8,0|0,1:2|1:2,2:0:0:0:
22,159,160084,6,0,B|7:146|-3:128|-3:128|15:180|34:259,1,167.4,6|0,1:2|2:0,2:0:0:0:
156,384,160384,2,0,L|169:317,1,55.8,0|0,1:2|2:0,2:0:0:0:
279,315,160534,6,0,P|212:295|75:253,1,167.4,10|0,2:0|2:0,2:0:0:0:
20,368,160834,6,0,P|58:359|83:340,1,55.8,8|8,2:0|2:0,2:0:0:0:
200,81,160984,1,8,2:0:0:0:
198,123,161059,1,8,2:0:0:0:
199,165,161134,1,8,2:0:0:0:
201,207,161209,1,8,2:0:0:0:
206,249,161284,6,0,P|277:226|416:219,1,167.4,6|0,1:2|2:0,2:0:0:0:
455,57,161584,2,0,P|440:97|438:126,1,55.8,0|0,1:2|2:0,2:0:0:0:
444,346,161734,2,0,P|505:314|491:207,1,167.4,10|0,2:0|2:0,2:0:0:0:
448,123,162034,6,0,P|413:128|374:136,1,55.8,8|0,2:0|2:0,2:0:0:0:
344,43,162184,2,0,P|325:21|308:0,1,55.8,0|0,1:0|2:0,2:0:0:0:
298,131,162334,2,0,P|289:158|279:184,1,55.8,8|0,2:0|2:0,2:0:0:0:
104,51,162484,6,0,B|155:56|155:56|160:59|160:59|232:66,1,111.6,6|0,1:2|2:0,2:0:0:0:
214,64,162784,1,0,1:2:0:0:
3,169,162934,6,0,B|42:136|42:136|31:200|17:287,1,167.4,10|0,2:0|2:0,2:0:0:0:
12,267,163234,1,8,2:0:0:0:
47,247,163309,1,8,2:0:0:0:
88,253,163384,1,8,2:0:0:0:
116,283,163459,1,8,2:0:0:0:
119,324,163534,2,0,P|111:352|106:382,1,55.8,8|8,2:0|2:0,2:0:0:0:
312,345,163684,6,0,P|256:351|198:358,1,111.6,6|0,1:2|2:0,2:0:0:0:
312,345,163984,1,0,1:2:0:0:
143,176,164134,2,0,B|135:132|135:132|278:158,1,167.4,10|0,2:0|2:0,2:0:0:0:
303,265,164434,5,2,1:2:0:0:
347,235,164509,1,0,1:2:0:0:
350,181,164584,1,0,1:2:0:0:
256,107,164734,2,0,L|271:183,1,55.8,8|8,2:0|2:0,2:0:0:0:
422,289,164884,6,0,P|482:298|544:310,1,111.6,6|0,1:2|2:0,2:0:0:0:
422,289,165184,1,0,1:2:0:0:
504,56,165334,2,0,B|482:80|482:80|450:89|335:99,1,167.4,10|0,2:0|2:0,2:0:0:0:
201,29,165634,6,0,P|228:39|251:55,1,55.8,8|8,2:0|2:0,2:0:0:0:
420,203,165784,1,8,2:0:0:0:
379,203,165859,1,8,2:0:0:0:
338,210,165934,1,8,2:0:0:0:
299,225,166009,1,8,2:0:0:0:
263,248,166084,6,0,B|242:285|242:285|260:210|271:125,1,167.4,6|0,1:2|2:0,2:0:0:0:
340,311,166384,2,0,P|366:322|390:337,1,55.8,2|0,1:2|2:0,2:0:0:0:
112,245,166534,5,10,2:0:0:0:
92,296,166609,1,0,2:0:0:0:
107,349,166684,1,2,1:2:0:0:
150,382,166759,1,0,2:0:0:0:
205,384,166834,6,0,P|236:342|277:318,1,69.75,10|0,2:0|2:0,2:0:0:0:
266,161,166984,1,0,1:0:0:0:
269,156,167059,2,0,P|264:206|272:242,1,69.75,10|0,2:0|2:0,2:0:0:0:
415,317,167209,1,0,1:0:0:0:
418,326,167284,2,0,P|370:301|333:295,1,69.75,10|0,2:0|2:0,2:0:0:0:
136,208,167434,6,0,P|62:222|40:226,1,97.65,2|0,2:1|2:0,2:0:0:0:
31,314,168634,6,0,B|60:190|-35:261|2:89,1,181.35,6|0,1:2|2:0,2:0:0:0:
31,314,168934,2,0,P|80:324|107:339,1,60.45,10|0,2:0|2:0,2:0:0:0:
189,139,169084,1,0,2:0:0:0:
266,376,169234,6,0,P|313:335|305:266,1,120.9,2|0,1:2|2:0,2:0:0:0:
242,219,169459,1,0,1:0:0:0:
237,214,169534,2,0,P|231:247|224:280,1,60.45,10|0,2:0|2:0,2:0:0:0:
416,131,169684,6,0,B|477:123|477:123|346:99,1,181.35,2|0,1:2|2:0,2:0:0:0:
169,17,169984,2,0,B|118:34|118:34|212:65,1,120.9,2|8,1:2|2:0,2:0:0:0:
280,0,170209,1,0,1:0:0:0:
283,9,170284,6,0,P|275:43|270:77,1,60.45,2|0,2:0|2:0,2:0:0:0:
149,174,170434,2,0,P|161:232|166:293,1,120.9,0|0,1:0|1:0,2:0:0:0:
406,359,170734,2,0,P|459:321|445:215,1,181.35,10|0,2:0|2:0,2:0:0:0:
416,384,171034,6,0,P|354:359|223:349,1,181.35,6|0,1:2|2:0,2:0:0:0:
166,293,171334,1,10,2:0:0:0:
354,184,171484,1,0,2:0:0:0:
83,342,171634,2,0,P|81:281|71:222,1,120.9,2|0,1:2|2:0,2:0:0:0:
248,15,171934,1,10,2:0:0:0:
0,183,172084,6,0,B|127:157|44:246|209:198,1,181.35,2|0,1:2|2:0,2:0:0:0:
270,148,172384,1,2,1:2:0:0:
83,342,172534,1,10,2:0:0:0:
13,35,172684,1,2,1:2:0:0:
270,148,172834,6,0,P|186:160|89:175,1,181.35,2|0,1:2|2:0,2:0:0:0:
0,183,173134,2,0,B|-1:132|-1:132|20:241,1,120.9,10|2,2:0|1:2,2:0:0:0:
167,370,173359,1,0,1:0:0:0:
172,375,173434,6,0,B|213:349|213:349|181:236,1,120.9,6|0,1:2|2:0,2:0:0:0:
300,106,173734,2,0,B|306:39|306:39|269:147,1,181.35,10|0,2:0|2:0,2:0:0:0:
354,288,174034,2,0,P|296:187|181:187,1,241.8,2|10,1:2|2:0,2:0:0:0:
109,267,174409,1,0,1:0:0:0:
105,259,174484,6,0,B|88:290|88:290|198:342,1,120.9,2|0,1:2|2:0,2:0:0:0:
245,276,174784,5,2,1:2:0:0:
403,95,174934,2,0,B|413:151|413:151|410:154|410:154|420:212,1,120.9,10|2,2:0|2:0,2:0:0:0:
421,213,175159,1,0,1:0:0:0:
421,213,175234,1,0,1:0:0:0:
354,288,175384,1,2,1:2:0:0:
410,382,175534,1,10,2:0:0:0:
485,340,175684,2,0,B|495:330|495:330|487:264,1,60.45,2|0,1:2|2:0,2:0:0:0:
354,288,175834,6,0,P|287:275|158:259,1,181.35,6|0,1:2|2:0,2:0:0:0:
59,312,176134,2,0,P|45:263|121:213,1,120.9,10|0,2:0|2:0,2:0:0:0:
241,18,176434,6,0,B|273:47|273:47|245:142,1,120.9,2|0,1:2|2:0,2:0:0:0:
118,112,176659,1,0,1:0:0:0:
109,111,176734,2,0,P|78:106|23:99,1,60.45,10|0,2:0|2:0,2:0:0:0:
174,260,176884,6,0,P|238:248|336:240,1,120.9,2|2,1:2|2:0,2:0:0:0:
417,341,177184,1,0,1:0:0:0:
484,82,177334,2,0,B|471:33|471:33|459:125,1,120.9,8|2,2:0|1:2,2:0:0:0:
493,244,177559,1,0,1:0:0:0:
495,254,177634,6,0,L|506:329,1,60.45,2|0,1:2|1:2,2:0:0:0:
347,172,177784,2,0,P|342:141|338:112,1,60.45,0|0,1:2|1:2,2:0:0:0:
302,372,177934,1,10,2:0:0:0:
259,356,178009,1,8,2:0:0:0:
215,347,178084,1,8,2:0:0:0:
169,344,178159,1,8,2:0:0:0:
124,347,178234,6,0,B|101:318|74:314|74:314|80:265|133:235|171:259,1,181.35,6|0,1:2|2:0,2:0:0:0:
62,239,178534,2,0,P|57:209|54:179,1,60.45,10|0,2:0|2:0,2:0:0:0:
184,39,178684,1,0,2:0:0:0:
290,247,178834,6,0,P|353:265|408:290,1,120.9,2|0,1:0|1:0,2:0:0:0:
491,368,179059,1,0,1:0:0:0:
498,374,179134,2,0,L|488:306,1,60.45,10|0,2:0|2:0,2:0:0:0:
333,92,179284,6,0,B|327:22|327:22|293:172,1,181.35,2|0,1:2|2:0,2:0:0:0:
236,381,179584,2,0,B|201:367|201:367|189:260,1,120.9,2|8,1:2|2:0,2:0:0:0:
290,247,179809,1,0,1:0:0:0:
298,244,179884,6,0,P|289:275|279:313,1,60.45,2|8,2:0|2:0,2:0:0:0:
112,338,180034,2,0,P|61:345|-7:356,1,120.9,0|0,1:0|1:0,2:0:0:0:
9,95,180334,2,0,B|120:106|35:176|177:189,1,181.35,10|0,2:0|2:0,2:0:0:0:
0,109,180634,6,0,P|17:41|129:42,1,181.35,6|0,1:2|2:0,2:0:0:0:
198,0,180934,1,10,2:0:0:0:
239,221,181084,1,0,2:0:0:0:
400,70,181234,2,0,B|366:82|366:82|350:183,1,120.9,2|0,1:2|1:2,2:0:0:0:
189,366,181534,1,10,2:0:0:0:
512,258,181684,6,0,B|417:235|457:317|328:283,1,181.35,2|0,1:0|2:0,2:0:0:0:
239,221,181984,1,0,2:0:0:0:
465,359,182134,1,10,2:0:0:0:
433,0,182284,1,2,1:2:0:0:
239,221,182434,6,0,P|327:242|416:264,1,181.35,2|0,1:2|2:0,2:0:0:0:
512,258,182734,2,0,B|511:205|511:205|487:299,1,120.9,10|0,2:0|2:0,2:0:0:0:
328,381,182959,1,0,1:0:0:0:
321,380,183034,6,0,B|291:372|291:372|322:247,1,120.9,6|0,1:2|2:0,2:0:0:0:
216,81,183334,2,0,B|204:12|204:12|281:148,1,181.35,10|0,2:0|2:0,2:0:0:0:
383,179,183634,6,0,P|256:207|128:228,1,241.8,2|10,1:2|2:0,2:0:0:0:
71,376,184009,1,0,1:0:0:0:
64,370,184084,2,0,L|136:386,1,60.45,2|0,1:2|2:0,2:0:0:0:
257,347,184234,6,0,B|287:326|287:326|254:212,1,120.9,0|0,2:0|1:0,2:0:0:0:
172,8,184534,2,0,B|161:65|161:65|162:74|162:74|143:179,1,120.9,10|0,2:0|1:0,2:0:0:0:
68,176,184759,1,0,1:0:0:0:
61,179,184834,6,0,B|46:161|46:161|55:108,1,60.45,2|0,1:2|2:0,2:0:0:0:
36,21,184984,1,0,1:0:0:0:
145,225,185134,2,0,P|222:236|305:256,1,120.9,10|0,2:0|1:0,2:0:0:0:
393,340,185359,1,0,1:0:0:0:
402,347,185434,6,0,B|438:333|438:333|416:245,1,120.9,6|0,1:2|2:0,2:0:0:0:
476,25,185734,1,10,2:0:0:0:
291,159,185884,1,0,2:0:0:0:
291,159,185959,1,0,1:0:0:0:
291,159,186034,6,0,B|274:126|274:126|416:172|416:172|445:180,1,181.35,2|0,1:2|2:0,2:0:0:0:
311,323,186334,2,0,L|222:338,1,60.45,10|0,2:0|2:0,2:0:0:0:
125,381,186484,1,0,1:0:0:0:
125,381,186559,1,0,2:0:0:0:
125,381,186634,6,0,B|138:328|138:328|144:329|144:329|162:259,1,120.9,10|0,2:0|1:0,2:0:0:0:
260,31,186934,2,0,B|276:61|276:61|191:101,1,120.9,10|0,2:0|1:0,2:0:0:0:
47,304,187234,6,0,L|-14:325,1,60.45,2|0,1:2|1:2,2:0:0:0:
119,61,187384,2,0,L|97:-6,1,60.45,2|0,1:2|1:2,2:0:0:0:
22,172,187534,5,10,2:0:0:0:
65,183,187609,1,8,2:0:0:0:
109,196,187684,1,10,2:0:0:0:
151,212,187759,1,8,2:0:0:0:
193,230,187834,6,0,B|204:262|193:289|193:289|270:174,1,181.35,6|0,2:0|2:0,2:0:0:0:
312,117,188134,1,10,2:0:0:0:
473,351,188284,2,0,P|444:295|361:294,1,120.9,2|0,1:0|2:0,2:0:0:0:
350,361,188509,1,0,1:0:0:0:
350,361,188584,1,0,1:0:0:0:
498,187,188734,1,10,2:0:0:0:
288,0,188884,6,0,P|294:59|312:117,1,120.9,2|0,1:0|2:0,2:0:0:0:
126,329,189184,2,0,P|143:271|150:211,1,120.9,0|10,1:0|2:0,2:0:0:0:
396,159,189484,1,0,1:0:0:0:
396,159,189559,1,0,1:0:0:0:
396,159,189634,5,2,1:2:0:0:
121,30,189784,1,2,1:2:0:0:
219,365,189934,2,0,B|238:336|275:325|275:325|247:313|199:340,1,120.9,10|2,2:0|2:0,2:0:0:0:
60,214,190234,6,0,P|147:220|205:155,1,181.35,6|2,1:2|2:0,2:0:0:0:
210,63,190534,1,10,2:0:0:0:
359,276,190684,2,0,B|390:287|407:309|407:309|369:162,1,181.35,2|0,1:0|2:0,2:0:0:0:
426,115,190984,1,2,1:2:0:0:
335,363,191134,1,10,2:0:0:0:
135,193,191284,6,0,P|80:177|23:148,1,120.9,2|0,1:0|2:0,2:0:0:0:
329,22,191584,2,0,B|371:12|391:2|391:2|360:32|338:65,1,120.9,0|8,1:2|2:0,2:0:0:0:
207,293,191884,1,0,1:0:0:0:
207,293,191959,1,0,1:0:0:0:
207,293,192034,6,0,P|228:337|233:368,1,60.45,10|0,2:0|2:0,2:0:0:0:
226,118,192184,2,0,P|247:74|252:43,1,60.45,2|0,1:2|2:0,2:0:0:0:
0,243,192334,1,10,2:0:0:0:
34,213,192409,1,0,1:2:0:0:
75,194,192484,1,2,1:2:0:0:
120,188,192559,1,0,1:2:0:0:
164,196,192634,6,0,P|238:216|369:243,1,181.35,6|0,1:2|2:0,2:0:0:0:
439,208,192934,1,10,2:0:0:0:
168,346,193084,2,0,P|192:292|247:269,1,120.9,2|0,1:0|2:0,2:0:0:0:
326,332,193309,1,0,1:0:0:0:
326,332,193384,1,0,1:0:0:0:
484,119,193534,1,10,2:0:0:0:
206,0,193684,6,0,B|215:62|215:62|218:66|218:66|229:140,1,120.9,2|0,1:0|2:0,2:0:0:0:
410,375,193984,2,0,B|456:335|456:335|430:253,1,120.9,0|8,1:0|2:0,2:0:0:0:
301,51,194284,1,0,1:2:0:0:
301,51,194359,1,0,1:2:0:0:
301,51,194434,5,0,1:2:0:0:
213,344,194584,1,2,1:2:0:0:
22,149,194734,2,0,P|86:162|155:176,1,120.9,10|2,2:0|2:0,2:0:0:0:
31,381,195034,6,0,P|63:295|182:295,1,181.35,6|0,1:2|2:0,2:0:0:0:
213,344,195334,1,10,2:0:0:0:
296,107,195484,2,0,B|324:91|338:63|338:63|309:194,1,181.35,2|0,1:0|2:0,2:0:0:0:
373,243,195784,1,0,1:0:0:0:
254,26,195934,1,10,2:0:0:0:
467,216,196084,6,0,B|455:275|455:275|450:279|450:279|438:341,1,120.9,2|0,1:0|2:0,2:0:0:0:
183,135,196384,2,0,B|139:94|139:94|164:39,1,120.9,2|10,1:0|2:0,2:0:0:0:
383,71,196684,2,0,P|414:65|450:60,1,60.45,2|0,1:2|2:0,2:0:0:0:
356,380,196834,5,0,2:0:0:0:
319,337,196909,1,0,1:0:0:0:
270,311,196984,1,2,1:2:0:0:
215,303,197059,1,0,1:0:0:0:
161,315,197134,1,10,2:0:0:0:
107,302,197209,1,0,1:2:0:0:
60,271,197284,1,2,1:2:0:0:
28,226,197359,1,0,1:2:0:0:
13,173,197434,6,0,B|-26:217|-26:217|164:175,1,195.3,14|0,2:0|2:0,2:0:0:0:
175,104,197734,2,0,P|180:72|188:21,1,65.1,10|0,2:0|2:0,2:0:0:0:
274,285,197884,2,0,P|335:298|406:316,1,130.2,2|8,1:2|2:0,2:0:0:0:
274,285,198184,1,0,2:0:0:0:
507,210,198334,6,0,L|487:288,1,65.1,10|0,2:0|2:0,2:0:0:0:
362,384,198484,2,0,L|378:321,1,65.1,2|0,1:2|2:0,2:0:0:0:
464,65,198634,6,0,P|428:125|362:114,1,130.2,8|0,2:0|2:0,2:0:0:0:
285,57,198859,1,0,1:0:0:0:
276,49,198934,2,0,B|287:112|287:112|292:114|292:114|306:182,1,130.2,10|2,2:0|1:2,2:0:0:0:
222,345,199159,1,0,1:0:0:0:
226,352,199234,6,0,L|151:335,1,65.1,10|0,2:0|2:0,2:0:0:0:
16,180,199384,1,2,1:2:0:0:
20,181,199534,1,10,2:0:0:0:
18,185,199684,1,2,1:2:0:0:
264,38,199834,6,0,B|242:169|242:169|205:180|179:224,1,195.3,10|0,2:0|2:0,2:0:0:0:
126,135,200134,2,0,P|118:86|108:53,1,65.1,10|0,2:0|2:0,2:0:0:0:
266,257,200284,2,0,P|330:274|414:305,1,130.2,2|8,1:2|2:0,2:0:0:0:
266,257,200584,1,0,2:0:0:0:
505,91,200734,6,0,L|434:109,1,65.1,10|0,2:0|2:0,2:0:0:0:
420,251,200884,2,0,L|349:269,1,65.1,0|0,2:0|2:0,2:0:0:0:
203,364,201034,6,0,B|189:371|175:386|175:386|186:344|210:238,1,130.2,8|2,2:0|1:2,2:0:0:0:
163,189,201259,1,0,1:0:0:0:
155,181,201334,2,0,P|217:163|245:96,1,130.2,10|2,2:0|1:2,2:0:0:0:
205,11,201559,1,0,1:0:0:0:
198,6,201634,6,0,L|220:149,1,130.2,10|2,2:0|1:2,2:0:0:0:
36,360,201934,1,8,2:0:0:0:
10,318,202009,1,8,2:0:0:0:
4,270,202084,1,10,2:0:0:0:
17,224,202159,1,8,2:0:0:0:
49,187,202234,6,0,P|121:205|211:219,1,130.2,14|0,2:0|2:0,2:0:0:0:
263,274,202459,1,0,1:0:0:0:
263,274,202534,2,0,L|280:187,1,65.1,10|0,2:0|2:0,2:0:0:0:
413,113,202684,6,0,B|435:79|435:79|330:112,1,130.2,2|8,1:2|2:0,2:0:0:0:
258,61,202909,1,0,1:0:0:0:
258,61,202984,2,0,L|241:148,1,65.1,0|0,2:0|2:0,2:0:0:0:
338,348,203134,1,10,2:0:0:0:
85,247,203284,6,0,P|73:203|149:144,1,130.2,2|8,1:2|2:0,2:0:0:0:
399,13,203584,2,0,P|446:53|438:115,1,130.2,0|10,2:0|2:0,2:0:0:0:
478,206,203809,1,0,1:0:0:0:
481,212,203884,6,0,L|407:193,1,65.1,2|0,1:2|2:0,2:0:0:0:
218,305,204034,5,10,2:0:0:0:
270,288,204109,1,0,1:0:0:0:
309,328,204184,1,2,1:2:0:0:
302,339,204259,1,0,1:0:0:0:
289,345,204334,2,0,P|295:306|298:279,2,65.1,10|0|2,2:0|2:0|1:2,2:0:0:0:
229,67,204634,5,14,2:0:0:0:
150,250,204784,1,8,2:0:0:0:
117,253,204859,1,8,2:0:0:0:
85,259,204934,1,10,2:0:0:0:
54,269,205009,1,0,2:0:0:0:
23,281,205084,2,0,P|8:245|-16:212,1,65.1,2|0,1:2|2:0,2:0:0:0:
167,0,205234,6,0,P|140:58|135:141,1,130.2,2|2,2:0|1:2,2:0:0:0:
204,177,205459,1,0,1:0:0:0:
215,183,205534,1,2,1:0:0:0:
511,44,205684,5,14,2:0:0:0:
508,41,205984,1,10,2:0:0:0:
507,48,206284,1,10,2:0:0:0:
511,47,206434,1,10,2:0:0:0:
0,384,206884,5,2,2:0:0:0:
