osu file format v14

[General]
AudioFilename: audio.mp3
AudioLeadIn: 0
PreviewTime: 167434
Countdown: 0
SampleSet: Soft
StackLeniency: 0.3
Mode: 0
LetterboxInBreaks: 0
WidescreenStoryboard: 1

[Editor]
Bookmarks: 22751,31226,61684,72934,114634,114709,127984,138634,148234,157684,170959,173359,174109,180559,206959
DistanceSpacing: 1.3
BeatDivisor: 4
GridSize: 16
TimelineZoom: 2.5

[Metadata]
Title:Additional Memory
TitleUnicode:アディショナルメモリー
Artist:JIN
ArtistUnicode:じん
Creator:Ilay
Version:Insane
Source:カゲロウプロジェクト
Tags:Japanese Reload Rock Ayano Tateyama 楯山文乃 Kagerou Project Daze Days Mekakucity Actors メカクシティアクターズ Shizen no Teki P Teki-P TekiP 自然の敵P Vocaloid Hatsune Miku 初音ミク moph Len Fast JRock J-Rock
BeatmapID:3167836
BeatmapSetID:1521890

[Difficulty]
HPDrainRate:5
CircleSize:3.8
OverallDifficulty:8.2
ApproachRate:9
SliderMultiplier:1.7
SliderTickRate:1

[Events]
//Background and Video events
Video,0,"video.mp4"
0,0,"BG.jpg",0,0
//Break Periods
2,119284,127384
//Storyboard Layer 0 (Background)
//Storyboard Layer 1 (Fail)
//Storyboard Layer 2 (Pass)
//Storyboard Layer 3 (Foreground)
//Storyboard Layer 4 (Overlay)
//Storyboard Sound Samples

[TimingPoints]
13826,300,4,2,1,50,1,0
13826,-133.333333333333,4,2,1,50,0,0
18476,-200,4,2,1,50,0,0
22076,-80,4,2,1,50,0,0
23426,-80,4,2,1,75,0,1
30851,-80,4,2,1,5,0,1
30926,-80,4,2,1,75,0,1
40234,291.26213592233,4,2,1,75,1,1
41399,317.460317460317,4,2,1,75,1,1
41399,-80,4,2,1,75,0,1
42034,300,4,2,1,75,1,0
42184,-80,4,2,1,75,0,0
42484,-133.333333333333,4,2,1,55,0,0
42634,300,4,2,1,55,1,0
42934,-133.333333333333,4,2,1,55,0,0
50884,-133.333333333333,4,2,1,65,0,0
52084,-100,4,2,1,65,0,0
61684,-133.333333333333,4,2,1,55,0,0
68659,-133.333333333333,4,2,1,5,0,0
68734,-133.333333333333,4,2,1,55,0,0
68959,-133.333333333333,4,2,1,5,0,0
69034,-133.333333333333,4,2,1,55,0,0
69409,-133.333333333333,4,2,1,5,0,0
69484,-133.333333333333,4,2,1,55,0,0
69859,-133.333333333333,4,2,1,5,0,0
69934,-133.333333333333,4,2,1,55,0,0
73759,-133.333333333333,4,2,1,5,0,0
73834,-133.333333333333,4,2,1,55,0,0
76159,-133.333333333333,4,2,1,5,0,0
76234,-100,4,2,1,65,0,0
78634,-80,4,2,1,65,0,0
78859,-80,4,2,1,5,0,0
78934,-80,4,2,1,65,0,0
80434,-400,4,2,1,65,0,0
80959,-400,4,2,1,5,0,0
81034,-80,4,2,1,75,0,1
119284,-80,4,2,1,75,0,0
127984,-200,4,2,1,45,0,0
138634,-111.111111111111,4,2,1,55,0,0
148234,-100,4,2,1,60,0,0
157684,-100,4,2,1,65,0,0
166834,-80,4,2,1,65,0,0
167059,-80,4,2,1,70,0,0
167284,-80,4,2,1,75,0,0
167434,-1000,4,2,1,55,0,0
168559,-1000,4,2,1,5,0,0
168634,-80,4,2,1,75,0,1
206959,-80,4,2,1,75,0,0

[Colours]
Combo1 : 212,212,212
Combo2 : 221,0,0
Combo3 : 126,125,122
Combo4 : 250,78,155

[HitObjects]
1,71,13826,6,0,P|44:96|86:86,1,95.6250000000002,2|0,2:0|2:0,2:0:0:0:
109,55,14126,2,0,P|152:29|194:39,1,95.6250000000002,2|0,2:0|2:0,2:0:0:0:
223,71,14426,1,2,2:0:0:0:
223,71,14576,2,0,P|215:101|211:133,1,63.7500000000002,2|0,2:1|2:0,2:0:0:0:
269,209,14876,6,0,L|402:181,1,127.5,2|2,2:0|2:0,2:0:0:0:
498,123,15326,2,0,L|480:217,1,95.6250000000002,2|0,2:0|2:0,2:0:0:0:
472,254,15626,1,2,2:0:0:0:
389,288,15776,2,0,L|404:370,1,63.7500000000002,2|0,2:1|2:0,2:0:0:0:
274,368,16076,6,0,B|232:377|211:340|227:347|206:309|165:319,1,127.5,2|2,2:0|2:0,2:0:0:0:
72,384,16526,2,0,L|54:290,1,95.6250000000002,2|0,2:0|2:0,2:0:0:0:
50,265,16826,1,2,2:0:0:0:
134,201,16976,2,0,L|146:135,1,63.7500000000002,2|0,2:1|2:0,2:0:0:0:
127,35,17276,6,0,B|169:13|169:13|202:48,1,95.6250000000002,2|0,2:0|2:0,2:0:0:0:
221,65,17576,1,2,2:0:0:0:
221,65,17726,1,0,2:0:0:0:
350,15,17876,2,0,L|365:97,1,63.7500000000002,2|0,2:0|2:0,2:0:0:0:
431,15,18176,6,0,L|438:56,1,31.8750000000001,2|0,2:0|2:0,2:0:0:0:
457,132,18326,1,0,2:0:0:0:
457,132,18401,1,0,2:0:0:0:
457,132,18476,6,0,B|426:132|405:161|405:161|435:120|428:61|374:34|315:25|266:85|271:151|328:180|328:180|382:238|374:324|299:389|215:387|154:335|126:273|147:197|205:163|205:163|202:227|255:248,1,977.5,6|0,2:0|2:0,2:0:0:0:
256,249,22076,6,0,B|197:238|197:238|163:262|163:262|105:252,1,159.375,12|0,2:0|2:0,2:0:0:0:
29,234,22376,1,10,2:0:0:0:
26,218,22451,1,4,3:0:0:0:
23,202,22526,2,0,L|13:146,3,53.125,4|8|8|8,3:0|3:0|3:0|3:0,2:0:0:0:
2,311,22826,5,10,2:0:0:0:
146,156,22976,1,10,2:0:0:0:
146,156,23426,6,0,L|162:261,1,106.25,6|0,1:2|2:0,2:0:0:0:
101,339,23726,1,10,2:0:0:0:
189,384,23876,2,0,B|226:377|226:377|242:354|242:354|282:347,1,106.25,2|8,1:2|2:0,2:0:0:0:
389,384,24176,1,2,1:2:0:0:
439,297,24326,2,0,P|448:245|423:199,1,106.25,10|0,2:0|2:0,2:0:0:0:
320,149,24626,5,8,2:0:0:0:
281,254,24776,1,0,1:2:0:0:
209,168,24926,2,0,B|191:140|191:140|113:127,1,106.25,8|0,2:0|1:2,2:0:0:0:
42,199,25226,2,0,P|52:251|60:303,1,106.25,8|0,2:0|1:2,2:0:0:0:
216,164,25526,2,0,P|224:112|234:60,1,106.25,8|0,2:0|1:2,2:0:0:0:
389,0,25826,6,0,P|413:46|404:97,1,106.25,6|0,1:2|2:0,2:0:0:0:
320,149,26126,1,10,2:0:0:0:
399,208,26276,2,0,L|416:312,1,106.25,2|8,1:2|2:0,2:0:0:0:
332,384,26576,1,2,1:2:0:0:
254,305,26726,2,0,P|207:280|156:289,1,106.25,10|0,2:0|2:0,2:0:0:0:
76,372,27026,5,8,2:0:0:0:
4,293,27176,1,0,1:0:0:0:
85,225,27326,2,0,B|91:187|91:187|74:164|74:164|82:124,1,106.25,8|0,2:0|1:0,2:0:0:0:
151,43,27626,1,8,2:0:0:0:
211,130,27776,1,0,1:0:0:0:
315,87,27926,2,0,B|306:32|306:32,3,53.125,10|8|8|8,2:0|2:0|2:0|2:0,2:0:0:0:
379,157,28226,6,0,B|354:296,1,106.25,4|0,1:2|2:0,2:0:0:0:
342,368,28526,1,10,2:0:0:0:
459,340,28676,2,0,P|471:289|443:245,1,106.25,2|8,1:2|2:0,2:0:0:0:
290,304,28976,1,2,1:2:0:0:
204,223,29126,2,0,L|87:202,1,106.25,10|0,2:0|2:0,2:0:0:0:
79,81,29426,5,8,2:0:0:0:
0,165,29576,1,0,1:0:0:0:
90,67,29726,2,0,B|128:61|128:61|151:78|151:78|191:70,1,106.25,8|0,2:0|1:0,2:0:0:0:
296,2,30026,2,0,P|304:54|315:106,1,106.25,8|0,2:0|1:0,2:0:0:0:
426,157,30326,2,0,P|417:209|407:261,1,106.25,8|0,2:0|1:0,2:0:0:0:
293,384,30626,6,0,B|241:397|215:351|235:359|208:314|157:327,1,159.375,10|0,2:0|2:0,2:0:0:0:
146,330,30926,1,10,2:0:0:0:
34,238,31076,1,2,1:2:0:0:
168,188,31226,2,0,P|183:137|158:92,1,106.25,10|0,2:0|1:0,2:0:0:0:
31,41,31526,2,0,P|39:93|49:145,1,106.25,10|0,2:0|1:0,2:0:0:0:
159,92,31826,5,10,2:0:0:0:
117,254,31976,1,0,1:0:0:0:
253,148,32126,1,10,2:0:0:0:
224,259,32276,1,0,1:0:0:0:
370,205,32426,6,0,L|361:152,3,53.125,2|0|2|0,1:2|1:2|1:2|1:2,2:0:0:0:
479,190,32726,2,0,L|465:112,3,53.125,2|0|2|0,1:2|1:2|1:2|1:2,2:0:0:0:
476,369,33026,6,0,P|425:381|381:353,1,106.25,6|0,1:2|2:0,2:0:0:0:
315,284,33326,1,10,2:0:0:0:
224,342,33476,2,0,P|171:331|119:323,1,106.25,2|8,1:2|2:0,2:0:0:0:
13,306,33776,1,2,1:2:0:0:
97,217,33926,2,0,B|91:179|91:179|108:156|108:156|100:116,1,106.25,10|0,2:0|2:0,2:0:0:0:
83,19,34226,5,8,2:0:0:0:
5,110,34376,1,0,1:0:0:0:
95,7,34526,2,0,P|146:18|199:27,1,106.25,8|0,2:0|1:0,2:0:0:0:
343,0,34826,2,0,P|355:50|328:94,1,106.25,8|0,2:0|1:0,2:0:0:0:
189,164,35126,2,0,P|177:214|204:258,1,106.25,8|0,2:0|1:0,2:0:0:0:
332,314,35426,6,0,B|377:306|377:306|386:294|386:294|430:286,1,106.25,6|0,1:2|2:0,2:0:0:0:
512,271,35726,1,10,2:0:0:0:
443,188,35876,2,0,P|453:135|461:83,1,106.25,2|8,1:2|2:0,2:0:0:0:
419,0,36176,1,2,1:2:0:0:
327,94,36326,2,0,P|274:83|222:75,1,106.25,10|0,2:0|2:0,2:0:0:0:
157,19,36626,6,0,B|122:59|122:59|141:108,1,106.25,8|2,2:0|1:2,2:0:0:0:
291,217,36926,2,0,B|273:166|273:166|221:158,1,106.25,8|2,2:0|1:2,2:0:0:0:
52,234,37226,2,0,B|104:244|104:244|137:202,1,106.25,8|2,2:0|1:2,2:0:0:0:
222,75,37526,2,0,L|300:89,3,53.125,10|8|8|8,2:0|2:0|2:0|2:0,2:0:0:0:
363,40,37826,6,0,B|370:83|370:83|372:85|372:85|382:145,1,106.25,6|0,1:2|2:0,2:0:0:0:
404,241,38126,1,10,2:0:0:0:
313,334,38276,2,0,P|263:346|219:319,1,106.25,2|8,1:2|2:0,2:0:0:0:
161,229,38576,1,2,1:2:0:0:
70,338,38726,2,0,P|61:285|51:233,1,106.25,10|0,2:0|2:0,2:0:0:0:
0,143,39026,5,8,2:0:0:0:
79,72,39176,1,0,1:0:0:0:
163,136,39326,2,0,B|208:128|208:128|217:116|217:116|261:108,1,106.25,8|0,2:0|1:0,2:0:0:0:
398,94,39626,1,8,2:0:0:0:
312,1,39776,1,0,1:0:0:0:
407,104,39926,2,0,P|419:154|392:198,1,106.25,10|2,2:0|1:2,2:0:0:0:
249,259,40234,5,10,2:0:0:0:
267,155,40379,1,0,1:2:0:0:
145,241,40525,1,0,1:2:0:0:
163,135,40670,6,0,P|171:89|178:44,2,85,10|0|0,2:0|1:2|1:2,2:0:0:0:
142,251,41107,1,10,2:0:0:0:
277,157,41253,1,0,2:0:0:0:
339,305,41399,6,0,L|329:357,3,53.125,8|0|0|0,1:2|1:2|1:2|1:2,2:0:0:0:
467,267,41716,2,0,L|457:214,3,53.125,0|0|0|0,1:2|1:2|1:2|1:2,2:0:0:0:
440,123,42034,5,6,1:2:0:0:
468,24,42184,2,0,B|460:69|460:69|448:78|448:78|440:122,1,106.25,2|0,1:2|2:0,2:0:0:0:
317,47,42484,6,0,L|192:24,1,127.5,6|0,1:2|1:0,2:0:0:0:
109,10,42934,2,0,L|120:72,1,63.7500000000002,8|0,2:0|2:0,2:0:0:0:
187,120,43234,2,0,L|175:182,1,63.7500000000002,0|0,1:2|2:0,2:0:0:0:
159,263,43534,1,8,2:0:0:0:
57,194,43684,1,2,2:1:0:0:
57,194,43984,6,0,P|43:164|46:135,2,63.7500000000002,2|10|2,1:2|2:0|2:0,2:0:0:0:
159,263,44434,2,0,L|221:251,1,63.7500000000002,2|2,1:2|1:2,2:0:0:0:
302,235,44734,1,10,2:0:0:0:
302,235,44884,1,2,1:2:0:0:
365,164,45034,6,0,P|378:134|375:105,1,63.7500000000002,2|0,2:0|1:0,2:0:0:0:
230,83,45334,2,0,P|248:109|275:121,1,63.7500000000002,10|0,2:0|2:0,2:0:0:0:
367,6,45634,2,0,P|334:8|310:26,1,63.7500000000002,2|0,1:2|1:0,2:0:0:0:
276,121,45934,1,10,2:0:0:0:
375,104,46084,1,2,1:2:0:0:
467,248,46384,6,0,L|479:177,2,63.7500000000002,2|8|2,2:1|2:0|2:0,2:0:0:0:
491,328,46834,1,2,1:2:0:0:
380,304,46984,1,2,1:2:0:0:
380,304,47134,1,8,2:0:0:0:
318,384,47284,6,0,L|167:356,1,127.5,6|0,1:2|1:0,2:0:0:0:
92,322,47734,2,0,P|99:354|104:389,1,63.7500000000002,10|0,2:0|2:0,2:0:0:0:
217,283,48034,2,0,P|221:251|228:220,1,63.7500000000002,0|0,1:2|1:2,2:0:0:0:
250,142,48334,1,8,2:0:0:0:
140,204,48484,1,0,1:0:0:0:
140,204,48784,6,0,P|108:207|80:194,2,63.7500000000002,2|10|2,1:2|2:0|2:0,2:0:0:0:
250,142,49234,2,0,L|261:79,1,63.7500000000002,2|2,1:2|1:2,2:0:0:0:
274,0,49534,1,10,2:0:0:0:
363,86,49684,1,2,1:2:0:0:
450,39,49834,6,0,B|486:16|486:16|471:99,1,127.5,2|10,2:0|2:0,2:0:0:0:
512,313,50434,2,0,P|480:305|449:301,1,63.7500000000002,2|0,1:2|2:0,2:0:0:0:
371,290,50734,1,10,2:0:0:0:
256,360,50884,6,0,L|244:297,1,63.7500000000002,2|0,1:0|2:0,2:0:0:0:
256,284,51184,6,0,L|244:221,1,63.7500000000002,2|0,1:0|2:0,2:0:0:0:
256,208,51484,6,0,L|244:145,1,63.7500000000002,2|0,1:0|2:0,2:0:0:0:
256,132,51784,6,0,L|244:69,1,63.7500000000002,2|0,1:0|2:0,2:0:0:0:
106,6,52084,6,0,B|54:32|54:32|65:93|76:159,1,170,6|0,1:2|1:2,2:0:0:0:
146,213,52534,2,0,P|136:257|129:305,1,85,10|0,2:0|2:0,2:0:0:0:
162,373,52834,1,0,1:2:0:0:
248,307,52984,2,0,B|294:302|279:333|325:329,1,85,0|8,1:2|2:0,2:0:0:0:
402,277,53284,1,0,2:0:0:0:
402,277,53584,5,2,1:2:0:0:
477,331,53734,2,0,P|497:294|491:253,1,85,10|2,2:0|2:0,2:0:0:0:
428,153,54034,2,0,L|445:61,2,85,2|2|10,1:2|1:2|2:0,2:0:0:0:
338,206,54484,1,2,1:2:0:0:
265,118,54634,6,0,L|173:101,1,85,2|2,2:0|1:2,2:0:0:0:
204,208,54934,2,0,L|112:191,1,85,10|0,2:0|2:0,2:0:0:0:
37,177,55234,1,2,1:2:0:0:
37,177,55384,2,0,P|16:213|22:254,1,85,2|10,1:2|2:0,2:0:0:0:
19,351,55684,6,0,P|60:341|102:335,1,85,2|0,2:0|2:0,2:0:0:0:
187,326,55984,1,2,2:0:0:0:
277,384,56134,2,0,B|272:338|303:353|299:307,1,85,8|2,2:0|2:0,2:0:0:0:
265,226,56434,5,2,1:2:0:0:
353,176,56584,1,2,1:2:0:0:
266,125,56734,1,10,2:0:0:0:
371,66,56884,6,0,P|445:67|490:158,1,170,6|0,1:2|1:0,2:0:0:0:
462,215,57334,1,10,2:0:0:0:
353,176,57484,2,0,P|362:217|368:259,1,85,2|0,2:0|1:0,2:0:0:0:
265,226,57784,2,0,P|259:268|249:309,1,85,2|8,1:2|2:0,2:0:0:0:
150,376,58084,6,0,B|94:383|76:331|89:339|72:286|16:293,1,170,2|2,1:2|1:2,2:0:0:0:
107,233,58534,2,0,P|127:196|121:155,1,85,8|0,2:0|2:0,2:0:0:0:
50,116,58834,1,2,1:2:0:0:
128,45,58984,2,0,L|220:62,1,85,2|8,1:2|2:0,2:0:0:0:
337,40,59284,6,0,B|302:3|302:3|313:64|324:130,1,170,6|2,1:2|1:2,2:0:0:0:
333,199,59734,1,10,2:0:0:0:
458,130,59884,2,0,L|465:88,2,42.5,2|2|2,2:0|2:0|1:2,2:0:0:0:
431,288,60184,2,0,L|412:396,2,85,2|10|2,2:0|2:0|2:0,2:0:0:0:
446,210,60634,5,8,2:0:0:0:
312,313,60784,6,0,P|269:318|228:328,1,85,2|0,1:0|2:0,2:0:0:0:
189,175,61084,6,0,P|215:208|244:239,1,85,2|0,3:2|2:0,3:0:0:0:
131,351,61384,6,0,P|146:311|159:270,1,85,2|0,1:2|2:0,2:0:0:0:
189,175,61684,6,0,P|158:118|92:129,1,127.5,6|0,2:0|2:0,2:0:0:0:
65,191,62134,1,10,2:0:0:0:
232,27,62434,6,0,B|271:13|292:48|282:44|302:80|342:66,1,127.5,2|0,1:2|1:0,2:0:0:0:
420,1,62884,1,8,2:0:0:0:
420,0,63034,2,0,P|426:34|432:67,1,63.7500000000002,2|0,2:0|1:0,2:0:0:0:
384,142,63334,2,0,P|390:176|396:209,1,63.7500000000002,8|0,2:0|2:0,2:0:0:0:
454,295,63634,5,2,2:0:0:0:
439,377,63784,1,8,2:0:0:0:
356,363,63934,1,8,2:0:0:0:
371,280,64084,1,8,2:0:0:0:
268,343,64234,6,0,L|142:320,1,127.5,6|0,1:2|1:0,2:0:0:0:
251,223,64684,2,0,L|125:200,1,127.5,10|0,2:0|2:0,2:0:0:0:
47,187,65134,1,2,1:2:0:0:
47,187,65284,1,2,2:0:0:0:
7,111,65434,2,0,P|2:79|17:52,1,63.7500000000002,2|0,1:2|2:0,2:0:0:0:
99,62,65659,1,0,1:0:0:0:
99,62,65734,6,0,L|87:0,2,63.7500000000002,0|0|0,1:0|1:0|1:0,2:0:0:0:
125,200,66184,2,0,L|113:262,2,63.7500000000002,0|2|0,1:0|1:2|1:2,2:0:0:0:
220,95,66634,6,0,P|281:99|304:165,1,127.5,6|0,1:2|1:0,2:0:0:0:
251,223,67084,2,0,L|239:285,2,63.7500000000002,8|0|0,2:0|1:0|2:0,2:0:0:0:
344,297,67534,2,0,L|406:285,1,63.7500000000002,10|2,2:0|2:0,2:0:0:0:
481,230,67834,1,2,1:2:0:0:
404,182,67984,1,8,2:0:0:0:
484,139,68134,2,0,P|488:107|473:80,1,63.7500000000002,2|0,1:2|2:0,2:0:0:0:
378,19,68434,6,0,P|329:10|292:33,1,95.6250000000002,10|0,2:0|2:0,2:0:0:0:
280,52,68734,2,0,P|240:76|194:65,1,95.6250000000002,10|0,2:0|2:0,2:0:0:0:
179,55,69034,6,0,B|133:26|133:26|144:87|155:153,1,159.375,10|0,2:0|2:0,2:0:0:0:
152,144,69484,2,0,B|140:211|140:211|153:231|153:231|142:298,1,159.375,10|0,2:0|2:0,2:0:0:0:
142,313,69934,5,2,1:2:0:0:
142,313,70084,1,2,1:2:0:0:
234,376,70234,2,0,B|268:364|267:328|267:328|278:362|315:361,1,127.5,10|0,2:0|1:0,2:0:0:0:
400,320,70684,1,0,1:2:0:0:
317,253,70834,6,0,P|312:221|327:194,1,63.7500000000002,2|0,1:2|1:2,2:0:0:0:
420,143,71134,2,0,P|425:112|410:84,1,63.7500000000002,2|0,1:2|1:2,2:0:0:0:
319,33,71434,6,0,L|257:21,1,63.7500000000002,6|0,1:2|2:0,2:0:0:0:
217,104,71734,2,0,L|155:92,1,63.7500000000002,2|0,1:0|2:0,2:0:0:0:
48,121,72034,2,0,B|64:51|13:68|28:-1,2,127.5,10|2|2,2:0|1:2|1:2,2:0:0:0:
5,187,72784,1,0,2:0:0:0:
81,249,72934,2,0,L|143:237,1,63.7500000000002,2|0,1:0|2:0,2:0:0:0:
229,220,73234,5,2,1:2:0:0:
298,126,73384,1,8,2:0:0:0:
222,234,73534,2,0,P|214:282|237:324,1,95.6250000000002,2|0,1:2|2:0,2:0:0:0:
253,332,73834,6,0,P|315:320|378:311,1,127.5,14|2,2:0|1:2,2:0:0:0:
459,304,74284,1,8,2:0:0:0:
394,228,74434,2,0,L|381:158,1,63.7500000000002,2|0,1:2|2:0,2:0:0:0:
452,115,74734,5,10,2:0:0:0:
473,6,74884,1,8,2:0:0:0:
473,6,74959,1,8,2:0:0:0:
473,6,75034,2,0,L|403:19,1,63.7500000000002,6|0,1:2|1:2,2:0:0:0:
356,84,75334,2,0,P|325:89|297:74,1,63.7500000000002,2|0,1:2|1:2,2:0:0:0:
223,0,75634,5,2,1:2:0:0:
207,84,75784,1,0,1:2:0:0:
78,12,75934,2,8,L|97:119,1,95.6250000000002,10|0,2:0|2:0,2:0:0:0:
99,123,76234,6,0,P|79:159|85:200,1,85,6|0,1:2|2:0,2:0:0:0:
14,255,76534,2,0,P|42:285|83:291,1,85,2|0,1:2|1:2,2:0:0:0:
113,376,76834,2,0,P|150:358|169:320,1,85,2|0,1:2|1:2,2:0:0:0:
188,229,77134,5,2,1:2:0:0:
253,299,77284,1,2,1:2:0:0:
282,207,77434,1,0,1:2:0:0:
348,278,77584,1,2,1:2:0:0:
377,185,77734,6,0,P|397:147|390:108,1,85,10|10,2:0|2:0,2:0:0:0:
303,4,78034,1,8,2:0:0:0:
258,116,78184,1,10,2:0:0:0:
182,19,78334,1,10,2:0:0:0:
260,132,78484,1,10,2:0:0:0:
117,83,78634,6,0,P|38:144|60:208,1,159.375,6|0,1:2|2:0,2:0:0:0:
57,205,78934,1,0,1:0:0:0:
177,292,79084,2,0,P|269:270|386:254,1,212.5,6|0,1:2|2:0,2:0:0:0:
485,212,79534,6,0,P|474:265|466:316,2,106.25,14|0|0,2:0|1:0|1:0,2:0:0:0:
373,110,79984,6,0,P|365:57|354:5,2,106.25,10|0|0,2:0|1:0|1:0,2:0:0:0:
306,192,80434,6,0,P|270:198|238:181,1,74.375,6|0,2:0|2:0,2:0:0:0:
230,166,81034,6,0,L|95:142,1,106.25,6|0,1:2|2:0,2:0:0:0:
28,80,81334,2,0,P|2:127|11:177,1,106.25,10|0,2:0|2:0,2:0:0:0:
84,221,81634,1,2,1:2:0:0:
84,221,81784,1,0,1:0:0:0:
0,296,81934,1,10,2:0:0:0:
89,366,82084,6,0,B|177:349|177:349|196:323|196:323|285:308,1,212.5,2|2,1:0|2:0,2:0:0:0:
361,293,82534,1,8,2:0:0:0:
466,381,82684,2,0,L|485:276,2,106.25,2|0|2,2:0|1:0|2:1,2:0:0:0:
432,198,83134,2,0,L|413:93,1,106.25,10|0,2:0|2:0,2:0:0:0:
298,150,83434,6,0,B|253:141|253:141|244:128|244:128|199:121,1,106.25,6|0,1:2|2:0,2:0:0:0:
88,53,83734,2,0,P|62:100|71:150,1,106.25,10|0,2:0|2:0,2:0:0:0:
0,238,84034,2,0,P|35:275|87:283,1,106.25,2|0,1:2|2:0,2:0:0:0:
163,210,84334,1,10,2:0:0:0:
244,328,84484,6,0,B|314:340|344:277|319:290|351:226|421:240,1,212.5,2|0,1:0|1:0,2:0:0:0:
493,275,84934,1,8,2:0:0:0:
419,151,85084,1,2,2:0:0:0:
502,288,85234,2,0,P|510:339|484:384,1,106.25,2|0,1:2|1:0,2:0:0:0:
261,251,85534,2,0,L|242:146,1,106.25,10|2,2:0|2:0,2:0:0:0:
271,32,85834,6,0,P|220:20|178:48,1,106.25,6|0,1:2|2:0,2:0:0:0:
92,0,86134,2,0,P|65:44|78:93,1,106.25,10|0,2:0|2:0,2:0:0:0:
6,160,86434,2,0,P|40:199|90:201,1,106.25,2|0,1:2|2:0,2:0:0:0:
161,137,86734,1,10,2:0:0:0:
261,251,86884,2,0,B|294:252|315:227|300:233|321:206|353:209,1,106.25,2|2,1:0|2:0,2:0:0:0:
425,246,87184,1,2,1:2:0:0:
425,246,87334,1,10,2:0:0:0:
320,345,87484,6,0,P|270:335|215:326,1,106.25,2|0,2:0|1:0,2:0:0:0:
133,308,87784,1,2,1:2:0:0:
133,308,87934,1,8,2:0:0:0:
59,384,88084,1,2,2:0:0:0:
138,295,88234,6,0,P|131:242|119:191,1,106.25,6|0,1:2|2:0,2:0:0:0:
53,99,88534,2,0,P|96:70|146:81,1,106.25,10|0,2:0|2:0,2:0:0:0:
235,152,88834,2,0,B|280:143|280:143|289:130|289:130|334:123,1,106.25,2|0,1:2|2:0,2:0:0:0:
413,108,89134,5,8,2:0:0:0:
413,108,89284,1,2,1:0:0:0:
494,208,89434,2,0,L|513:103,1,106.25,2|0,2:0|1:0,2:0:0:0:
337,208,89734,2,0,P|323:254|353:300,1,106.25,8|2,2:0|2:0,2:0:0:0:
470,359,90034,6,0,L|480:307,3,53.125,2|0|0|0,1:2|1:2|1:2|1:2,2:0:0:0:
335,378,90334,1,2,1:2:0:0:
318,374,90409,1,0,1:2:0:0:
303,371,90484,1,8,2:0:0:0:
287,369,90559,1,8,2:0:0:0:
272,366,90634,6,0,B|226:359|226:359|213:368|213:368|169:359,1,106.25,6|0,1:2|2:0,2:0:0:0:
72,280,90934,2,0,P|63:335|53:385,1,106.25,10|0,2:0|2:0,2:0:0:0:
200,263,91234,2,0,P|189:210|181:158,1,106.25,2|0,1:2|1:0,2:0:0:0:
164,78,91534,1,10,2:0:0:0:
292,138,91684,6,0,B|325:139|346:114|331:120|352:93|384:96,1,106.25,2|0,1:0|2:0,2:0:0:0:
487,189,91984,2,0,P|497:239|469:283,1,106.25,2|8,1:2|2:0,2:0:0:0:
337,315,92284,2,0,L|327:367,2,53.125,2|0|0,1:2|1:2|1:2,2:0:0:0:
357,219,92584,1,2,2:1:0:0:
200,263,92734,2,0,P|147:252|95:244,1,106.25,10|0,2:0|2:0,2:0:0:0:
5,275,93034,6,0,P|-2:223|22:178,1,106.25,6|0,1:2|2:0,2:0:0:0:
0,57,93334,2,0,P|46:33|97:43,1,106.25,10|0,2:0|2:0,2:0:0:0:
163,127,93634,1,2,1:2:0:0:
242,27,93784,1,0,1:2:0:0:
291,144,93934,1,10,2:0:0:0:
370,44,94084,2,0,P|448:50|478:167,1,212.5,6|0,1:2|2:0,2:0:0:0:
403,221,94534,5,10,2:0:0:0:
403,221,94684,1,2,2:0:0:0:
479,294,94834,1,2,1:2:0:0:
377,323,94984,1,2,1:2:0:0:
301,250,95134,2,0,P|244:237|185:230,1,106.25,10|0,2:0|2:0,2:0:0:0:
86,295,95434,6,0,B|21:277|29:208|29:208|55:164|72:118,2,212.5,6|10|2,1:2|2:0|1:2,2:0:0:0:
353,84,96334,1,10,2:0:0:0:
264,40,96484,2,0,P|282:131|300:252,1,212.5,2|2,1:0|1:2,2:0:0:0:
266,333,96934,6,0,P|318:340|363:316,1,106.25,10|0,2:0|2:0,2:0:0:0:
424,375,97234,2,0,P|446:327|437:277,1,106.25,2|0,1:2|2:0,2:0:0:0:
512,237,97534,2,0,P|474:200|423:193,1,106.25,10|0,2:0|2:0,2:0:0:0:
299,249,97834,6,0,B|229:261|199:198|224:211|192:147|122:161,2,212.5,6|10|2,1:2|2:0|1:2,2:0:0:0:
423,192,98584,1,0,2:0:0:0:
303,71,98734,2,0,P|278:116|285:168,1,106.25,10|0,2:0|2:0,2:0:0:0:
460,104,99034,6,0,P|447:52|440:0,1,106.25,2|0,1:2|1:2,2:0:0:0:
396,279,99334,2,0,P|408:330|415:383,1,106.25,10|0,2:0|1:2,2:0:0:0:
299,249,99634,6,0,P|301:222|308:196,3,53.125,6|10|10|8,1:2|2:0|2:0|2:0,2:0:0:0:
234,332,99934,2,0,P|240:357|243:384,3,53.125,10|8|8|8,2:0|2:0|2:0|2:0,2:0:0:0:
180,272,100234,6,0,L|61:252,1,106.25,6|0,1:2|2:0,2:0:0:0:
0,241,100534,1,10,2:0:0:0:
48,138,100684,6,0,L|166:118,1,106.25,2|0,1:0|2:0,2:0:0:0:
228,107,100984,1,2,1:2:0:0:
153,33,101134,1,10,2:0:0:0:
241,115,101284,6,0,B|287:108|287:108|300:117|300:117|344:108,1,106.25,2|0,1:0|2:0,2:0:0:0:
430,75,101584,5,2,1:2:0:0:
480,155,101734,1,10,2:0:0:0:
409,219,101884,2,0,L|398:280,2,53.125,0|0|10,1:0|1:0|2:0,2:0:0:0:
330,345,102184,2,0,P|382:348|434:362,2,106.25,2|8|2,2:0|2:0|2:0,2:0:0:0:
209,384,102634,6,0,L|189:265,1,106.25,6|0,1:2|2:0,2:0:0:0:
178,204,102934,1,10,2:0:0:0:
304,249,103084,6,0,L|324:130,1,106.25,2|0,1:0|2:0,2:0:0:0:
335,69,103384,1,2,2:0:0:0:
250,4,103534,1,10,2:0:0:0:
188,90,103684,2,0,P|98:133|28:61,1,212.5,2|0,1:0|1:0,2:0:0:0:
113,48,104134,2,0,L|93:167,1,106.25,8|0,2:0|1:0,2:0:0:0:
35,220,104434,6,0,P|41:245|44:274,3,53.125,2|0|0|0,1:2|1:2|1:2|1:2,2:0:0:0:
121,319,104734,1,2,1:2:0:0:
140,316,104809,1,0,1:2:0:0:
157,313,104884,1,2,1:2:0:0:
174,310,104959,1,0,1:2:0:0:
192,307,105034,6,0,B|236:313|236:313|246:326|246:326|290:334,1,106.25,6|0,1:2|2:0,2:0:0:0:
354,290,105334,1,10,2:0:0:0:
274,237,105484,6,0,B|267:192|267:192|254:182|254:182|246:138,1,106.25,2|0,1:0|2:0,2:0:0:0:
291,75,105784,1,2,2:0:0:0:
209,6,105934,1,10,2:0:0:0:
142,88,106084,6,0,B|1:63|1:63|36:79|47:116,1,212.5,2|2,1:0|2:0,2:0:0:0:
40,193,106534,1,8,2:0:0:0:
161,174,106684,2,0,P|163:203|171:232,2,53.125,0|0|2,1:0|1:0|1:2,2:0:0:0:
82,281,106984,5,2,1:2:0:0:
167,343,107134,1,10,2:0:0:0:
250,277,107284,1,2,2:0:0:0:
335,339,107434,6,0,P|383:352|426:322,1,106.25,6|0,1:2|2:0,2:0:0:0:
451,240,107734,1,10,2:0:0:0:
366,178,107884,6,0,P|317:164|274:194,1,106.25,2|0,1:0|2:0,2:0:0:0:
250,277,108184,1,2,2:0:0:0:
161,174,108334,1,10,2:0:0:0:
82,281,108484,6,0,P|66:170|46:71,1,212.5,2|2,1:0|2:0,2:0:0:0:
139,51,108934,2,0,P|142:25|149:0,3,53.125,10|2|2|0,2:0|2:0|1:0|2:0,2:0:0:0:
217,79,109234,1,10,2:0:0:0:
236,76,109309,1,0,1:0:0:0:
253,73,109384,1,0,1:0:0:0:
270,70,109459,1,0,2:0:0:0:
288,67,109534,6,0,B|332:73|332:73|342:86|342:86|386:94,1,106.25,10|2,2:0|2:0,2:0:0:0:
483,111,109834,6,0,P|509:155|498:205,1,106.25,6|0,2:0|2:0,2:0:0:0:
423,282,110134,1,10,2:0:0:0:
350,204,110284,1,2,1:2:0:0:
302,299,110434,1,8,2:0:0:0:
229,221,110584,1,0,1:2:0:0:
167,329,110734,6,0,P|119:339|71:312,1,106.25,10|2,2:0|1:0,2:0:0:0:
40,233,111034,1,8,2:0:0:0:
129,174,111184,1,2,1:0:0:0:
48,104,111334,2,0,B|29:0,1,106.25,10|2,2:0|1:2,2:0:0:0:
141,28,111634,1,10,2:0:0:0:
141,28,111784,6,0,L|260:48,1,106.25,2|10,1:2|2:0,2:0:0:0:
324,59,112084,1,2,1:2:0:0:
418,13,112234,6,0,P|444:54|435:108,1,106.25,14|0,2:0|2:0,2:0:0:0:
349,160,112534,1,10,2:0:0:0:
431,225,112684,1,2,1:0:0:0:
329,255,112834,1,8,2:0:0:0:
411,321,112984,1,2,1:2:0:0:
305,352,113134,6,0,P|253:341|201:334,1,106.25,10|2,2:0|2:0,2:0:0:0:
67,384,113434,2,0,P|41:343|50:289,1,106.25,10|2,0:2|1:2,2:0:0:0:
129,218,113734,1,10,2:0:0:0:
49,116,113884,1,0,1:0:0:0:
136,234,114034,1,10,2:0:0:0:
181,94,114184,1,2,1:2:0:0:
262,206,114334,5,10,2:0:0:0:
277,208,114409,1,8,2:0:0:0:
291,210,114484,1,8,2:0:0:0:
306,213,114559,1,8,2:0:0:0:
319,215,114634,6,0,P|370:204|422:197,1,106.25,6|2,2:0|2:0,2:0:0:0:
501,182,114934,1,10,2:0:0:0:
459,75,115084,6,0,P|407:64|355:57,1,106.25,2|8,1:2|2:0,2:0:0:0:
277,42,115384,1,0,1:2:0:0:
171,104,115534,6,0,P|163:51|153:0,2,106.25,10|2|10,2:0|2:0|2:0,2:0:0:0:
87,170,115984,1,2,1:0:0:0:
169,235,116134,1,10,2:0:0:0:
67,265,116284,1,2,1:2:0:0:
149,330,116434,6,0,P|199:342|242:315,1,106.25,10|2,2:0|1:2,2:0:0:0:
340,380,116734,2,0,P|366:335|353:286,1,106.25,10|2,2:0|1:2,2:0:0:0:
275,218,117034,1,6,1:2:0:0:
374,165,117184,1,8,2:0:0:0:
374,165,117259,1,8,2:0:0:0:
374,165,117334,6,0,L|357:71,1,53.125,10|0,2:0|2:0,2:0:0:0:
357,67,117484,1,2,1:0:0:0:
253,101,117634,6,0,P|185:87|90:69,1,159.375,2|0,2:0|2:0,2:0:0:0:
71,65,117934,1,2,1:2:0:0:
0,142,118084,6,0,B|6:186|6:186|19:196|19:196|27:240,1,106.25,10|0,2:0|2:0,2:0:0:0:
166,204,118384,2,0,B|160:248|160:248|147:258|147:258|139:302,1,106.25,10|0,2:0|2:0,2:0:0:0:
121,384,118684,1,10,2:0:0:0:
244,316,118834,2,0,B|277:315|298:340|283:334|304:361|336:358,1,106.25,10|0,2:0|2:0,2:0:0:0:
468,332,127984,6,0,L|490:328,2,21.25,2|0|0,2:0|2:0|1:2,2:0:0:0:
397,345,128284,1,8,2:0:0:0:
397,345,128434,1,0,1:2:0:0:
344,288,128584,2,0,P|320:283|297:278,1,42.5,2|0,1:0|2:0,2:0:0:0:
216,347,128884,6,0,B|182:334|182:298|182:298|169:331|133:332,1,127.5,6|0,1:2|1:0,2:0:0:0:
13,99,129634,2,0,P|21:140|27:182,1,85,8|0,2:0|2:0,2:0:0:0:
15,261,130084,2,0,P|55:268|91:247,1,85,2|0,1:2|2:0,2:0:0:0:
116,173,130534,1,0,1:0:0:0:
344,288,130834,1,8,2:0:0:0:
330,34,131134,5,2,1:2:0:0:
247,95,131284,2,0,B|286:90|314:117|296:112|323:142|362:135,1,127.5,2|0,1:2|1:0,2:0:0:0:
431,98,131884,1,0,2:0:0:0:
501,159,132034,2,0,P|504:137|508:117,2,42.5,10|0|0,2:0|2:0|2:0,2:0:0:0:
443,220,132484,6,0,P|451:261|457:303,1,85,2|10,1:2|2:0,2:0:0:0:
469,381,132934,1,0,1:0:0:0:
328,332,133084,1,8,2:0:0:0:
328,332,133159,1,8,2:0:0:0:
328,332,133234,6,0,B|296:328|306:349|275:346,2,56.6666666666667,10|8|8,2:0|2:0|2:0,2:0:0:0:
313,219,133834,6,0,P|277:197|235:204,2,85,2|2|10,1:2|1:2|2:0,2:0:0:0:
128,384,134734,1,0,2:0:0:0:
128,384,134884,2,0,P|122:341|112:294,1,85,0|0,1:2|2:0,2:0:0:0:
91,228,135334,1,0,1:0:0:0:
197,86,135634,5,8,2:0:0:0:
183,95,135784,2,0,P|159:90|138:86,1,42.5,2|0,2:0|2:0,2:0:0:0:
247,15,136084,6,0,P|288:8|329:0,1,85,2|10,1:2|2:0,2:0:0:0:
404,30,136534,1,2,1:2:0:0:
335,109,136684,2,0,L|314:104,2,21.25,2|0|0,1:2|1:2|1:2,1:2:0:0:
438,130,136984,1,2,1:2:0:0:
472,230,137134,1,2,1:2:0:0:
369,209,137284,1,2,1:2:0:0:
369,209,137359,1,0,1:2:0:0:
369,209,137434,6,0,B|312:199|312:199|299:207|299:207|245:198,1,127.5,2|2,1:0|2:0,2:0:0:0:
76,282,138184,6,0,L|68:329,2,42.5,2|2|2,2:0|2:0|2:0,2:0:0:0:
96,184,138634,6,0,L|111:98,1,76.5000000000001,2|0,1:2|2:0,2:0:0:0:
124,16,138934,2,0,L|209:31,1,76.5000000000001,2|2,1:2|2:0,2:0:0:0:
290,44,139234,2,0,L|274:129,1,76.5000000000001,0|0,1:2|2:0,2:0:0:0:
260,210,139534,1,2,1:2:0:0:
260,210,139684,1,2,2:0:0:0:
351,151,139834,6,0,P|392:145|429:165,1,76.5000000000001,0|0,1:0|2:0,2:0:0:0:
403,306,140134,2,0,P|377:273|376:231,1,76.5000000000001,2|0,1:2|2:0,2:0:0:0:
512,184,140434,2,0,P|496:222|460:244,1,76.5000000000001,2|2,1:2|2:0,2:0:0:0:
376,231,140734,1,2,1:2:0:0:
376,231,140884,1,2,2:0:0:0:
297,306,141034,6,0,P|255:296|213:291,1,76.5000000000001,2|0,1:2|2:0,2:0:0:0:
115,328,141334,2,0,P|124:286|129:244,1,76.5000000000001,2|0,1:2|2:0,2:0:0:0:
93,146,141634,2,0,P|134:155|176:160,1,76.5000000000001,2|0,1:2|2:0,2:0:0:0:
259,165,141934,1,2,1:2:0:0:
259,165,142084,1,2,2:0:0:0:
276,82,142234,6,0,P|312:61|353:68,1,76.5000000000001,0|0,1:0|2:0,2:0:0:0:
394,0,142534,2,0,P|424:28|430:69,1,76.5000000000001,2|0,1:2|2:0,2:0:0:0:
509,91,142834,2,0,P|493:124|460:141,1,76.5000000000001,2|2,1:2|2:0,2:0:0:0:
380,146,143134,1,2,1:2:0:0:
380,146,143284,1,2,2:0:0:0:
446,225,143434,6,0,B|439:259|439:259|445:264|445:264|438:297,1,76.5000000000001,2|0,1:2|2:0,2:0:0:0:
440,384,143734,2,0,B|406:377|406:377|402:383|402:383|369:376,1,76.5000000000001,2|2,1:2|2:0,2:0:0:0:
282,379,144034,2,0,B|288:344|288:344|282:340|282:340|289:306,1,76.5000000000001,0|0,1:0|2:0,2:0:0:0:
304,222,144334,1,2,1:2:0:0:
304,222,144484,1,2,2:0:0:0:
191,272,144634,6,0,B|168:274|151:258|162:261|146:243|123:247,1,76.5000000000001,0|0,1:2|2:0,2:0:0:0:
196,102,144934,2,0,B|210:121|205:143|202:132|195:156|210:174,1,76.5000000000001,2|0,1:2|2:0,2:0:0:0:
49,183,145234,2,0,B|58:161|79:155|72:163|96:157|104:135,1,76.5000000000001,2|2,1:2|2:0,2:0:0:0:
133,44,145534,1,2,1:2:0:0:
133,44,145684,1,2,2:0:0:0:
237,0,145834,6,0,P|279:10|321:15,1,76.5000000000001,2|0,1:2|2:0,2:0:0:0:
287,103,146134,2,0,P|329:113|371:118,1,76.5000000000001,2|2,1:2|2:0,2:0:0:0:
337,206,146434,2,0,P|379:216|421:221,1,76.5000000000001,0|0,1:0|2:0,2:0:0:0:
507,232,146734,1,2,1:2:0:0:
507,232,146884,1,2,2:0:0:0:
481,335,147034,6,0,B|446:345|446:345|413:325,1,76.5000000000001,0|0,1:2|2:0,2:0:0:0:
325,358,147334,2,0,B|304:327|304:327|314:291,1,76.5000000000001,2|0,1:2|2:0,2:0:0:0:
337,206,147634,1,2,1:2:0:0:
337,206,147784,1,2,2:0:0:0:
231,249,147934,2,0,B|197:242|197:242|195:236|195:236|162:230,1,76.5000000000001,8|2,2:0|2:0,2:0:0:0:
49,291,148234,6,0,P|28:254|34:212,1,85,2|0,1:0|2:0,2:0:0:0:
105,167,148534,1,2,1:2:0:0:
20,99,148684,2,0,B|5:14,2,85,2|0|0,2:0|1:0|2:0,2:0:0:0:
99,33,149134,1,2,1:2:0:0:
99,33,149284,1,2,2:0:0:0:
184,98,149434,6,0,P|225:89|268:83,1,85,0|0,1:0|2:0,2:0:0:0:
363,103,149734,2,0,P|354:62|348:18,2,85,2|0|2,1:2|2:0|1:2,2:0:0:0:
388,184,150184,1,2,2:0:0:0:
388,184,150334,1,2,1:2:0:0:
323,247,150484,1,2,2:0:0:0:
411,272,150634,6,0,P|433:306|424:347,1,85,2|0,1:0|2:0,2:0:0:0:
354,384,150934,1,2,1:2:0:0:
354,384,151084,1,2,2:0:0:0:
267,326,151234,2,0,B|229:333|229:333|227:340|227:340|190:346,1,85,2|0,1:2|2:0,2:0:0:0:
114,366,151534,1,2,1:2:0:0:
114,366,151684,1,2,2:0:0:0:
26,295,151834,6,0,P|5:261|11:216,1,85,0|0,1:0|2:0,2:0:0:0:
150,146,152134,2,0,P|155:104|134:68,2,85,2|0|2,1:2|2:0|1:2,2:0:0:0:
80,182,152584,1,2,2:0:0:0:
80,182,152734,1,2,1:2:0:0:
153,252,152884,1,2,2:0:0:0:
232,188,153034,6,0,P|273:197|315:202,1,85,2|0,1:0|2:0,2:0:0:0:
397,209,153334,1,2,1:2:0:0:
437,289,153484,1,2,2:0:0:0:
390,190,153634,2,0,P|384:148|405:112,1,85,0|0,1:0|2:0,2:0:0:0:
474,68,153934,1,0,1:2:0:0:
474,68,154084,1,2,2:0:0:0:
381,0,154234,6,0,P|339:9|297:14,1,85,0|0,1:0|2:0,2:0:0:0:
252,113,154534,2,0,P|210:103|168:98,1,85,2|0,1:2|2:0,2:0:0:0:
83,27,154834,1,2,1:2:0:0:
1,101,154984,1,2,2:0:0:0:
94,160,155134,2,0,B|117:176|117:176|103:257,1,85,2|2,1:2|2:0,2:0:0:0:
0,299,155434,6,0,B|56:289|81:340|60:329|86:381|140:370,2,170,0|2|2,1:0|1:2|1:2,2:0:0:0:
497,183,156334,6,0,L|514:89,1,85,2|2,1:2|2:0,2:0:0:0:
398,162,156634,2,0,L|415:68,1,85,0|0,2:0|2:0,2:0:0:0:
299,141,156934,2,0,L|316:47,1,85,0|0,2:0|2:0,2:0:0:0:
160,80,157234,5,8,2:0:0:0:
157,64,157309,1,8,2:0:0:0:
154,48,157384,2,0,L|145:0,3,42.5,8|8|8|8,2:0|2:0|2:0|2:0,2:0:0:0:
48,102,157684,6,0,P|27:138|33:179,1,85,6|0,1:2|2:0,2:0:0:0:
89,235,157984,1,0,1:2:0:0:
165,182,158134,2,0,B|203:189|203:189|205:196|205:196|242:202,1,85,10|0,2:0|1:0,2:0:0:0:
325,240,158434,1,8,2:0:0:0:
328,224,158509,1,8,2:0:0:0:
331,208,158584,2,0,L|340:160,3,42.5,8|8|8|8,2:0|2:0|2:0|2:0,2:0:0:0:
419,236,158884,6,0,L|436:330,1,85,6|0,1:2|2:0,2:0:0:0:
383,384,159184,1,0,1:2:0:0:
288,328,159334,2,0,B|262:325|243:343|255:340|237:360|211:355,1,85,10|0,2:0|2:0,2:0:0:0:
136,307,159634,1,2,1:2:0:0:
120,304,159709,1,0,1:2:0:0:
104,301,159784,2,0,L|56:292,3,42.5,0|0|0|0,1:2|1:2|1:2|1:2,2:0:0:0:
152,216,160084,6,0,P|146:175|136:132,1,85,6|0,1:2|2:0,2:0:0:0:
190,70,160384,1,0,1:2:0:0:
259,149,160534,6,0,P|300:155|336:134,1,85,10|0,2:0|2:0,2:0:0:0:
390,73,160834,1,8,2:0:0:0:
387,57,160909,1,8,2:0:0:0:
384,41,160984,2,0,L|375:-7,3,42.5,8|8|8|8,2:0|2:0|2:0|2:0,2:0:0:0:
478,33,161284,6,0,P|499:69|493:110,1,85,6|0,1:2|2:0,2:0:0:0:
439,170,161584,1,0,1:2:0:0:
512,236,161734,2,0,L|495:319,1,85,10|0,2:0|2:0,2:0:0:0:
413,384,162034,6,0,B|375:377|375:377|373:370|373:370|336:364,1,85,8|0,2:0|1:0,2:0:0:0:
256,349,162334,1,8,2:0:0:0:
124,384,162484,6,0,P|103:348|109:307,1,85,6|0,1:2|2:0,2:0:0:0:
163,247,162784,1,0,1:2:0:0:
82,189,162934,2,0,P|75:146|66:105,1,85,10|0,2:0|2:0,2:0:0:0:
149,73,163234,1,8,2:0:0:0:
152,57,163309,1,8,2:0:0:0:
155,41,163384,2,0,L|164:-7,3,42.5,8|8|8|8,2:0|2:0|2:0|2:0,2:0:0:0:
235,133,163684,6,0,B|261:136|280:118|268:121|286:101|312:106,1,85,6|0,1:2|2:0,2:0:0:0:
385,146,163984,1,0,1:2:0:0:
312,215,164134,2,0,P|290:251|297:292,1,85,10|0,2:0|2:0,2:0:0:0:
366,369,164434,6,0,L|407:361,2,42.5,2|0|0,1:2|1:2|1:2,2:0:0:0:
225,331,164734,1,8,2:0:0:0:
225,331,164809,1,8,2:0:0:0:
225,331,164884,6,0,B|187:338|187:338|185:345|185:345|148:351,1,85,6|0,1:2|2:0,2:0:0:0:
70,305,165184,1,0,1:2:0:0:
149,218,165334,2,0,P|155:175|164:134,1,85,10|0,2:0|2:0,2:0:0:0:
165,37,165634,5,8,2:0:0:0:
165,37,165709,1,8,2:0:0:0:
165,37,165784,2,0,L|213:46,1,42.5,8|8,2:0|2:0,2:0:0:0:
265,101,165934,2,0,L|313:92,1,42.5,8|8,2:0|2:0,2:0:0:0:
390,41,166084,6,0,P|411:77|404:118,1,85,6|2,1:2|2:0,2:0:0:0:
336,187,166384,1,2,1:2:0:0:
426,299,166534,1,10,2:0:0:0:
479,165,166684,1,2,1:2:0:0:
321,279,166834,6,0,B|268:287|246:241|265:250|241:203|189:213,2,159.375,10|10|10,2:0|2:0|2:0,2:0:0:0:
488,154,167434,6,0,P|493:114|480:94,1,63.75,2|0,2:1|2:0,2:0:0:0:
460,77,168634,6,0,P|411:71|355:58,1,106.25,6|0,1:2|2:0,2:0:0:0:
244,19,168934,2,0,P|256:70|262:123,1,106.25,10|0,2:0|2:0,2:0:0:0:
265,208,169234,1,2,1:2:0:0:
265,208,169384,1,0,2:0:0:0:
362,148,169534,1,10,2:0:0:0:
425,261,169684,6,0,B|400:292|380:330|380:330|316:316|253:306,1,212.5,2|2,1:2|1:2,2:0:0:0:
176,287,170134,1,8,2:0:0:0:
67,188,170284,2,0,P|77:236|86:293,2,106.25,2|0|0,2:0|1:0|1:0,2:0:0:0:
5,80,170734,2,0,P|42:52|97:63,1,106.25,10|2,2:0|1:0,2:0:0:0:
194,133,171034,6,0,L|298:114,1,106.25,6|0,1:2|2:0,2:0:0:0:
397,49,171334,2,0,B|390:95|390:95|399:108|399:108|390:152,1,106.25,10|0,2:0|2:0,2:0:0:0:
425,261,171634,2,0,L|320:242,1,106.25,2|0,1:2|2:0,2:0:0:0:
242,222,171934,1,10,2:0:0:0:
169,318,172084,6,0,B|116:294|112:235|112:235|88:289|30:293,1,212.5,2|2,1:2|1:2,2:0:0:0:
90,358,172534,1,10,2:0:0:0:
32,213,172684,1,2,1:2:0:0:
169,318,172834,2,0,P|217:308|274:299,1,106.25,2|0,1:2|2:0,2:0:0:0:
383,333,173134,2,0,L|364:228,1,106.25,10|2,2:0|1:2,2:0:0:0:
368,115,173434,6,0,P|321:90|270:98,1,106.25,6|0,1:2|2:0,2:0:0:0:
223,18,173734,2,0,P|187:51|176:105,1,106.25,10|0,2:0|2:0,2:0:0:0:
87,125,174034,2,0,P|108:169|155:195,1,106.25,2|0,1:2|2:0,2:0:0:0:
238,171,174334,1,10,2:0:0:0:
321,262,174484,2,0,P|331:312|304:357,1,106.25,2|0,1:2|2:0,2:0:0:0:
233,384,174784,1,2,1:2:0:0:
233,384,174934,1,10,2:0:0:0:
177,290,175084,6,0,B|131:283|131:283|118:292|118:292|74:283,1,106.25,2|0,2:0|1:0,2:0:0:0:
0,267,175384,1,2,1:2:0:0:
109,202,175534,1,10,2:0:0:0:
3,130,175684,1,2,1:2:0:0:
119,78,175834,6,0,P|169:89|223:98,1,106.25,6|0,1:2|2:0,2:0:0:0:
255,223,176134,2,0,P|305:212|359:203,1,106.25,10|0,2:0|2:0,2:0:0:0:
456,266,176434,2,0,P|465:213|476:161,1,106.25,2|0,1:2|2:0,2:0:0:0:
493,83,176734,5,10,2:0:0:0:
493,83,176884,1,2,1:2:0:0:
394,2,177034,1,2,2:0:0:0:
374,127,177184,1,0,1:0:0:0:
275,46,177334,2,0,L|170:28,1,106.25,8|2,2:0|1:2,2:0:0:0:
47,24,177634,6,0,P|54:47|57:76,3,53.125,2|0|0|0,1:2|1:2|1:2|1:2,2:0:0:0:
0,164,177934,1,10,2:0:0:0:
4,181,178009,1,8,2:0:0:0:
7,196,178084,1,8,2:0:0:0:
9,212,178159,1,8,2:0:0:0:
12,227,178234,6,0,P|56:254|107:244,1,106.25,6|0,1:2|2:0,2:0:0:0:
180,186,178534,2,0,L|198:290,1,106.25,10|0,2:0|2:0,2:0:0:0:
282,204,178834,2,0,L|300:308,1,106.25,2|0,1:0|1:0,2:0:0:0:
315,384,179134,1,10,2:0:0:0:
432,339,179284,6,0,P|459:294|449:243,1,106.25,2|0,1:2|2:0,2:0:0:0:
372,183,179584,2,0,P|362:131|389:87,1,106.25,2|8,1:2|2:0,2:0:0:0:
492,52,179884,2,0,L|482:0,2,53.125,2|8|0,2:0|2:0|1:0,2:0:0:0:
512,143,180184,1,0,1:0:0:0:
372,183,180334,2,0,P|319:172|267:164,1,106.25,10|0,2:0|2:0,2:0:0:0:
159,101,180634,6,0,B|166:147|166:147|157:160|157:160|166:204,1,106.25,6|0,1:2|2:0,2:0:0:0:
108,304,180934,2,0,P|154:328|205:318,1,106.25,10|0,2:0|2:0,2:0:0:0:
256,242,181234,1,2,1:2:0:0:
290,364,181384,1,0,1:2:0:0:
249,221,181534,1,10,2:0:0:0:
395,321,181684,2,0,P|411:215|433:110,1,212.5,2|0,1:0|2:0,2:0:0:0:
455,37,182134,5,10,2:0:0:0:
455,37,182284,1,2,1:2:0:0:
351,126,182434,1,2,1:2:0:0:
310,0,182584,1,0,1:0:0:0:
217,126,182734,2,0,L|101:106,1,106.25,10|0,2:0|2:0,2:0:0:0:
17,13,183034,6,0,B|60:69|18:125|18:97|-22:155|22:210,2,212.5,6|10|2,1:2|2:0|1:2,2:0:0:0:
237,208,183934,1,10,2:0:0:0:
217,126,184084,2,0,B|187:147|143:169|143:169|164:234|176:293,1,212.5,2|0,1:2|1:0,2:0:0:0:
284,353,184534,6,0,P|336:341|388:334,1,106.25,10|0,2:0|1:0,2:0:0:0:
352,162,184834,2,0,P|336:213|315:261,1,106.25,2|0,1:2|1:0,2:0:0:0:
483,316,185134,2,0,P|446:276|414:234,1,106.25,10|0,2:0|1:0,2:0:0:0:
352,162,185434,6,0,P|386:65|484:83,2,212.5,6|10|2,1:2|2:0|1:2,2:0:0:0:
414,234,186184,1,0,2:0:0:0:
300,276,186334,2,0,P|248:263|196:256,1,106.25,10|0,2:0|1:0,2:0:0:0:
74,288,186634,6,0,P|64:339|91:383,1,106.25,10|0,2:0|1:0,2:0:0:0:
224,171,186934,2,0,P|233:119|206:75,1,106.25,10|0,2:0|1:0,2:0:0:0:
86,126,187234,6,0,P|92:151|94:178,3,53.125,2|0|2|0,1:2|1:2|1:2|1:2,2:0:0:0:
195,255,187534,2,0,P|188:280|186:307,3,53.125,10|8|10|8,2:0|2:0|2:0|2:0,2:0:0:0:
325,187,187834,6,0,L|345:68,1,106.25,6|0,2:0|2:0,2:0:0:0:
355,3,188134,1,10,2:0:0:0:
454,65,188284,6,0,L|434:184,1,106.25,2|0,1:0|2:0,2:0:0:0:
424,249,188584,1,0,1:0:0:0:
511,341,188734,5,10,2:0:0:0:
390,382,188884,2,0,B|357:383|336:358|351:364|330:337|298:340,1,106.25,2|0,1:0|2:0,2:0:0:0:
200,383,189184,5,0,1:0:0:0:
98,324,189334,1,10,2:0:0:0:
201,269,189484,2,0,L|212:208,2,53.125,0|0|2,1:0|1:0|1:2,2:0:0:0:
268,160,189784,2,0,P|223:134|172:144,2,106.25,2|10|2,1:2|2:0|2:0,2:0:0:0:
312,259,190234,6,0,P|357:285|408:275,1,106.25,6|0,1:2|2:0,2:0:0:0:
453,206,190534,1,10,2:0:0:0:
409,107,190684,6,0,P|364:81|313:91,1,106.25,2|0,1:0|2:0,2:0:0:0:
268,160,190984,1,2,1:2:0:0:
213,59,191134,5,10,2:0:0:0:
138,147,191284,2,0,B|0:122|0:122|35:134|46:173,1,212.5,2|0,1:0|1:2,2:0:0:0:
53,254,191734,2,0,P|26:294|37:348,1,106.25,8|0,2:0|1:0,2:0:0:0:
118,384,192034,6,0,P|120:357|126:331,2,53.125,10|0|2,2:0|2:0|1:2,2:0:0:0:
167,262,192334,1,10,2:0:0:0:
216,384,192484,1,2,2:0:0:0:
310,299,192634,6,0,P|316:248|327:194,1,106.25,6|0,1:2|2:0,2:0:0:0:
348,118,192934,1,10,2:0:0:0:
231,202,193084,6,0,P|225:151|214:97,1,106.25,2|0,1:0|2:0,2:0:0:0:
193,21,193384,1,0,1:0:0:0:
100,121,193534,5,10,2:0:0:0:
205,3,193684,2,0,B|238:2|259:27|244:21|265:48|297:45,1,106.25,2|0,1:0|2:0,2:0:0:0:
369,0,193984,5,0,1:0:0:0:
452,79,194134,1,8,2:0:0:0:
348,118,194284,2,0,L|338:170,2,53.125,0|0|0,1:2|1:2|1:2,2:0:0:0:
319,247,194584,5,2,1:2:0:0:
457,190,194734,1,10,2:0:0:0:
294,235,194884,1,2,2:0:0:0:
410,359,195034,6,0,P|360:347|305:339,1,106.25,6|0,1:2|2:0,2:0:0:0:
226,332,195334,1,10,2:0:0:0:
121,384,195484,6,0,P|115:333|103:279,1,106.25,2|0,1:0|2:0,2:0:0:0:
83,201,195784,1,0,1:0:0:0:
12,304,195934,5,10,2:0:0:0:
102,183,196084,2,0,B|86:107|76:36|76:36|47:93,1,212.5,2|2,1:0|1:0,2:0:0:0:
168,52,196534,6,0,B|154:-26,2,53.125,10|0|2,2:0|2:0|1:2,2:0:0:0:
244,140,196834,1,0,2:0:0:0:
241,159,196909,1,0,1:0:0:0:
238,176,196984,1,2,1:2:0:0:
235,193,197059,1,0,1:0:0:0:
232,211,197134,2,0,P|230:259|268:299,1,106.25,10|2,2:0|2:0,2:0:0:0:
426,211,197434,6,0,P|432:160|443:106,1,106.25,14|0,2:0|2:0,2:0:0:0:
421,17,197734,1,10,2:0:0:0:
355,105,197884,1,2,1:2:0:0:
298,5,198034,1,8,2:0:0:0:
236,122,198184,1,0,2:0:0:0:
124,0,198334,6,0,P|134:52|140:104,1,106.25,10|2,2:0|1:2,2:0:0:0:
75,164,198634,1,8,2:0:0:0:
237,220,198784,1,0,2:0:0:0:
127,328,198934,2,0,P|117:278|142:231,2,106.25,10|2|10,2:0|1:2|2:0,2:0:0:0:
231,384,199384,6,0,P|283:373|335:367,1,106.25,2|10,1:2|2:0,2:0:0:0:
420,357,199684,1,2,1:2:0:0:
342,268,199834,6,0,L|361:158,1,106.25,10|0,2:0|2:0,2:0:0:0:
377,70,200134,1,10,2:0:0:0:
283,138,200284,1,2,1:2:0:0:
251,21,200434,1,8,2:0:0:0:
281,156,200584,1,0,2:0:0:0:
163,88,200734,6,0,L|59:70,1,106.25,10|0,2:0|2:0,2:0:0:0:
0,252,201034,2,0,L|104:234,1,106.25,8|2,2:0|1:2,2:0:0:0:
183,221,201334,1,10,2:0:0:0:
216,332,201484,1,2,1:2:0:0:
298,249,201634,1,10,2:0:0:0:
331,360,201784,1,2,1:2:0:0:
439,273,201934,5,8,2:0:0:0:
441,258,202009,1,8,2:0:0:0:
443,244,202084,1,10,2:0:0:0:
446,229,202159,1,8,2:0:0:0:
448,216,202234,6,0,L|466:110,1,106.25,14|0,2:0|2:0,2:0:0:0:
480,35,202534,1,10,2:0:0:0:
356,121,202684,2,0,B|310:111|310:111|301:98|301:98|258:90,1,106.25,2|8,1:2|2:0,2:0:0:0:
181,76,202984,1,0,2:0:0:0:
95,137,203134,6,0,L|77:33,2,106.25,10|2|8,2:0|1:2|2:0,2:0:0:0:
42,264,203584,1,0,2:0:0:0:
164,199,203734,1,10,2:0:0:0:
35,246,203884,1,2,1:2:0:0:
141,333,204034,6,0,B|174:334|195:309|180:315|201:288|233:291,1,106.25,10|2,2:0|1:2,2:0:0:0:
356,373,204334,2,0,P|348:321|341:267,1,106.25,10|2,2:0|1:2,2:0:0:0:
327,190,204634,5,14,2:0:0:0:
444,263,204784,1,8,2:0:0:0:
444,263,204859,1,8,2:0:0:0:
444,263,204934,2,0,L|461:169,1,53.125,10|0,2:0|2:0,2:0:0:0:
471,131,205084,1,2,1:2:0:0:
418,33,205234,6,0,P|368:22|323:49,1,106.25,2|2,2:0|1:2,2:0:0:0:
270,123,205534,1,2,1:0:0:0:
168,38,205684,6,0,B|135:64|135:64|146:127,1,106.25,14|0,2:0|2:0,2:0:0:0:
61,225,205984,2,0,B|87:257|87:257|150:246,1,106.25,10|0,2:0|2:0,2:0:0:0:
230,234,206284,1,10,2:0:0:0:
162,345,206434,6,0,P|109:354|57:364,1,106.25,10|0,2:0|2:0,2:0:0:0:
