osu file format v14

[General]
AudioFilename: audio.mp3
AudioLeadIn: 0
PreviewTime: 167434
Countdown: 0
SampleSet: Soft
StackLeniency: 0.3
Mode: 0
LetterboxInBreaks: 0
WidescreenStoryboard: 1

[Editor]
DistanceSpacing: 1.4
BeatDivisor: 4
GridSize: 16
TimelineZoom: 2.5

[Metadata]
Title:Additional Memory
TitleUnicode:アディショナルメモリー
Artist:JIN
ArtistUnicode:じん
Creator:Ilay
Version:Hard
Source:カゲロウプロジェクト
Tags:Japanese Reload Rock Ayano Tateyama 楯山文乃 Kagerou Project Daze Days Mekakucity Actors メカクシティアクターズ Shizen no Teki P Teki-P TekiP 自然の敵P Vocaloid Hatsune Miku 初音ミク moph Len Fast JRock J-Rock
BeatmapID:3182076
BeatmapSetID:1521890

[Difficulty]
HPDrainRate:5
CircleSize:3.5
OverallDifficulty:6
ApproachRate:8
SliderMultiplier:1.3
SliderTickRate:1

[Events]
//Background and Video events
Video,0,"video.mp4"
0,0,"BG.jpg",0,0
//Break Periods
2,119284,127234
//Storyboard Layer 0 (Background)
//Storyboard Layer 1 (Fail)
//Storyboard Layer 2 (Pass)
//Storyboard Layer 3 (Foreground)
//Storyboard Layer 4 (Overlay)
//Storyboard Sound Samples

[TimingPoints]
13826,300,4,2,1,50,1,0
13826,-133.333333333333,4,2,1,50,0,0
22076,-90.9090909090909,4,2,1,50,0,0
23426,-90.9090909090909,4,2,1,75,0,1
40234,291.26213592233,4,2,1,75,1,1
41399,317.460317460317,4,2,1,75,1,1
41399,-90.9090909090909,4,2,1,75,0,1
42034,300,4,2,1,75,1,1
42034,-90.9090909090909,4,2,1,75,0,1
42484,-111.111111111111,4,2,1,55,0,0
42634,300,4,2,1,55,1,0
42934,-111.111111111111,4,2,1,55,0,0
50884,-111.111111111111,4,2,1,65,0,0
52084,-100,4,2,1,65,0,0
61684,-111.111111111111,4,2,1,55,0,0
76234,-100,4,2,1,65,0,0
78634,-90.9090909090909,4,2,1,65,0,0
80434,-111.111111111111,4,2,1,65,0,0
81034,-90.9090909090909,4,2,1,75,0,1
119284,-90.9090909090909,4,2,1,75,0,0
127984,-111.111111111111,4,2,1,45,0,0
138634,-100,4,2,1,55,0,0
148234,-100,4,2,1,60,0,0
157684,-100,4,2,1,65,0,0
166834,-90.9090909090909,4,2,1,65,0,0
167059,-90.9090909090909,4,2,1,70,0,0
167284,-90.9090909090909,4,2,1,75,0,0
167434,-90.9090909090909,4,2,1,55,0,0
168634,-90.9090909090909,4,2,1,75,0,1
206959,-90.9090909090909,4,2,1,75,0,0

[Colours]
Combo1 : 212,212,212
Combo2 : 221,0,0
Combo3 : 126,125,122
Combo4 : 250,78,155

[HitObjects]
25,28,13826,6,0,P|75:36|121:45,1,97.5000000000003,2|2,2:0|2:0,2:0:0:0:
201,153,14426,1,2,2:0:0:0:
201,153,14576,2,0,L|249:144,1,48.7500000000001,2|0,2:1|2:0,2:0:0:0:
364,55,14876,6,0,P|409:65|443:154,1,146.25,2|2,2:0|2:0,2:0:0:0:
357,245,15626,1,2,2:0:0:0:
357,245,15776,2,0,L|348:293,1,48.7500000000001,2|0,2:1|2:0,2:0:0:0:
259,378,16076,6,0,B|178:368|208:330|128:320,1,146.25,2|2,2:0|2:0,2:0:0:0:
20,227,16826,1,2,2:0:0:0:
20,227,16976,2,0,L|34:158,1,48.7500000000001,2|0,2:1|2:0,2:0:0:0:
46,93,17276,6,0,B|100:86|84:118|138:112,1,97.5000000000003,2|2,2:0|2:0,2:0:0:0:
213,79,17726,1,0,2:0:0:0:
213,79,17876,2,0,L|225:13,2,48.7500000000001,2|0|2,2:0|2:0|2:0,2:0:0:0:
276,153,18326,2,0,L|282:185,2,24.3750000000001,0|0|6,2:0|2:0|2:0,2:0:0:0:
256,192,18551,12,0,21776,2:0:0:0:
194,170,22076,6,0,L|111:155,1,71.5,12|0,2:0|2:0,2:0:0:0:
46,143,22376,2,0,L|36:87,5,35.75,10|4|4|8|8|8,2:0|3:0|3:0|3:0|3:0|3:0,2:0:0:0:
71,83,22826,5,10,2:0:0:0:
71,83,22976,1,10,2:0:0:0:
90,361,23426,6,0,L|231:338,1,143,6|10,1:2|2:0,2:0:0:0:
313,293,23876,2,0,L|383:303,1,71.5,2|8,1:2|2:0,2:0:0:0:
453,373,24176,1,2,1:2:0:0:
453,373,24326,1,10,2:0:0:0:
420,190,24626,6,0,L|410:120,1,71.5,8|0,2:0|1:2,2:0:0:0:
395,31,24926,1,8,2:0:0:0:
395,31,25076,1,0,1:2:0:0:
317,81,25226,2,0,P|282:87|251:70,1,71.5,8|0,2:0|1:2,2:0:0:0:
184,4,25526,2,0,P|149:-2|118:14,1,71.5,8|0,2:0|1:2,2:0:0:0:
24,14,25826,6,0,P|36:78|44:157,1,143,6|10,1:2|2:0,2:0:0:0:
133,184,26276,2,0,P|127:215|122:254,1,71.5,2|8,1:2|2:0,2:0:0:0:
45,309,26576,1,2,1:2:0:0:
110,375,26726,1,10,2:0:0:0:
261,267,27026,6,0,B|288:244|288:244|322:256,1,71.5,8|0,2:0|1:0,2:0:0:0:
343,346,27326,2,0,B|372:351|372:351|379:360|379:360|408:366,1,71.5,8|0,2:0|1:0,2:0:0:0:
493,325,27626,1,8,2:0:0:0:
426,259,27776,1,0,1:0:0:0:
492,193,27926,2,0,B|501:138|501:138,3,35.75,10|8|8|8,2:0|2:0|2:0|2:0,2:0:0:0:
501,110,28226,6,0,P|486:52|408:18,1,143,4|10,1:2|2:0,2:0:0:0:
376,101,28676,2,0,P|345:117|310:111,1,71.5,2|8,1:2|2:0,2:0:0:0:
265,29,28976,1,2,1:2:0:0:
184,74,29126,1,10,2:0:0:0:
15,8,29426,5,8,2:0:0:0:
15,8,29576,1,0,1:0:0:0:
35,98,29726,2,0,B|40:126|40:126|34:136|34:136|38:165,1,71.5,8|0,2:0|1:0,2:0:0:0:
3,254,30026,2,0,P|25:280|59:288,1,71.5,8|0,2:0|1:0,2:0:0:0:
144,246,30326,2,0,P|178:250|214:258,1,71.5,8|0,2:0|1:0,2:0:0:0:
306,274,30626,5,10,2:0:0:0:
274,90,30926,1,10,2:0:0:0:
350,36,31076,1,2,1:2:0:0:
436,68,31226,2,0,B|458:95|458:95|445:129,1,71.5,10|0,2:0|1:0,2:0:0:0:
380,196,31526,2,0,P|345:189|310:184,1,71.5,10|0,2:0|1:0,2:0:0:0:
221,174,31826,5,10,2:0:0:0:
221,174,31976,1,0,1:0:0:0:
166,94,32126,2,0,P|131:87|100:103,1,71.5,10|0,2:0|1:0,2:0:0:0:
57,186,32426,6,0,L|50:225,3,35.75,2|0|2|0,1:2|1:2|1:2|1:2,2:0:0:0:
57,267,32726,2,0,L|50:306,3,35.75,2|0|2|0,1:2|1:2|1:2|1:2,2:0:0:0:
47,349,33026,6,0,P|117:336|187:324,1,143,6|10,1:2|2:0,2:0:0:0:
270,369,33476,2,0,L|280:299,1,71.5,2|8,1:2|2:0,2:0:0:0:
323,215,33776,1,2,1:2:0:0:
257,148,33926,1,10,2:0:0:0:
380,8,34226,6,0,P|415:2|450:18,1,71.5,8|0,2:0|1:0,2:0:0:0:
507,94,34526,1,8,2:0:0:0:
507,94,34676,1,0,1:0:0:0:
446,164,34826,2,0,L|460:243,1,71.5,8|0,2:0|1:0,2:0:0:0:
378,281,35126,2,0,L|391:360,1,71.5,8|0,2:0|1:0,2:0:0:0:
298,373,35426,6,0,P|245:359|226:272,1,143,6|10,1:2|2:0,2:0:0:0:
277,205,35876,2,0,P|283:174|288:135,1,71.5,2|8,1:2|2:0,2:0:0:0:
369,88,36176,1,2,1:2:0:0:
336,0,36326,1,10,2:0:0:0:
183,105,36626,6,0,B|154:100|154:100|147:91|147:91|118:85,1,71.5,8|2,2:0|1:2,2:0:0:0:
34,39,36926,2,0,B|11:66|11:66|23:100,1,71.5,8|2,2:0|1:2,2:0:0:0:
79,173,37226,1,8,2:0:0:0:
13,239,37376,1,2,1:2:0:0:
78,304,37526,2,0,B|133:313|133:313,3,35.75,10|8|8|8,2:0|2:0|2:0|2:0,2:0:0:0:
146,344,37826,6,0,B|286:370,1,143,6|10,1:2|2:0,2:0:0:0:
372,334,38276,2,0,P|390:303|385:268,1,71.5,2|8,1:2|2:0,2:0:0:0:
298,232,38576,1,2,1:2:0:0:
345,152,38726,1,10,2:0:0:0:
224,17,39026,5,8,2:0:0:0:
224,17,39176,1,0,1:0:0:0:
157,81,39326,2,0,L|86:94,1,71.5,8|0,2:0|1:0,2:0:0:0:
38,173,39626,2,0,P|53:203|85:218,1,71.5,8|0,2:0|1:0,2:0:0:0:
91,311,39926,2,0,P|124:311|153:289,1,71.5,10|2,2:0|1:2,2:0:0:0:
211,216,40234,6,0,B|242:205|242:205|267:225,1,65,10|0,2:0|1:2,2:0:0:0:
318,299,40525,1,0,1:2:0:0:
318,299,40670,6,0,P|312:335|306:370,2,65,10|0|0,2:0|1:2|1:2,2:0:0:0:
386,249,41107,1,10,2:0:0:0:
453,300,41253,1,0,2:0:0:0:
503,200,41399,6,0,L|510:164,3,35.75,8|0|0|0,1:2|1:2|1:2|1:2,2:0:0:0:
483,127,41716,2,0,L|476:91,3,35.75,0|0|0|0,1:2|1:2|1:2|1:2,2:0:0:0:
465,48,42034,2,0,B|435:53|435:53|428:62|428:62|398:68,1,71.5,6|2,1:2|1:2,2:0:0:0:
254,11,42484,6,0,B|192:30|222:56|160:75,1,117,6|0,1:2|1:0,2:0:0:0:
80,91,42934,2,0,L|70:151,1,58.5000000000001,8|0,2:0|2:0,2:0:0:0:
9,204,43234,2,0,L|20:264,1,58.5000000000001,0|0,1:2|2:0,2:0:0:0:
87,316,43534,1,8,2:0:0:0:
87,316,43684,1,2,2:1:0:0:
216,215,43984,6,0,P|218:185|227:158,2,58.5000000000001,2|10|2,1:2|2:0|2:0,2:0:0:0:
232,295,44434,2,0,L|291:305,1,58.5000000000001,2|2,1:2|1:2,2:0:0:0:
339,370,44734,2,0,L|398:380,1,58.5000000000001,10|2,2:0|1:2,2:0:0:0:
472,348,45034,6,0,P|504:302|488:248,1,117,2|10,2:0|2:0,2:0:0:0:
346,166,45634,2,0,L|335:106,1,58.5000000000001,2|0,1:2|1:0,2:0:0:0:
321,32,45934,1,10,2:0:0:0:
321,32,46084,1,2,1:2:0:0:
159,61,46384,6,0,L|97:50,2,58.5000000000001,2|8|2,2:1|2:0|2:0,2:0:0:0:
209,125,46834,2,0,P|212:148|200:180,1,58.5000000000001,2|2,1:2|1:2,2:0:0:0:
121,205,47134,1,8,2:0:0:0:
77,304,47284,6,0,P|90:357|143:372,1,117,6|0,1:2|1:0,2:0:0:0:
233,339,47734,2,0,P|261:343|290:349,1,58.5000000000001,10|0,2:0|2:0,2:0:0:0:
342,286,48034,2,0,P|370:281|399:275,1,58.5000000000001,0|0,1:2|1:2,2:0:0:0:
479,255,48334,1,8,2:0:0:0:
479,255,48484,1,0,1:0:0:0:
396,105,48784,6,0,P|401:72|406:45,2,58.5000000000001,2|10|2,1:2|2:0|2:0,2:0:0:0:
320,38,49234,2,0,P|290:36|264:47,1,58.5000000000001,2|2,1:2|1:2,2:0:0:0:
184,7,49534,2,0,P|173:34|175:62,1,58.5000000000001,10|2,2:0|1:2,2:0:0:0:
231,137,49834,6,0,B|206:173|206:173|117:157,1,117,2|10,2:0|2:0,2:0:0:0:
18,272,50434,2,0,P|21:297|44:318,1,58.5000000000001,2|0,1:2|2:0,2:0:0:0:
123,330,50734,1,10,2:0:0:0:
229,252,50884,6,0,B|294:246|277:281|341:275,2,117,2|2|2,1:0|1:0|1:0,2:0:0:0:
134,160,51634,1,0,2:0:0:0:
134,160,51784,2,0,P|131:130|144:106,1,58.5000000000001,2|0,1:0|2:0,2:0:0:0:
215,60,52084,6,0,B|268:69|268:69|281:86|281:86|335:97,1,130,6|0,1:2|1:2,2:0:0:0:
419,92,52534,2,0,P|412:125|407:155,1,65,10|0,2:0|2:0,2:0:0:0:
363,228,52834,2,0,P|370:260|374:291,2,65,0|0|8,1:2|1:2|2:0,2:0:0:0:
290,185,53284,1,0,2:0:0:0:
189,320,53584,6,0,P|184:353|177:383,2,65,2|10|2,1:2|2:0|2:0,2:0:0:0:
128,259,54034,2,0,P|113:229|116:199,1,65,2|2,1:2|1:2,2:0:0:0:
73,126,54334,2,0,P|96:102|126:97,1,65,10|2,2:0|1:2,2:0:0:0:
176,28,54634,6,0,B|247:21|229:60|299:53,1,130,2|10,2:0|2:0,2:0:0:0:
467,12,55234,1,2,1:2:0:0:
467,12,55384,2,0,L|452:89,1,65,2|10,1:2|2:0,2:0:0:0:
403,143,55684,2,0,P|419:191|427:270,1,130,2|2,2:0|2:0,2:0:0:0:
417,353,56134,1,8,2:0:0:0:
261,261,56434,2,0,L|272:194,2,65,2|2|10,1:2|1:2|2:0,2:0:0:0:
233,341,56884,6,0,P|166:373|114:350,1,130,6|0,1:2|1:0,2:0:0:0:
68,284,57334,1,10,2:0:0:0:
134,232,57484,2,0,L|119:155,1,65,2|0,2:0|1:0,2:0:0:0:
51,120,57784,2,0,L|66:43,1,65,2|8,1:2|2:0,2:0:0:0:
128,2,58084,1,2,1:2:0:0:
247,121,58384,2,0,L|233:195,2,65,2|8|0,1:2|2:0|2:0,2:0:0:0:
311,66,58834,1,2,1:2:0:0:
311,66,58984,2,0,P|345:63|372:77,1,65,2|8,1:2|2:0,2:0:0:0:
457,77,59284,6,0,P|472:142|436:188,1,130,6|2,1:2|1:2,2:0:0:0:
353,206,59734,1,10,2:0:0:0:
407,291,59884,1,2,2:0:0:0:
407,291,59959,1,2,2:0:0:0:
407,291,60034,2,0,L|393:371,1,65,2|2,1:2|2:0,2:0:0:0:
308,381,60334,2,0,B|236:373|262:338|192:330,1,130,10|8,2:0|2:0,2:0:0:0:
107,355,60784,6,0,P|84:329|85:300,1,65,2|0,1:0|2:0,2:0:0:0:
18,247,61084,2,0,P|33:218|62:209,1,65,2|0,3:2|2:0,3:0:0:0:
91,128,61384,2,0,P|121:135|139:159,1,65,2|0,1:2|2:0,2:0:0:0:
179,227,61684,6,0,P|229:248|275:214,1,117,6|0,2:0|2:0,2:0:0:0:
285,137,62134,1,10,2:0:0:0:
402,233,62434,2,0,B|511:252|511:252|474:248|452:278,1,175.5,2|8,1:2|2:0,2:0:0:0:
419,363,63034,2,0,P|366:369|303:383,1,117,2|8,2:0|2:0,2:0:0:0:
222,249,63634,2,0,P|219:217|231:195,1,58.5000000000001,2|8,2:0|2:0,2:0:0:0:
313,163,63934,2,0,P|315:131|303:109,1,58.5000000000001,8|8,2:0|2:0,2:0:0:0:
235,73,64234,6,0,B|170:80|193:111|131:118,1,117,6|0,1:2|1:0,2:0:0:0:
46,91,64684,2,0,P|60:157|69:217,1,117,10|0,2:0|2:0,2:0:0:0:
77,285,65134,1,2,1:2:0:0:
77,285,65284,1,2,2:0:0:0:
137,338,65434,2,0,P|162:351|191:347,1,58.5000000000001,2|0,1:2|2:0,2:0:0:0:
246,289,65734,2,0,P|239:259|234:231,2,58.5000000000001,0|0|0,1:0|1:0|1:0,2:0:0:0:
313,325,66184,2,0,P|319:354|324:382,2,58.5000000000001,0|2|0,1:0|1:2|1:2,2:0:0:0:
370,273,66634,6,0,P|379:215|391:158,1,117,6|0,1:2|1:0,2:0:0:0:
431,92,67084,2,0,P|391:59|331:73,1,117,8|0,2:0|2:0,2:0:0:0:
290,137,67534,2,0,P|264:150|236:146,1,58.5000000000001,10|2,2:0|2:0,2:0:0:0:
181,93,67834,1,2,1:2:0:0:
181,93,67984,1,8,2:0:0:0:
127,148,68134,2,0,P|134:179|138:207,1,58.5000000000001,2|0,1:2|2:0,2:0:0:0:
110,280,68434,2,0,B|147:271|166:305|152:298|171:332|209:324,1,117,10|10,2:0|2:0,2:0:0:0:
338,242,69034,6,0,B|362:247|392:251|392:251|380:307|372:370,2,175.5,10|10|2,2:0|2:0|1:2,2:0:0:0:
279,187,70084,1,2,1:2:0:0:
279,187,70234,2,0,B|259:131|259:131|296:87,1,117,10|0,2:0|1:0,2:0:0:0:
171,111,70834,2,0,L|109:99,1,58.5000000000001,2|0,1:2|1:2,2:0:0:0:
35,80,71134,2,0,L|23:142,1,58.5000000000001,2|0,1:2|1:2,2:0:0:0:
8,211,71434,5,6,1:2:0:0:
81,344,71734,1,2,1:0:0:0:
221,283,72034,2,0,P|278:295|339:304,2,117,10|2|2,2:0|1:2|1:2,2:0:0:0:
164,229,72784,1,0,2:0:0:0:
164,229,72934,2,0,L|152:167,1,58.5000000000001,2|0,1:0|2:0,2:0:0:0:
189,104,73234,5,2,1:2:0:0:
189,104,73384,1,8,2:0:0:0:
251,157,73534,2,0,P|276:170|304:166,1,58.5000000000001,2|0,1:2|2:0,2:0:0:0:
364,120,73834,6,0,P|426:108|468:163,1,117,14|2,2:0|1:2,2:0:0:0:
368,261,74434,2,0,P|363:287|357:318,1,58.5000000000001,2|0,1:2|2:0,2:0:0:0:
296,364,74734,2,0,B|246:358|264:335|217:329,1,87.7500000000001,10|8,2:0|2:0,2:0:0:0:
179,331,75034,6,0,L|166:261,1,58.5000000000001,6|0,1:2|1:2,2:0:0:0:
95,318,75334,2,0,L|82:248,1,58.5000000000001,2|0,1:2|1:2,2:0:0:0:
139,192,75634,2,0,P|144:162|149:134,1,58.5000000000001,2|0,1:2|1:2,2:0:0:0:
163,55,75934,1,10,2:0:0:0:
348,138,76234,6,0,B|389:147|410:110|395:117|416:79|457:89,2,130,6|2|2,1:2|1:2|1:2,2:0:0:0:
274,107,76984,1,0,1:2:0:0:
274,107,77134,2,0,L|260:182,1,65,2|2,1:2|1:2,2:0:0:0:
318,235,77434,2,0,L|304:310,1,65,0|2,1:2|1:2,2:0:0:0:
289,381,77734,6,0,P|257:386|229:371,1,65,10|10,2:0|2:0,2:0:0:0:
176,304,78034,1,8,2:0:0:0:
102,346,78184,1,10,2:0:0:0:
39,288,78334,1,10,2:0:0:0:
74,210,78484,1,10,2:0:0:0:
165,218,78634,6,0,P|214:150|106:105,1,214.5,6|6,1:2|1:2,2:0:0:0:
402,370,79534,2,0,L|488:385,2,71.5,14|0|0,2:0|1:0|1:0,2:0:0:0:
350,292,79984,2,0,L|263:276,2,71.5,10|0|0,2:0|1:0|1:0,2:0:0:0:
449,270,80434,6,0,P|478:248|441:122,1,175.5,6|0,2:0|2:0,2:0:0:0:
368,94,81034,6,0,L|297:106,1,71.5,6|0,1:2|2:0,2:0:0:0:
243,30,81334,2,0,L|172:17,1,71.5,10|0,2:0|2:0,2:0:0:0:
92,61,81634,1,2,1:2:0:0:
92,61,81784,1,0,1:0:0:0:
157,127,81934,1,10,2:0:0:0:
67,150,82084,6,0,B|37:171|37:171|56:277,1,143,2|2,1:0|2:0,2:0:0:0:
73,368,82534,1,8,2:0:0:0:
156,315,82684,2,0,L|170:235,2,71.5,2|0|2,2:0|1:0|2:1,2:0:0:0:
222,380,83134,2,0,P|259:383|287:368,1,71.5,10|0,2:0|2:0,2:0:0:0:
340,290,83434,6,0,L|328:219,1,71.5,6|0,1:2|2:0,2:0:0:0:
342,127,83734,2,0,P|306:123|275:140,1,71.5,10|0,2:0|2:0,2:0:0:0:
191,179,84034,2,0,P|155:182|124:165,1,71.5,2|0,1:2|2:0,2:0:0:0:
73,88,84334,1,10,2:0:0:0:
140,24,84484,6,0,B|197:13|197:13|217:26|217:26|277:17,1,143,2|0,1:0|1:0,2:0:0:0:
370,1,84934,1,8,2:0:0:0:
370,1,85084,1,2,2:0:0:0:
442,58,85234,2,0,P|435:94|428:129,1,71.5,2|0,1:2|1:0,2:0:0:0:
504,183,85534,2,0,P|497:218|490:253,1,71.5,10|2,2:0|2:0,2:0:0:0:
486,346,85834,6,0,B|446:342|456:363|417:360,1,71.5,6|0,1:2|2:0,2:0:0:0:
326,378,86134,2,0,B|317:339|300:355|291:317,1,71.5,10|0,2:0|2:0,2:0:0:0:
216,261,86434,2,0,B|250:240|229:229|263:209,1,71.5,2|0,1:2|2:0,2:0:0:0:
351,181,86734,1,10,2:0:0:0:
317,94,86884,6,0,P|246:83|176:68,1,143,2|2,1:0|1:2,2:0:0:0:
84,52,87334,1,10,2:0:0:0:
6,104,87484,2,0,P|2:138|24:166,1,71.5,2|0,2:0|1:0,2:0:0:0:
112,194,87784,2,0,P|149:185|183:181,2,71.5,2|8|2,1:2|2:0|2:0,2:0:0:0:
53,266,88234,6,0,P|36:316|87:384,2,143,6|10|2,1:2|2:0|1:2,2:0:0:0:
267,178,89134,1,8,2:0:0:0:
267,178,89284,1,2,1:0:0:0:
348,223,89434,6,0,L|432:207,1,71.5,2|0,2:0|1:0,2:0:0:0:
456,125,89734,2,0,L|371:109,1,71.5,8|2,2:0|2:0,2:0:0:0:
309,59,90034,2,0,L|257:49,3,35.75,2|0|0|0,1:2|1:2|1:2|1:2,2:0:0:0:
232,73,90334,2,0,L|180:63,3,35.75,2|0|8|8,1:2|1:2|2:0|2:0,2:0:0:0:
162,34,90634,6,0,B|120:27|120:27|101:132,1,143,6|10,1:2|2:0,2:0:0:0:
157,282,91234,2,0,L|241:266,1,71.5,2|0,1:2|1:0,2:0:0:0:
319,252,91534,1,10,2:0:0:0:
368,173,91684,6,0,P|418:155|486:207,1,143,2|2,1:0|1:2,2:0:0:0:
442,288,92134,1,8,2:0:0:0:
442,288,92284,2,0,P|434:323|428:358,1,71.5,2|0,1:2|1:2,2:0:0:0:
227,269,92734,2,0,P|221:233|214:198,1,71.5,10|0,2:0|2:0,2:0:0:0:
143,137,93034,6,0,B|103:133|113:154|74:151,1,71.5,6|0,1:2|2:0,2:0:0:0:
6,88,93334,2,0,P|0:53|87:5,1,143,10|2,2:0|1:2,2:0:0:0:
161,52,93784,1,0,1:2:0:0:
161,52,93934,1,10,2:0:0:0:
240,4,94084,6,0,B|297:13|297:13|312:32|312:32|371:45,1,143,6|0,1:2|2:0,2:0:0:0:
462,66,94534,1,10,2:0:0:0:
502,149,94684,1,2,2:0:0:0:
430,208,94834,2,0,P|394:201|359:195,1,71.5,2|2,1:2|1:2,2:0:0:0:
373,287,95134,2,0,P|337:280|302:274,1,71.5,10|0,2:0|2:0,2:0:0:0:
210,258,95434,6,0,B|136:308|206:392|206:392,2,143,6|10|2,1:2|2:0|1:2,2:0:0:0:
346,131,96334,1,10,2:0:0:0:
287,58,96484,6,0,P|225:70|143:82,1,143,2|2,1:0|1:2,2:0:0:0:
70,136,96934,2,0,B|77:56|34:77|41:0,2,143,10|2|10,2:0|1:2|2:0,2:0:0:0:
0,308,97834,6,0,P|39:313|70:320,1,71.5,6|0,1:2|2:0,2:0:0:0:
126,245,98134,2,0,P|165:240|196:232,1,71.5,10|0,2:0|2:0,2:0:0:0:
243,313,98434,2,0,P|282:318|313:325,1,71.5,2|0,1:2|2:0,2:0:0:0:
393,373,98734,2,0,P|409:343|405:307,1,71.5,10|0,2:0|2:0,2:0:0:0:
363,223,99034,6,0,P|350:171|419:112,1,143,2|10,1:2|2:0,2:0:0:0:
262,13,99634,2,0,L|249:83,1,71.5,6|10,1:2|2:0,2:0:0:0:
228,174,99934,2,0,P|234:199|237:226,3,35.75,10|8|8|8,2:0|2:0|2:0|2:0,2:0:0:0:
204,243,100234,6,0,P|133:233|63:219,1,143,6|10,1:2|2:0,2:0:0:0:
44,310,100684,2,0,P|114:319|184:333,1,143,2|2,1:0|1:2,2:0:0:0:
271,367,101134,1,10,2:0:0:0:
345,311,101284,2,0,B|355:250|355:250|339:238|339:238|350:178,1,143,2|2,1:0|1:2,2:0:0:0:
423,119,101734,1,10,2:0:0:0:
355,55,101884,2,0,L|281:67,1,71.5,0|10,1:0|2:0,2:0:0:0:
198,103,102184,2,0,P|182:73|186:37,2,71.5,2|8|2,2:0|2:0|2:0,2:0:0:0:
241,186,102634,6,0,P|254:252|218:317,1,143,6|10,1:2|2:0,2:0:0:0:
131,346,103084,2,0,P|66:323|28:261,1,143,2|2,1:0|2:0,2:0:0:0:
51,171,103534,1,10,2:0:0:0:
87,85,103684,2,0,B|100:42|100:42|210:23,1,143,2|0,1:0|1:0,2:0:0:0:
288,5,104134,1,8,2:0:0:0:
318,92,104284,2,0,L|391:104,1,71.5,0|2,1:0|1:2,2:0:0:0:
468,56,104584,1,0,1:2:0:0:
511,138,104734,2,0,L|504:173,3,35.75,2|0|2|0,1:2|1:2|1:2|1:2,2:0:0:0:
469,204,105034,6,0,P|454:273|444:344,1,143,6|10,1:2|2:0,2:0:0:0:
352,329,105484,2,0,P|367:260|376:188,1,143,2|2,1:0|2:0,2:0:0:0:
340,101,105934,1,10,2:0:0:0:
253,135,106084,2,0,B|192:124|192:124|186:105|186:105|126:94,1,143,2|2,1:0|2:0,2:0:0:0:
54,154,106534,1,8,2:0:0:0:
128,209,106684,2,0,P|141:241|136:276,1,71.5,0|2,1:0|1:2,2:0:0:0:
69,342,106984,2,0,L|-1:329,2,71.5,2|10|2,1:2|2:0|2:0,2:0:0:0:
153,382,107434,6,0,B|232:372|203:334|279:325,1,143,6|10,1:2|2:0,2:0:0:0:
371,368,107884,2,0,P|439:354|450:289,1,143,2|2,1:0|2:0,2:0:0:0:
391,208,108334,1,10,2:0:0:0:
295,239,108484,2,0,L|153:215,1,143,2|2,1:0|2:0,2:0:0:0:
60,251,108934,2,0,L|43:166,1,71.5,10|2,2:0|1:0,2:0:0:0:
69,82,109234,2,0,L|59:31,3,35.75,10|0|0|0,2:0|1:0|1:0|2:0,2:0:0:0:
105,21,109534,2,0,L|249:49,1,143,10|6,2:0|2:0,2:0:0:0:
444,24,110134,5,10,2:0:0:0:
495,101,110284,1,2,1:2:0:0:
410,140,110434,2,0,P|395:167|398:206,1,71.5,8|0,2:0|1:2,2:0:0:0:
460,285,110734,2,0,P|464:320|448:351,1,71.5,10|2,2:0|1:0,2:0:0:0:
355,382,111034,1,8,2:0:0:0:
355,382,111184,1,2,1:0:0:0:
278,317,111334,2,0,B|234:301|206:339|223:333|195:372|151:356,1,143,10|10,2:0|2:0,2:0:0:0:
78,286,111784,2,0,P|42:291|7:297,2,71.5,2|10|2,1:2|2:0|1:2,2:0:0:0:
153,227,112234,6,0,P|159:193|141:163,1,71.5,14|0,2:0|2:0,2:0:0:0:
56,123,112534,2,0,P|49:89|67:59,1,71.5,10|2,2:0|1:0,2:0:0:0:
153,23,112834,1,8,2:0:0:0:
153,23,112984,1,2,1:2:0:0:
228,77,113134,2,0,P|267:68|306:63,1,71.5,10|2,2:0|2:0,2:0:0:0:
349,142,113434,1,10,0:2:0:0:
349,142,113584,2,0,P|384:147|419:154,1,71.5,2|10,1:2|2:0,2:0:0:0:
509,176,113884,1,0,1:0:0:0:
436,234,114034,1,10,2:0:0:0:
499,301,114184,1,2,1:2:0:0:
422,353,114334,2,0,L|371:343,3,35.75,10|8|8|8,2:0|2:0|2:0|2:0,2:0:0:0:
350,317,114634,6,0,L|277:302,1,71.5,6|2,2:0|2:0,2:0:0:0:
212,367,114934,1,10,2:0:0:0:
212,367,115084,2,0,L|56:335,1,143,2|0,1:2|1:2,2:0:0:0:
10,268,115534,1,10,2:0:0:0:
10,268,115684,2,0,P|4:234|20:201,1,71.5,2|10,2:0|2:0,2:0:0:0:
5,109,115984,2,0,P|35:93|71:98,1,71.5,2|10,1:0|2:0,2:0:0:0:
128,171,116284,1,2,1:2:0:0:
203,117,116434,2,0,P|212:84|221:41,2,71.5,10|2|10,2:0|1:2|2:0,2:0:0:0:
258,195,116884,2,0,P|294:185|327:178,1,71.5,2|6,1:2|1:2,2:0:0:0:
412,162,117184,6,0,L|405:126,2,35.75,8|8|10,2:0|2:0|2:0,2:0:0:0:
431,253,117484,1,2,1:0:0:0:
367,320,117634,2,0,P|334:329|302:314,1,71.5,2|0,2:0|1:2,2:0:0:0:
219,384,117934,1,2,1:2:0:0:
219,384,118084,2,0,L|193:232,2,143,10|10|10,2:0|2:0|2:0,2:0:0:0:
119,341,118834,2,0,L|107:267,1,71.5,10|0,2:0|2:0,2:0:0:0:
77,49,127984,6,0,L|66:-6,2,29.25,2|0|0,2:0|2:0|1:2,2:0:0:0:
36,114,128284,2,0,L|23:171,1,58.5000000000001,8|0,2:0|1:2,2:0:0:0:
71,231,128584,2,0,L|58:288,1,58.5000000000001,2|0,1:0|2:0,2:0:0:0:
91,356,128884,6,0,B|144:375|179:329|158:336|192:288|246:308,1,175.5,6|0,1:2|1:0,2:0:0:0:
380,381,129634,2,0,P|393:294|409:207,1,175.5,8|2,2:0|1:2,2:0:0:0:
256,148,130384,2,0,L|245:90,1,58.5000000000001,0|0,2:0|1:0,2:0:0:0:
103,7,130834,1,8,2:0:0:0:
9,142,131134,5,2,1:2:0:0:
9,142,131284,2,0,P|10:226|83:268,1,175.5,2|0,1:2|1:0,2:0:0:0:
244,237,132034,2,0,L|301:247,2,58.5000000000001,10|0|0,2:0|2:0|2:0,2:0:0:0:
200,167,132484,2,0,L|220:44,1,117,2|10,1:2|2:0,2:0:0:0:
287,6,132934,2,0,L|344:19,1,58.5000000000001,0|8,1:0|2:0,2:0:0:0:
415,59,133234,6,0,B|460:65|446:36|489:40,2,78.0000000000001,10|8|8,2:0|2:0|2:0,2:0:0:0:
370,159,133834,6,0,L|391:283,2,117,2|2|10,1:2|1:2|2:0,2:0:0:0:
254,275,134734,1,0,2:0:0:0:
254,275,134884,2,0,B|201:256|166:302|187:295|153:343|99:323,1,175.5,0|0,1:2|1:0,2:0:0:0:
56,164,135634,2,0,P|22:156|-8:151,2,58.5000000000001,8|2|0,2:0|2:0|2:0,2:0:0:0:
111,103,136084,6,0,P|157:70|212:82,1,117,2|10,1:2|2:0,2:0:0:0:
274,144,136534,1,2,1:2:0:0:
274,144,136684,1,2,1:2:0:0:
246,220,136834,2,0,P|243:248|257:273,1,58.5000000000001,0|2,1:2|1:2,2:0:0:0:
279,352,137134,2,0,P|305:363|333:357,1,58.5000000000001,2|2,1:2|1:2,2:0:0:0:
413,376,137434,2,0,P|466:301|431:231,1,175.5,2|2,1:0|2:0,2:0:0:0:
121,32,138634,6,0,B|47:22|70:69|-1:63,2,130,2|2|0,1:2|1:2|1:2,2:0:0:0:
264,124,139534,2,0,L|333:136,1,65,2|2,1:2|2:0,2:0:0:0:
411,147,139834,6,0,P|430:87|392:38,2,130,0|2|2,1:0|1:2|1:2,2:0:0:0:
364,218,140584,1,2,2:0:0:0:
364,218,140734,2,0,L|374:288,1,65,2|2,1:2|2:0,2:0:0:0:
373,367,141034,6,0,P|438:381|484:346,2,130,2|2|2,1:2|1:2|1:2,2:0:0:0:
253,247,141934,2,0,L|183:234,1,65,2|2,1:2|2:0,2:0:0:0:
131,173,142234,6,0,B|87:221|87:221|111:281,2,130,0|2|2,1:0|1:2|1:2,2:0:0:0:
195,117,142984,1,2,2:0:0:0:
195,117,143134,2,0,L|265:127,1,65,2|2,1:2|2:0,2:0:0:0:
344,130,143434,6,0,B|334:74|334:74|348:63|348:63|339:9,2,130,2|2|0,1:2|1:2|1:0,2:0:0:0:
198,215,144334,2,0,L|209:279,1,65,2|2,1:2|2:0,2:0:0:0:
262,344,144634,6,0,B|336:339|310:385|380:383,2,130,0|2|2,1:2|1:2|1:2,2:0:0:0:
184,372,145384,1,2,2:0:0:0:
184,372,145534,2,0,L|114:362,1,65,2|2,1:2|2:0,2:0:0:0:
35,351,145834,6,0,P|-3:301|16:242,2,130,2|2|0,1:2|1:2|1:0,2:0:0:0:
167,244,146734,2,0,L|179:174,1,65,2|2,1:2|2:0,2:0:0:0:
244,127,147034,6,0,B|195:83|195:83|135:107,2,130,0|2|2,1:2|1:2|1:2,2:0:0:0:
308,189,147784,1,2,2:0:0:0:
308,189,147934,2,0,L|378:179,1,65,8|2,2:0|2:0,2:0:0:0:
453,205,148234,6,0,P|468:232|464:263,1,65,2|0,1:0|2:0,2:0:0:0:
400,320,148534,2,0,B|411:384,2,65,2|2|0,1:2|2:0|1:0,2:0:0:0:
219,293,149134,2,0,B|134:278,1,65,2|2,1:2|2:0,2:0:0:0:
102,356,149434,6,0,P|76:336|67:305,1,65,0|0,1:0|2:0,2:0:0:0:
1,242,149734,2,0,P|18:181|73:149,1,130,2|2,1:2|1:2,2:0:0:0:
164,148,150184,2,0,P|149:123|153:86,2,65,2|2|2,2:0|1:2|2:0,2:0:0:0:
254,160,150634,6,0,L|318:148,1,65,2|0,1:0|2:0,2:0:0:0:
408,137,150934,2,0,P|421:110|418:77,2,65,2|2|2,1:2|2:0|1:2,2:0:0:0:
266,251,151534,2,0,P|252:279|255:312,1,65,2|2,1:2|2:0,2:0:0:0:
334,356,151834,6,0,L|410:342,1,65,0|0,1:0|2:0,2:0:0:0:
481,380,152134,2,0,L|504:250,1,130,2|2,1:2|1:2,2:0:0:0:
430,199,152584,2,0,L|416:123,1,65,2|2,2:0|1:2,2:0:0:0:
401,45,152884,1,2,2:0:0:0:
302,122,153034,6,0,P|273:136|241:132,1,65,2|0,1:0|2:0,2:0:0:0:
173,71,153334,2,0,L|162:6,2,65,2|2|0,1:2|2:0|1:0,2:0:0:0:
64,218,153934,6,0,P|73:247|99:268,1,65,0|2,1:2|2:0,2:0:0:0:
135,351,154234,2,0,P|199:352|245:309,1,130,0|2,1:0|1:2,2:0:0:0:
305,139,154834,1,2,1:2:0:0:
305,139,154984,1,2,2:0:0:0:
392,164,155134,2,0,P|412:188|411:220,1,65,2|2,1:2|2:0,2:0:0:0:
343,282,155434,6,0,P|346:344|402:371,2,130,0|2|2,1:0|1:2|1:2,2:0:0:0:
496,121,156334,2,0,P|492:58|436:31,2,130,2|0|0,1:2|2:0|2:0,2:0:0:0:
320,45,157234,5,8,2:0:0:0:
309,42,157309,1,8,2:0:0:0:
298,40,157384,2,0,L|265:33,3,32.5,8|8|8|8,2:0|2:0|2:0|2:0,2:0:0:0:
232,60,157684,6,0,L|99:36,1,130,6|0,1:2|1:2,2:0:0:0:
33,84,158134,2,0,P|26:115|40:143,1,65,10|0,2:0|1:0,2:0:0:0:
120,173,158434,2,0,L|168:164,5,32.5,8|8|8|8|8|8,2:0|2:0|2:0|2:0|2:0|2:0,2:0:0:0:
193,160,158884,6,0,B|235:182|235:182|221:263,1,130,6|0,1:2|1:2,2:0:0:0:
180,337,159334,2,0,B|204:359|204:359|234:347,1,65,10|0,2:0|2:0,2:0:0:0:
313,317,159634,2,0,L|322:269,5,32.5,2|0|0|0|0|0,1:2|1:2|1:2|1:2|1:2|1:2,2:0:0:0:
347,253,160084,6,0,L|371:120,1,130,6|0,1:2|1:2,2:0:0:0:
413,51,160534,2,0,P|384:36|353:43,1,65,10|0,2:0|2:0,2:0:0:0:
278,83,160834,1,8,2:0:0:0:
267,81,160909,1,8,2:0:0:0:
256,79,160984,2,0,L|222:72,3,32.5,8|8|8|8,2:0|2:0|2:0|2:0,2:0:0:0:
183,62,161284,6,0,P|124:40|71:75,1,130,6|0,1:2|1:2,2:0:0:0:
103,154,161734,2,0,L|90:217,1,65,10|0,2:0|2:0,2:0:0:0:
126,293,162034,2,0,L|113:356,2,65,8|0|8,2:0|1:0|2:0,2:0:0:0:
202,254,162484,6,0,B|276:249|250:295|320:293,1,130,6|0,1:2|1:2,2:0:0:0:
398,257,162934,2,0,L|410:193,1,65,10|0,2:0|2:0,2:0:0:0:
344,139,163234,1,8,2:0:0:0:
346,128,163309,1,8,2:0:0:0:
348,117,163384,2,0,L|355:83,3,32.5,8|8|8|8,2:0|2:0|2:0|2:0,2:0:0:0:
365,43,163684,6,0,B|342:0|342:0|261:14,1,130,6|0,1:2|1:2,2:0:0:0:
203,74,164134,2,0,L|140:61,1,65,10|0,2:0|2:0,2:0:0:0:
56,44,164434,2,0,L|48:3,2,32.5,2|0|0,1:2|1:2|1:2,2:0:0:0:
3,108,164734,2,0,L|11:149,1,32.5,8|8,2:0|2:0,2:0:0:0:
18,181,164884,6,0,B|27:234|27:234|43:247|43:247|53:302,1,130,6|0,1:2|1:2,2:0:0:0:
110,363,165334,2,0,P|141:369|169:354,1,65,10|0,2:0|2:0,2:0:0:0:
216,283,165634,2,0,L|207:235,5,32.5,8|8|8|8|8|8,2:0|2:0|2:0|2:0|2:0|2:0,2:0:0:0:
239,220,166084,6,0,L|252:157,1,65,6|2,1:2|2:0,2:0:0:0:
268,73,166384,1,2,1:2:0:0:
348,46,166534,1,10,2:0:0:0:
412,102,166684,1,2,1:2:0:0:
396,186,166834,6,0,B|387:229|387:229|396:243|396:243|389:288,2,107.25,10|10|10,2:0|2:0|2:0,2:0:0:0:
496,108,167434,1,2,2:1:0:0:
17,18,168634,6,0,P|0:45|6:82,1,71.5,6|0,1:2|2:0,2:0:0:0:
89,126,168934,2,0,P|106:153|99:190,1,71.5,10|0,2:0|2:0,2:0:0:0:
26,247,169234,1,2,1:2:0:0:
26,247,169384,1,0,2:0:0:0:
73,326,169534,1,10,2:0:0:0:
156,285,169684,6,0,B|252:267|252:267|263:293|286:299,1,143,2|2,1:2|1:2,2:0:0:0:
373,322,170134,1,8,2:0:0:0:
435,253,170284,2,0,L|515:267,2,71.5,2|0|0,2:0|1:0|1:0,2:0:0:0:
363,193,170734,2,0,P|346:161|349:126,1,71.5,10|2,2:0|1:0,2:0:0:0:
425,71,171034,6,0,L|413:0,1,71.5,6|0,1:2|2:0,2:0:0:0:
330,43,171334,2,0,L|259:31,1,71.5,10|0,2:0|2:0,2:0:0:0:
225,118,171634,2,0,L|154:130,1,71.5,2|0,1:2|2:0,2:0:0:0:
63,151,171934,1,10,2:0:0:0:
14,230,172084,6,0,B|27:273|27:273|125:290,1,143,2|2,1:2|1:2,2:0:0:0:
217,313,172534,1,10,2:0:0:0:
217,313,172684,1,2,1:2:0:0:
305,283,172834,2,0,L|319:354,1,71.5,2|0,1:2|2:0,2:0:0:0:
405,319,173134,2,0,L|419:248,1,71.5,10|2,2:0|1:2,2:0:0:0:
493,192,173434,6,0,P|483:158|455:136,1,71.5,6|0,1:2|2:0,2:0:0:0:
440,43,173734,2,0,P|405:42|375:61,1,71.5,10|0,2:0|2:0,2:0:0:0:
282,47,174034,2,0,P|270:79|279:113,1,71.5,2|0,1:2|2:0,2:0:0:0:
350,175,174334,1,10,2:0:0:0:
281,237,174484,6,0,P|212:223|140:211,1,143,2|2,1:2|1:2,2:0:0:0:
52,243,174934,1,10,2:0:0:0:
2,164,175084,2,0,P|8:128|15:93,1,71.5,2|0,2:0|1:0,2:0:0:0:
106,69,175384,2,0,L|93:-2,2,71.5,2|10|2,1:2|2:0|1:2,2:0:0:0:
187,113,175834,6,0,B|273:118|243:65|324:67,2,143,6|10|2,1:2|2:0|1:2,2:0:0:0:
57,246,176734,1,10,2:0:0:0:
57,246,176884,1,2,1:2:0:0:
98,329,177034,6,0,P|130:344|165:341,1,71.5,2|0,2:0|1:0,2:0:0:0:
215,263,177334,2,0,P|247:247|282:250,1,71.5,8|2,2:0|1:2,2:0:0:0:
330,329,177634,2,0,L|382:319,3,35.75,2|0|0|0,1:2|1:2|1:2|1:2,2:0:0:0:
407,343,177934,2,0,L|459:333,3,35.75,10|8|8|8,2:0|2:0|2:0|2:0,2:0:0:0:
473,301,178234,6,0,B|513:277|513:277|497:183,1,143,6|10,1:2|2:0,2:0:0:0:
342,77,178834,2,0,P|325:102|329:141,1,71.5,2|0,1:0|1:0,2:0:0:0:
391,211,179134,1,10,2:0:0:0:
321,272,179284,6,0,B|260:261|260:261|254:242|254:242|194:231,1,143,2|2,1:2|1:2,2:0:0:0:
108,263,179734,1,8,2:0:0:0:
108,263,179884,2,0,P|96:194|79:119,1,143,2|0,2:0|1:0,2:0:0:0:
132,46,180334,2,0,P|160:30|197:34,1,71.5,10|0,2:0|2:0,2:0:0:0:
261,102,180634,6,0,B|301:106|291:85|330:88,1,71.5,6|0,1:2|2:0,2:0:0:0:
410,41,180934,2,0,B|445:23|473:48|473:48|457:137,1,143,10|2,2:0|1:2,2:0:0:0:
390,183,181384,1,0,1:2:0:0:
390,183,181534,1,10,2:0:0:0:
451,252,181684,2,0,P|472:319|342:363,1,214.5,2|10,1:0|2:0,2:0:0:0:
249,232,182434,2,0,P|217:216|182:219,1,71.5,2|0,1:2|1:0,2:0:0:0:
109,277,182734,2,0,P|73:280|42:264,1,71.5,10|0,2:0|2:0,2:0:0:0:
2,180,183034,6,0,P|17:101|27:39,2,143,6|10|2,1:2|2:0|1:2,2:0:0:0:
154,73,183934,1,10,2:0:0:0:
228,128,184084,2,0,B|314:133|284:80|365:82,1,143,2|0,1:2|1:0,2:0:0:0:
450,93,184534,2,0,B|490:116|490:116|474:210,2,143,10|2|10,2:0|1:2|2:0,2:0:0:0:
309,216,185434,6,0,P|324:247|320:282,1,71.5,6|0,1:2|2:0,2:0:0:0:
252,347,185734,2,0,L|182:335,1,71.5,10|0,2:0|2:0,2:0:0:0:
97,376,186034,2,0,P|81:346|85:310,1,71.5,2|0,1:2|2:0,2:0:0:0:
21,241,186334,2,0,P|44:216|80:209,1,71.5,10|0,2:0|1:0,2:0:0:0:
143,140,186634,6,0,L|131:70,1,71.5,10|0,2:0|1:0,2:0:0:0:
195,1,186934,1,10,2:0:0:0:
266,59,187084,1,0,1:0:0:0:
347,14,187234,2,0,L|417:27,1,71.5,2|2,1:2|1:2,2:0:0:0:
508,42,187534,2,0,L|499:94,3,35.75,10|8|10|8,2:0|2:0|2:0|2:0,2:0:0:0:
468,109,187834,6,0,P|438:166|446:242,1,143,6|10,2:0|2:0,2:0:0:0:
373,299,188284,2,0,P|316:268|240:276,1,143,2|0,1:0|1:0,2:0:0:0:
175,343,188734,1,10,2:0:0:0:
106,279,188884,2,0,B|73:246|73:246|89:150,1,143,2|0,1:0|1:0,2:0:0:0:
145,76,189334,1,10,2:0:0:0:
210,142,189484,2,0,P|241:157|276:151,1,71.5,0|2,1:0|1:2,2:0:0:0:
339,81,189784,2,0,L|325:7,2,71.5,2|10|2,1:2|2:0|2:0,2:0:0:0:
416,133,190234,6,0,B|393:216|451:197|432:276,1,143,6|10,1:2|2:0,2:0:0:0:
460,359,190684,2,0,B|376:336|395:394|316:375,1,143,2|2,1:0|1:2,2:0:0:0:
263,305,191134,1,10,2:0:0:0:
188,359,191284,2,0,B|127:347|127:347|121:328|121:328|61:318,1,143,2|0,1:0|1:2,2:0:0:0:
4,244,191734,1,8,2:0:0:0:
58,168,191884,2,0,L|46:95,1,71.5,0|10,1:0|2:0,2:0:0:0:
114,32,192184,1,2,1:2:0:0:
183,93,192334,2,0,L|218:100,3,35.75,10|0|2|0,2:0|2:0|2:0|2:0,2:0:0:0:
258,75,192634,6,0,B|354:57|354:57|365:83|388:89,1,143,6|10,1:2|2:0,2:0:0:0:
395,180,193084,2,0,B|299:198|299:198|288:172|265:166,1,143,2|0,1:0|1:0,2:0:0:0:
178,194,193534,1,10,2:0:0:0:
125,270,193684,2,0,P|142:343|202:368,1,143,2|0,1:0|1:0,2:0:0:0:
268,305,194134,1,8,2:0:0:0:
351,345,194284,2,0,L|424:333,1,71.5,0|0,1:2|1:2,2:0:0:0:
499,282,194584,2,0,P|504:322|512:352,2,71.5,2|10|2,1:2|2:0|2:0,2:0:0:0:
418,236,195034,6,0,B|429:175|429:175|448:169|448:169|458:109,1,143,6|10,1:2|2:0,2:0:0:0:
428,21,195484,2,0,P|348:5|319:64,1,143,2|0,1:0|1:0,2:0:0:0:
349,136,195934,1,10,2:0:0:0:
269,183,196084,6,0,B|183:188|212:135|132:137,1,143,2|2,1:0|1:0,2:0:0:0:
69,198,196534,2,0,L|79:249,3,35.75,10|0|2|0,2:0|2:0|1:2|2:0,2:0:0:0:
48,270,196834,2,0,L|58:321,3,35.75,0|0|2|0,2:0|1:0|1:2|1:0,2:0:0:0:
94,329,197134,2,0,B|190:344|190:344|191:373|211:386,1,143,10|14,2:0|2:0,2:0:0:0:
391,348,197734,5,10,2:0:0:0:
455,281,197884,1,2,1:2:0:0:
402,204,198034,2,0,L|415:130,1,71.5,8|0,2:0|2:0,2:0:0:0:
460,52,198334,2,0,P|428:35|393:39,1,71.5,10|2,2:0|1:2,2:0:0:0:
324,102,198634,1,8,2:0:0:0:
324,102,198784,1,0,2:0:0:0:
245,51,198934,2,0,B|159:63|200:109|120:124,1,143,10|10,2:0|2:0,2:0:0:0:
46,76,199384,2,0,P|39:40|35:5,2,71.5,2|10|2,1:2|2:0|1:2,2:0:0:0:
14,164,199834,6,0,L|0:240,1,71.5,10|0,2:0|2:0,2:0:0:0:
46,315,200134,2,0,P|75:333|109:326,1,71.5,10|2,2:0|1:2,2:0:0:0:
173,258,200434,1,8,2:0:0:0:
173,258,200584,1,0,2:0:0:0:
236,325,200734,2,0,L|314:339,1,71.5,10|0,2:0|2:0,2:0:0:0:
395,364,201034,5,8,2:0:0:0:
395,364,201184,2,0,P|400:329|407:294,1,71.5,2|10,1:2|2:0,2:0:0:0:
458,215,201484,1,2,1:2:0:0:
381,162,201634,1,10,2:0:0:0:
465,121,201784,1,2,1:2:0:0:
388,68,201934,2,0,L|337:58,3,35.75,8|8|10|8,2:0|2:0|2:0|2:0,2:0:0:0:
318,30,202234,6,0,P|282:26|252:43,1,71.5,14|0,2:0|2:0,2:0:0:0:
172,5,202534,1,10,2:0:0:0:
172,5,202684,2,0,P|109:44|121:121,1,143,2|0,1:2|2:0,2:0:0:0:
198,153,203134,1,10,2:0:0:0:
198,153,203284,2,0,L|209:233,1,71.5,2|8,1:2|2:0,2:0:0:0:
119,251,203584,2,0,L|107:331,1,71.5,0|10,2:0|2:0,2:0:0:0:
178,383,203884,1,2,1:2:0:0:
256,332,204034,2,0,L|334:318,1,71.5,10|2,2:0|1:2,2:0:0:0:
414,362,204334,1,10,2:0:0:0:
414,362,204484,2,0,P|430:330|426:295,1,71.5,2|14,1:2|2:0,2:0:0:0:
370,221,204784,6,0,L|360:170,3,35.75,8|8|10|0,2:0|2:0|2:0|2:0,2:0:0:0:
351,140,205084,1,2,1:2:0:0:
268,182,205234,2,0,B|182:170|222:124|142:110,1,143,2|2,2:0|1:0,2:0:0:0:
65,153,205684,6,0,P|53:227|39:305,2,143,14|10|10,2:0|2:0|2:0,2:0:0:0:
17,74,206434,2,0,L|5:0,1,71.5,10|0,2:0|2:0,2:0:0:0:
