osu file format v14

[General]
AudioFilename: audio.mp3
AudioLeadIn: 0
PreviewTime: 167434
Countdown: 0
SampleSet: Soft
StackLeniency: 0.3
Mode: 0
LetterboxInBreaks: 0
WidescreenStoryboard: 1

[Editor]
Bookmarks: 13826,61684,127984,138634,148234,157684,170959,173359,180559,206959
DistanceSpacing: 0.4
BeatDivisor: 4
GridSize: 16
TimelineZoom: 2.5

[Metadata]
Title:Additional Memory
TitleUnicode:アディショナルメモリー
Artist:JIN
ArtistUnicode:じん
Creator:Ilay
Version:Extreme
Source:カゲロウプロジェクト
Tags:Japanese Reload Rock Ayano Tateyama 楯山文乃 Kagerou Project Daze Days Mekakucity Actors メカクシティアクターズ Shizen no Teki P Teki-P TekiP 自然の敵P Vocaloid Hatsune Miku 初音ミク moph Len Fast JRock J-Rock
BeatmapID:3114646
BeatmapSetID:1521890

[Difficulty]
HPDrainRate:5.5
CircleSize:4.2
OverallDifficulty:9.4
ApproachRate:9.6
SliderMultiplier:2
SliderTickRate:1

[Events]
//Background and Video events
Video,0,"video.mp4"
0,0,"BG.jpg",0,0
//Break Periods
2,119284,127475
//Storyboard Layer 0 (Background)
//Storyboard Layer 1 (Fail)
//Storyboard Layer 2 (Pass)
//Storyboard Layer 3 (Foreground)
//Storyboard Layer 4 (Overlay)
//Storyboard Sound Samples

[TimingPoints]
13826,300,4,2,1,50,1,0
13826,-133.333333333333,4,2,1,50,0,0
14051,-133.333333333333,4,2,1,5,0,0
14126,-133.333333333333,4,2,1,50,0,0
15101,-133.333333333333,4,2,1,5,0,0
15176,-133.333333333333,4,2,1,50,0,0
16301,-133.333333333333,4,2,1,5,0,0
16376,-133.333333333333,4,2,1,50,0,0
18476,-200,4,2,1,50,0,0
22076,-80,4,2,1,50,0,0
23426,-80,4,2,1,75,0,1
23651,-80,4,2,1,5,0,1
23726,-80,4,2,1,75,0,1
26051,-80,4,2,1,5,0,1
26126,-80,4,2,1,75,0,1
28451,-80,4,2,1,5,0,1
28526,-80,4,2,1,75,0,1
30851,-80,4,2,1,5,0,1
30926,-80,4,2,1,75,0,1
33251,-80,4,2,1,5,0,1
33326,-80,4,2,1,75,0,1
35651,-80,4,2,1,5,0,1
35726,-80,4,2,1,75,0,1
38051,-80,4,2,1,5,0,1
38126,-80,4,2,1,75,0,1
40234,291.26213592233,4,2,1,75,1,1
41399,317.460317460317,4,2,1,75,1,1
42034,300,4,2,1,75,1,1
42034,-80,4,2,1,75,0,1
42484,-133.333333333333,4,2,1,55,0,0
42634,300,4,2,1,55,1,0
43234,-133.333333333333,4,2,1,55,0,0
45559,-133.333333333333,4,2,1,5,0,0
45634,-133.333333333333,4,2,1,55,0,0
50884,-80,4,2,1,65,0,0
52084,-100,4,2,1,65,0,0
58309,-100,4,2,1,5,0,0
58384,-100,4,2,1,65,0,0
59509,-100,4,2,1,5,0,0
59584,-100,4,2,1,65,0,0
60784,-83.3333333333333,4,2,1,65,0,0
61009,-83.3333333333333,4,2,1,5,0,0
61084,-100,4,2,1,65,0,0
61309,-100,4,2,1,5,0,0
61384,-125,4,2,1,65,0,0
61609,-125,4,2,1,5,0,0
61684,-133.333333333333,4,2,1,55,0,0
62059,-133.333333333333,4,2,1,5,0,0
62134,-133.333333333333,4,2,1,55,0,0
68659,-133.333333333333,4,2,1,5,0,0
68734,-133.333333333333,4,2,1,55,0,0
68959,-133.333333333333,4,2,1,5,0,0
69034,-133.333333333333,4,2,1,55,0,0
69409,-133.333333333333,4,2,1,5,0,0
69484,-133.333333333333,4,2,1,55,0,0
69859,-133.333333333333,4,2,1,5,0,0
69934,-133.333333333333,4,2,1,55,0,0
73759,-133.333333333333,4,2,1,5,0,0
73834,-133.333333333333,4,2,1,55,0,0
74059,-133.333333333333,4,2,1,5,0,0
74134,-133.333333333333,4,2,1,55,0,0
76159,-133.333333333333,4,2,1,5,0,0
76234,-100,4,2,1,65,0,0
76459,-100,4,2,1,5,0,0
76534,-100,4,2,1,65,0,0
78634,-80,4,2,1,65,0,0
80434,-400,4,2,1,65,0,0
80959,-400,4,2,1,5,0,0
81034,-80,4,2,1,75,0,1
81259,-80,4,2,1,5,0,1
81334,-80,4,2,1,75,0,1
83359,-80,4,2,1,5,0,1
83434,-80,4,2,1,75,0,1
83659,-80,4,2,1,5,0,1
83734,-80,4,2,1,75,0,1
86059,-80,4,2,1,5,0,1
86134,-100,4,2,1,75,0,1
86359,-100,4,2,1,5,0,1
86434,-133.333333333333,4,2,1,75,0,1
86659,-133.333333333333,4,2,1,5,0,1
86734,-133.333333333333,4,2,1,75,0,1
86884,-80,4,2,1,75,0,1
88459,-80,4,2,1,5,0,1
88534,-80,4,2,1,75,0,1
88759,-80,4,2,1,5,0,1
88834,-80,4,2,1,75,0,1
89059,-80,4,2,1,5,0,1
89134,-80,4,2,1,75,0,1
90859,-80,4,2,1,5,0,1
90934,-80,4,2,1,75,0,1
93259,-80,4,2,1,5,0,1
93334,-80,4,2,1,75,0,1
95659,-80,4,2,1,5,0,1
95734,-80,4,2,1,75,0,1
95959,-80,4,2,1,5,0,1
96034,-80,4,2,1,75,0,1
96259,-80,4,2,1,5,0,1
96334,-80,4,2,1,75,0,1
98059,-80,4,2,1,5,0,1
98134,-80,4,2,1,75,0,1
98359,-80,4,2,1,5,0,1
98434,-80,4,2,1,75,0,1
98659,-80,4,2,1,5,0,1
98734,-80,4,2,1,75,0,1
100459,-80,4,2,1,5,0,1
100534,-80,4,2,1,75,0,1
100909,-80,4,2,1,5,0,1
100984,-80,4,2,1,75,0,1
101509,-80,4,2,1,5,0,1
101584,-80,4,2,1,75,0,1
103309,-80,4,2,1,5,0,1
103384,-80,4,2,1,75,0,1
103909,-80,4,2,1,5,0,1
103984,-80,4,2,1,75,0,1
105259,-80,4,2,1,5,0,1
105334,-80,4,2,1,75,0,1
105709,-80,4,2,1,5,0,1
105784,-80,4,2,1,75,0,1
106309,-80,4,2,1,5,0,1
106384,-80,4,2,1,75,0,1
107659,-80,4,2,1,5,0,1
107734,-80,4,2,1,75,0,1
108109,-80,4,2,1,5,0,1
108184,-80,4,2,1,75,0,1
108709,-80,4,2,1,5,0,1
108784,-80,4,2,1,75,0,1
119284,-80,4,2,1,75,0,0
127984,-200,4,2,1,45,0,0
138109,-200,4,2,1,5,0,0
138184,-200,4,2,1,45,0,0
138634,-133.333333333333,4,2,1,55,0,0
148234,-100,4,2,1,60,0,0
148459,-100,4,2,1,5,0,0
148534,-100,4,2,1,60,0,0
150859,-100,4,2,1,5,0,0
150934,-100,4,2,1,60,0,0
157684,-100,4,2,1,65,0,0
159109,-100,4,2,1,5,0,0
159184,-100,4,2,1,65,0,0
160309,-100,4,2,1,5,0,0
160384,-100,4,2,1,65,0,0
161509,-100,4,2,1,5,0,0
161584,-100,4,2,1,65,0,0
162709,-100,4,2,1,5,0,0
162784,-100,4,2,1,65,0,0
163909,-100,4,2,1,5,0,0
163984,-100,4,2,1,65,0,0
165109,-100,4,2,1,5,0,0
165184,-100,4,2,1,65,0,0
166834,-80,4,2,1,65,0,0
167059,-66.6666666666667,4,2,1,70,0,0
167284,-50,4,2,1,75,0,0
167434,-400,4,2,1,55,0,0
168559,-400,4,2,1,5,0,0
168634,-80,4,2,1,75,0,1
168859,-80,4,2,1,5,0,1
168934,-80,4,2,1,75,0,1
170959,-80,4,2,1,5,0,1
171034,-80,4,2,1,75,0,1
171259,-80,4,2,1,5,0,1
171334,-80,4,2,1,75,0,1
173659,-80,4,2,1,5,0,1
173734,-100,4,2,1,75,0,1
173959,-100,4,2,1,5,0,1
174034,-133.333333333333,4,2,1,75,0,1
174259,-133.333333333333,4,2,1,5,0,1
174334,-133.333333333333,4,2,1,75,0,1
174484,-80,4,2,1,75,0,1
176059,-80,4,2,1,5,0,1
176134,-80,4,2,1,75,0,1
176359,-80,4,2,1,5,0,1
176434,-80,4,2,1,75,0,1
176659,-80,4,2,1,5,0,1
176734,-80,4,2,1,75,0,1
178459,-80,4,2,1,5,0,1
178534,-80,4,2,1,75,0,1
180859,-80,4,2,1,5,0,1
180934,-80,4,2,1,75,0,1
183259,-80,4,2,1,5,0,1
183334,-80,4,2,1,75,0,1
183559,-80,4,2,1,5,0,1
183634,-80,4,2,1,75,0,1
183859,-80,4,2,1,5,0,1
183934,-80,4,2,1,75,0,1
185659,-80,4,2,1,5,0,1
185734,-80,4,2,1,75,0,1
185959,-80,4,2,1,5,0,1
186034,-80,4,2,1,75,0,1
186259,-80,4,2,1,5,0,1
186334,-80,4,2,1,75,0,1
188059,-80,4,2,1,5,0,1
188134,-80,4,2,1,75,0,1
188509,-80,4,2,1,5,0,1
188584,-80,4,2,1,75,0,1
189109,-80,4,2,1,5,0,1
189184,-80,4,2,1,75,0,1
190909,-80,4,2,1,5,0,1
190984,-80,4,2,1,75,0,1
191509,-80,4,2,1,5,0,1
191584,-80,4,2,1,75,0,1
192859,-80,4,2,1,5,0,1
192934,-80,4,2,1,75,0,1
193309,-80,4,2,1,5,0,1
193384,-80,4,2,1,75,0,1
193909,-80,4,2,1,5,0,1
193984,-80,4,2,1,75,0,1
195259,-80,4,2,1,5,0,1
195334,-80,4,2,1,75,0,1
195709,-80,4,2,1,5,0,1
195784,-80,4,2,1,75,0,1
196309,-80,4,2,1,5,0,1
196384,-80,4,2,1,75,0,1
206959,-80,4,2,1,75,0,0

[Colours]
Combo1 : 212,212,212
Combo2 : 221,0,0
Combo3 : 126,125,122
Combo4 : 250,78,155

[HitObjects]
69,336,13826,6,0,B|89:355|89:355|104:272,1,112.5,2|0,2:0|2:0,2:0:0:0:
46,222,14126,2,0,P|26:109|26:109,1,112.5,2|0,2:0|2:0,2:0:0:0:
96,23,14426,5,2,2:0:0:0:
194,106,14576,2,0,B|229:99|229:99|230:97|230:97|266:91,1,75.0000000000002,2|0,2:1|2:0,2:0:0:0:
455,56,14876,6,0,B|427:26|427:26|410:125,1,112.5,2|0,2:0|2:0,2:0:0:0:
403,168,15176,1,2,2:0:0:0:
512,270,15326,2,0,P|476:241|414:252,1,112.5,2|0,2:0|2:0,2:0:0:0:
360,342,15626,5,2,2:0:0:0:
234,260,15776,2,0,B|198:266|198:266|197:268|197:268|161:274,1,75.0000000000002,2|0,2:1|2:0,2:0:0:0:
38,349,16076,6,0,B|4:323|4:323|21:224,1,112.5,2|0,2:0|2:0,2:0:0:0:
34,180,16376,1,2,2:0:0:0:
0,91,16526,2,0,B|33:61|71:74|71:74|70:92|83:107,1,112.5,2|0,2:0|2:0,2:0:0:0:
170,142,16826,5,2,2:0:0:0:
244,47,16976,2,0,P|216:29|175:34,1,75.0000000000002,2|0,2:1|2:0,2:0:0:0:
329,258,17276,6,0,P|333:221|341:185,1,75.0000000000002,2|0,2:0|2:0,2:0:0:0:
365,114,17576,1,2,2:0:0:0:
365,114,17726,1,0,2:0:0:0:
248,235,17876,6,0,P|210:240|174:247,1,75.0000000000002,2|0,2:0|2:0,2:0:0:0:
50,299,18176,2,0,P|65:302|86:305,1,37.5000000000001,2|0,2:0|2:0,2:0:0:0:
145,349,18326,1,0,2:0:0:0:
152,347,18401,1,0,2:0:0:0:
159,346,18476,6,0,B|211:341|234:384|234:384|310:359|311:270|248:235|248:235|274:213|302:202|302:202|170:256|85:123|122:22|182:-28|259:-4|279:56|253:97|253:97|290:59|257:-41|130:-22|164:54|162:73|95:102|35:80|15:30,1,1150,6|0,2:0|2:0,2:0:0:0:
86,0,22076,6,0,B|98:29|87:68|87:68|91:68|91:68|68:100|68:100|72:101|72:101|61:140|74:169,1,187.5,12|0,2:0|2:0,2:0:0:0:
205,204,22376,5,10,2:0:0:0:
239,246,22451,1,4,3:0:0:0:
239,293,22526,1,4,3:0:0:0:
216,327,22601,1,8,3:0:0:0:
185,343,22676,1,8,3:0:0:0:
158,345,22751,1,8,3:0:0:0:
141,333,22826,6,0,P|113:319|82:322,1,62.5,10|0,2:0|2:0,2:0:0:0:
295,175,22976,2,0,B|354:185|354:185|356:188|356:188|415:199,1,125,10|0,2:0|2:0,2:0:0:0:
416,199,23426,6,0,B|379:236|346:260|346:260|369:294|390:342,1,187.5,6|0,1:2|2:0,2:0:0:0:
461,282,23726,1,10,2:0:0:0:
295,175,23876,2,0,P|235:161|184:194,1,125,2|8,1:2|2:0,2:0:0:0:
311,384,24176,1,2,1:2:0:0:
360,120,24326,2,0,B|370:67|370:67|359:52|359:52|368:0,1,125,10|0,2:0|2:0,2:0:0:0:
250,236,24626,5,8,2:0:0:0:
213,31,24776,1,0,1:2:0:0:
238,249,24926,1,8,2:0:0:0:
197,26,25076,1,0,1:2:0:0:
416,199,25226,5,8,2:0:0:0:
170,153,25376,1,0,1:2:0:0:
424,234,25526,1,8,2:0:0:0:
154,182,25676,1,0,1:2:0:0:
384,348,25826,6,0,B|345:298|285:321|285:321|274:367|231:371,1,187.5,6|0,1:2|2:0,2:0:0:0:
151,351,26126,1,10,2:0:0:0:
271,123,26276,2,0,P|256:182|289:233,1,125,2|8,1:2|2:0,2:0:0:0:
512,84,26576,1,2,1:2:0:0:
284,40,26726,2,0,B|231:31|231:31|216:41|216:41|164:33,1,125,10|0,2:0|2:0,2:0:0:0:
426,211,27026,5,8,2:0:0:0:
284,41,27176,1,0,1:0:0:0:
209,248,27326,1,8,2:0:0:0:
422,69,27476,1,0,1:0:0:0:
332,316,27626,1,8,2:0:0:0:
163,115,27776,1,0,1:0:0:0:
426,211,27926,5,10,2:0:0:0:
434,255,28001,1,8,2:0:0:0:
416,297,28076,1,8,2:0:0:0:
377,320,28151,1,8,2:0:0:0:
332,316,28226,6,0,B|262:303|262:303|222:332|222:332|154:320,1,187.5,4|0,1:2|2:0,2:0:0:0:
76,305,28526,1,10,2:0:0:0:
299,106,28676,2,0,B|327:127|327:127|311:221,1,125,2|8,1:2|2:0,2:0:0:0:
282,384,28976,1,2,1:2:0:0:
234,60,29126,2,0,P|285:27|344:41,1,125,10|0,2:0|2:0,2:0:0:0:
180,263,29426,5,8,2:0:0:0:
107,68,29576,1,0,1:0:0:0:
193,345,29726,1,8,2:0:0:0:
299,106,29876,1,0,1:0:0:0:
406,352,30026,5,8,2:0:0:0:
344,41,30176,1,0,1:0:0:0:
303,308,30326,1,8,2:0:0:0:
462,59,30476,1,0,1:0:0:0:
180,263,30626,6,0,P|159:169|130:77,1,187.5,10|0,2:0|2:0,2:0:0:0:
174,18,30926,1,10,2:0:0:0:
299,106,31076,1,2,1:2:0:0:
180,263,31226,2,0,P|123:238|61:244,1,125,10|0,2:0|1:0,2:0:0:0:
343,40,31526,2,0,P|400:65|462:59,1,125,10|0,2:0|1:0,2:0:0:0:
280,310,31826,5,10,2:0:0:0:
97,84,31976,1,0,1:0:0:0:
148,384,32126,1,10,2:0:0:0:
383,190,32276,1,0,1:0:0:0:
161,155,32426,5,2,1:2:0:0:
200,161,32501,1,0,1:2:0:0:
226,191,32576,1,2,1:2:0:0:
235,232,32651,1,0,1:2:0:0:
219,268,32726,1,2,1:2:0:0:
205,305,32801,1,0,1:2:0:0:
212,345,32876,1,2,1:2:0:0:
240,374,32951,1,0,1:2:0:0:
281,383,33026,6,0,B|343:386|363:326|342:340|363:281|425:284,1,187.5,6|0,1:2|2:0,2:0:0:0:
487,369,33326,1,10,2:0:0:0:
319,243,33476,2,0,P|305:184|337:133,1,125,2|8,1:2|2:0,2:0:0:0:
508,175,33776,1,2,1:2:0:0:
320,0,33926,2,0,B|267:9|267:9|256:24|256:24|204:34,1,125,10|0,2:0|2:0,2:0:0:0:
0,245,34226,5,8,2:0:0:0:
184,113,34376,1,0,1:0:0:0:
26,86,34526,1,8,2:0:0:0:
157,271,34676,1,0,1:0:0:0:
440,159,34826,5,8,2:0:0:0:
247,190,34976,1,0,1:0:0:0:
279,384,35126,1,8,2:0:0:0:
473,351,35276,1,0,1:0:0:0:
177,94,35426,6,0,B|161:183|161:183|157:186|157:186|140:275,1,187.5,6|0,1:2|2:0,2:0:0:0:
126,354,35726,1,10,2:0:0:0:
241,51,35876,2,0,P|190:18|130:33,1,125,2|8,1:2|2:0,2:0:0:0:
19,234,36176,1,2,1:2:0:0:
247,190,36326,2,0,B|300:181|300:181|315:191|315:191|367:183,1,125,10|0,2:0|2:0,2:0:0:0:
471,72,36626,5,8,2:0:0:0:
506,265,36776,1,2,1:2:0:0:
301,301,36926,5,8,2:0:0:0:
336,108,37076,1,2,1:2:0:0:
172,264,37226,5,8,2:0:0:0:
130,32,37376,1,2,1:2:0:0:
103,353,37526,5,10,2:0:0:0:
103,353,37601,1,8,2:0:0:0:
103,353,37676,1,8,2:0:0:0:
103,353,37751,1,8,2:0:0:0:
103,353,37826,6,0,B|192:338|192:338|196:341|196:341|286:326,1,187.5,6|0,1:2|2:0,2:0:0:0:
345,265,38126,1,10,2:0:0:0:
85,163,38276,2,0,B|44:211|44:211|66:270,1,125,2|8,1:2|2:0,2:0:0:0:
360,266,38576,1,2,1:2:0:0:
240,0,38726,2,0,B|230:52|230:52|240:68|240:68|232:120,1,125,10|0,2:0|2:0,2:0:0:0:
12,7,39026,5,8,2:0:0:0:
57,268,39176,1,0,1:0:0:0:
152,56,39326,5,8,2:0:0:0:
105,328,39476,1,0,1:0:0:0:
240,0,39626,5,8,2:0:0:0:
288,281,39776,1,0,1:0:0:0:
512,132,39926,2,0,B|460:122|460:122|450:107|450:107|397:98,1,125,10|2,2:0|1:2,2:0:0:0:
152,56,40234,5,10,2:0:0:0:
343,182,40379,1,0,1:2:0:0:
503,19,40525,1,0,1:2:0:0:
282,288,40670,5,10,2:0:0:0:
319,51,40816,1,0,1:2:0:0:
434,262,40962,1,0,1:2:0:0:
318,36,41107,5,10,2:0:0:0:
368,328,41253,1,0,2:0:0:0:
95,168,41399,5,8,1:2:0:0:
79,209,41478,1,0,1:2:0:0:
88,251,41557,1,0,1:2:0:0:
120,283,41637,1,0,1:2:0:0:
165,292,41716,1,0,1:2:0:0:
206,277,41795,1,0,1:2:0:0:
233,243,41875,1,0,1:2:0:0:
237,199,41954,1,0,1:2:0:0:
216,159,42034,6,0,P|191:139|159:136,1,62.5,6|0,1:2|2:0,2:0:0:0:
280,382,42184,2,0,B|295:292|295:292|300:289|300:289|316:200,1,187.5,2|0,1:2|2:0,2:0:0:0:
379,77,42484,6,0,B|321:66|321:66|294:85|294:85|236:75,1,150,6|0,1:2|1:0,2:0:0:0:
89,49,42934,1,8,2:0:0:0:
167,0,43084,1,0,2:0:0:0:
231,149,43234,2,0,B|206:176|206:176|169:169,1,75.0000000000002,0|0,1:2|2:0,2:0:0:0:
20,141,43534,5,8,2:0:0:0:
107,337,43684,1,2,2:1:0:0:
107,337,43984,5,2,1:2:0:0:
196,322,44134,1,10,2:0:0:0:
80,184,44284,5,2,2:0:0:0:
49,268,44434,1,2,1:2:0:0:
226,237,44584,5,2,1:2:0:0:
168,168,44734,1,10,2:0:0:0:
138,253,44884,1,2,1:2:0:0:
284,306,45034,6,0,B|314:300|314:300|321:291|321:291|352:285,1,75.0000000000002,2|0,2:0|1:0,2:0:0:0:
467,370,45334,2,0,P|499:326|486:273,1,112.5,10|0,2:0|2:0,2:0:0:0:
427,227,45634,1,2,1:2:0:0:
427,227,45784,1,0,1:0:0:0:
512,152,45934,1,10,2:0:0:0:
311,81,46084,1,2,1:2:0:0:
311,81,46384,6,0,B|329:47|305:42|323:8,2,75.0000000000002,2|8|2,2:1|2:0|2:0,2:0:0:0:
190,175,46834,6,0,P|209:169|226:169,1,37.5000000000001,2|0,1:2|2:0,2:0:0:0:
296,234,46984,1,2,1:2:0:0:
296,234,47134,1,8,2:0:0:0:
371,272,47284,6,0,P|313:317|241:297,1,150,6|0,1:2|1:0,2:0:0:0:
296,234,47734,5,10,2:0:0:0:
296,234,47884,1,0,2:0:0:0:
461,204,48034,1,0,1:2:0:0:
404,361,48184,1,0,1:2:0:0:
368,170,48334,1,8,2:0:0:0:
477,299,48484,1,0,1:0:0:0:
482,301,48784,5,2,1:2:0:0:
366,163,48934,1,10,2:0:0:0:
305,333,49084,1,2,2:0:0:0:
464,198,49234,5,2,1:2:0:0:
402,368,49384,1,2,1:2:0:0:
287,230,49534,1,10,2:0:0:0:
405,384,49684,1,2,1:2:0:0:
396,141,49834,6,0,B|366:163|366:163|329:153,1,75.0000000000002,2|0,2:0|1:0,2:0:0:0:
267,11,50134,2,0,B|230:0|230:0|200:22,1,75.0000000000002,10|0,2:0|2:0,2:0:0:0:
85,112,50434,6,0,B|55:106|55:106|48:97|48:97|17:91,1,75.0000000000002,2|0,1:2|2:0,2:0:0:0:
145,275,50734,1,10,2:0:0:0:
265,124,50884,6,0,B|187:110|187:110|210:171,1,125,2|0,1:0|2:0,2:0:0:0:
411,219,51184,6,0,B|461:158|461:158|397:147,1,125,2|0,1:0|2:0,2:0:0:0:
255,298,51484,6,0,B|281:371|281:371|311:335,1,125,2|0,1:0|2:0,2:0:0:0:
331,199,51784,6,0,P|308:241|303:194,1,125,2|0,1:0|2:0,2:0:0:0:
145,275,52084,6,0,B|75:263|2:249|2:249|35:264|41:296,1,200,6|0,1:2|1:2,2:0:0:0:
127,366,52534,5,10,2:0:0:0:
165,128,52684,1,0,2:0:0:0:
53,170,52834,1,0,1:2:0:0:
239,323,52984,1,0,1:2:0:0:
256,205,53134,1,8,2:0:0:0:
33,287,53284,1,0,2:0:0:0:
21,291,53584,5,2,1:2:0:0:
267,200,53734,1,10,2:0:0:0:
43,162,53884,1,2,2:0:0:0:
248,330,54034,5,2,1:2:0:0:
166,116,54184,1,2,1:2:0:0:
125,377,54334,1,10,2:0:0:0:
171,94,54484,1,2,1:2:0:0:
378,330,54634,6,0,B|408:334|430:313|417:317|438:295|469:300,1,100,2|2,2:0|1:2,2:0:0:0:
267,200,54934,2,0,B|236:195|214:216|227:212|206:234|175:229,1,100,10|0,2:0|2:0,2:0:0:0:
315,384,55234,1,2,1:2:0:0:
315,384,55384,1,2,1:2:0:0:
469,300,55534,1,10,2:0:0:0:
359,144,55684,6,0,B|365:186|365:186|357:199|357:199|363:240,1,100,2|0,2:0|2:0,2:0:0:0:
378,338,55984,1,2,2:0:0:0:
512,144,56134,2,0,P|485:102|438:91,1,100,8|2,2:0|2:0,2:0:0:0:
261,161,56434,5,2,1:2:0:0:
356,16,56584,1,2,1:2:0:0:
262,202,56734,1,10,2:0:0:0:
162,51,56884,6,0,P|71:17|0:78,1,200,6|0,1:2|1:0,2:0:0:0:
155,260,57334,1,10,2:0:0:0:
89,110,57484,2,0,P|63:151|73:199,1,100,2|0,2:0|1:0,2:0:0:0:
328,170,57784,1,2,1:2:0:0:
162,51,57934,1,8,2:0:0:0:
293,235,58084,2,0,P|340:243|401:170,1,150,2|0,1:2|2:0,2:0:0:0:
381,86,58384,1,2,1:2:0:0:
162,51,58534,6,0,B|168:95|168:95|160:108|160:108|166:149,1,100,8|0,2:0|2:0,2:0:0:0:
193,344,58834,1,2,1:2:0:0:
73,199,58984,1,2,1:2:0:0:
73,199,59134,1,8,2:0:0:0:
328,170,59284,6,0,B|388:160|388:160|407:173|407:173|472:162,1,150,6|0,1:2|2:0,2:0:0:0:
297,66,59584,1,2,1:2:0:0:
258,256,59734,1,10,2:0:0:0:
300,49,59884,6,0,L|289:-10,2,50,2|2|2,2:0|2:0|1:2,2:0:0:0:
431,248,60184,1,2,2:0:0:0:
475,59,60334,1,10,2:0:0:0:
435,267,60484,1,2,2:0:0:0:
220,119,60634,5,8,2:0:0:0:
144,286,60784,2,0,B|195:279|215:327|215:327|209:276|256:255,1,180,2|0,1:0|2:0,2:0:0:0:
290,192,61084,2,0,B|337:205|336:255|325:239|323:290|372:304,1,150,2|0,3:2|3:0,3:0:0:0:
434,266,61384,2,0,B|454:151|432:263|453:149,1,120,2|0,1:2|2:0,2:0:0:0:
469,48,61684,6,0,B|487:56|510:50|523:30|522:4|498:-15|474:-19|452:-1|454:24|447:39|418:43|389:37,1,187.5,6|0,2:0|2:0,2:0:0:0:
334,0,62134,1,10,2:0:0:0:
205,135,62434,6,0,B|137:123|137:123|133:109|133:109|66:98,1,150,2|0,1:2|1:0,2:0:0:0:
0,224,62884,1,8,2:0:0:0:
0,224,63034,2,0,B|86:209,1,75.0000000000002,2|0,2:0|1:0,2:0:0:0:
135,306,63334,2,0,B|231:288,1,75.0000000000002,8|0,2:0|2:0,2:0:0:0:
308,237,63634,5,2,2:0:0:0:
426,359,63784,1,8,2:0:0:0:
403,192,63934,1,8,2:0:0:0:
322,341,64084,1,8,2:0:0:0:
474,266,64234,6,0,P|505:199|484:129,1,150,6|0,1:2|1:0,2:0:0:0:
512,29,64684,2,0,P|438:34|388:88,1,150,10|0,2:0|2:0,2:0:0:0:
403,192,65134,1,2,1:2:0:0:
484,129,65284,1,2,2:0:0:0:
388,88,65434,6,0,B|364:86|349:103|359:99|345:117|321:115,1,75.0000000000002,2|0,1:2|2:0,2:0:0:0:
254,92,65659,1,0,1:0:0:0:
254,92,65734,1,0,1:0:0:0:
162,58,65884,1,0,1:0:0:0:
144,154,66034,1,0,1:0:0:0:
236,188,66184,1,0,1:0:0:0:
218,284,66334,1,2,1:2:0:0:
126,250,66484,1,0,1:2:0:0:
324,193,66634,6,0,B|367:180|367:180|349:287,1,150,6|0,1:2|1:0,2:0:0:0:
334,384,67084,1,8,2:0:0:0:
218,284,67234,2,0,B|194:282|179:299|189:295|175:313|151:311,1,75.0000000000002,0|0,1:0|2:0,2:0:0:0:
9,175,67534,5,10,2:0:0:0:
249,133,67684,1,2,2:0:0:0:
59,252,67834,1,2,1:2:0:0:
93,61,67984,1,8,2:0:0:0:
168,168,68134,2,0,L|89:154,1,75.0000000000002,2|0,1:2|2:0,2:0:0:0:
309,267,68434,6,0,B|318:212|318:212|321:211|321:211|330:158,1,112.5,10|0,2:0|2:0,2:0:0:0:
405,232,68734,2,0,B|414:177|414:177|417:176|417:176|426:123,1,112.5,10|0,2:0|2:0,2:0:0:0:
492,69,69034,6,0,B|483:17|430:-6|385:21|385:21|378:50|353:56,1,187.5,10|0,2:0|2:0,2:0:0:0:
237,36,69484,6,0,B|184:22|126:6|126:6|162:25|166:64,1,187.5,10|0,2:0|2:0,2:0:0:0:
115,128,69934,5,2,1:2:0:0:
115,128,70084,1,2,1:2:0:0:
261,317,70234,2,0,B|272:365|230:379|230:379|159:368,1,150,10|0,2:0|1:0,2:0:0:0:
43,347,70684,1,0,1:2:0:0:
43,347,70759,1,0,1:2:0:0:
43,347,70834,5,2,1:2:0:0:
176,243,70984,1,0,1:2:0:0:
19,256,71134,5,2,1:2:0:0:
161,226,71284,1,0,1:2:0:0:
26,126,71434,6,0,P|8:94|14:58,1,75.0000000000002,6|0,1:2|2:0,2:0:0:0:
277,171,71734,2,0,P|294:202|288:238,1,75.0000000000002,2|0,1:0|2:0,2:0:0:0:
148,137,72034,6,0,B|160:69|160:69|174:65|174:65|185:-2,2,150,10|2|2,2:0|1:2|1:2,2:0:0:0:
132,213,72784,1,0,2:0:0:0:
84,315,72934,2,0,B|112:339|112:339|146:326,1,75.0000000000002,2|0,1:0|2:0,2:0:0:0:
356,244,73234,5,2,1:2:0:0:
217,364,73384,1,8,2:0:0:0:
247,149,73534,2,0,B|254:196|254:196|244:209|244:209|253:256,1,112.5,2|0,1:2|2:0,2:0:0:0:
403,384,73834,6,0,B|436:348|436:348|373:337,1,112.5,14|0,2:0|2:0,2:0:0:0:
300,322,74134,1,2,1:2:0:0:
415,187,74284,1,8,2:0:0:0:
247,78,74434,2,0,B|235:97|235:97|253:175,1,75.0000000000002,2|0,1:2|2:0,2:0:0:0:
480,279,74734,2,0,B|483:261|483:261|484:260|484:260|487:242,1,37.5000000000001,10|0,2:0|2:0,2:0:0:0:
509,169,74884,1,8,2:0:0:0:
509,169,74959,1,8,2:0:0:0:
509,169,75034,5,6,1:2:0:0:
336,101,75184,1,0,1:2:0:0:
502,137,75334,5,2,1:2:0:0:
364,82,75484,1,0,1:2:0:0:
385,230,75634,5,2,1:2:0:0:
459,40,75784,1,0,1:2:0:0:
408,306,75934,6,8,B|351:315|351:315|317:272,1,112.5,10|0,2:0|2:0,2:0:0:0:
273,175,76234,6,0,B|217:165|217:165|184:187|184:187|129:178,1,150,6|0,1:2|2:0,2:0:0:0:
42,121,76534,5,2,1:2:0:0:
108,265,76684,1,0,1:2:0:0:
105,71,76834,5,2,1:2:0:0:
127,260,76984,1,0,1:2:0:0:
196,38,77134,5,2,1:2:0:0:
150,262,77284,1,2,1:2:0:0:
309,33,77434,5,0,1:2:0:0:
175,271,77584,1,2,1:2:0:0:
474,195,77734,5,10,2:0:0:0:
196,38,77884,1,10,2:0:0:0:
311,340,78034,5,8,2:0:0:0:
468,62,78184,1,10,2:0:0:0:
166,177,78334,5,10,2:0:0:0:
444,334,78484,1,10,2:0:0:0:
303,141,78634,6,0,B|279:151|252:161|252:161|269:197|281:239,1,125,6|0,1:2|2:0,2:0:0:0:
474,195,78934,1,0,1:0:0:0:
190,109,79084,6,0,B|144:78|91:101|83:156|105:146|97:201|44:224|-1:194,1,250,6|0,1:2|2:0,2:0:0:0:
198,255,79534,5,14,2:0:0:0:
428,142,79684,1,0,1:0:0:0:
215,0,79834,1,0,1:0:0:0:
445,271,79984,5,10,2:0:0:0:
261,180,80134,1,0,1:0:0:0:
431,67,80284,1,0,1:0:0:0:
274,281,80434,6,0,B|238:274|238:274|234:261|234:261|198:255,1,87.5,6|0,2:0|2:0,2:0:0:0:
94,336,81034,6,0,B|52:296|52:296|77:154,1,187.5,6|0,1:2|2:0,2:0:0:0:
32,48,81334,2,0,L|161:72,1,125,10|0,2:0|2:0,2:0:0:0:
416,119,81634,1,2,1:2:0:0:
231,26,81784,1,0,1:0:0:0:
316,270,81934,1,10,2:0:0:0:
496,135,82084,6,0,P|483:73|432:39,1,125,2|0,1:0|2:0,2:0:0:0:
255,202,82384,1,2,2:0:0:0:
494,226,82534,1,8,2:0:0:0:
251,123,82684,2,0,B|172:123|213:158|134:157,1,125,2|0,2:0|1:0,2:0:0:0:
73,56,82984,1,2,2:1:0:0:
329,0,83134,2,0,B|316:69|316:69|343:110|343:110|332:178,1,187.5,10|0,2:0|2:0,2:0:0:0:
382,307,83434,6,0,B|387:268|426:250|426:250|304:271,1,187.5,6|0,1:2|2:0,2:0:0:0:
250,329,83734,2,0,P|189:321|161:269,1,125,10|0,2:0|2:0,2:0:0:0:
404,53,84034,2,0,B|427:89|427:89|414:169,1,125,2|0,1:2|2:0,2:0:0:0:
379,384,84334,1,10,2:0:0:0:
122,180,84484,2,0,B|201:180|160:145|239:146,2,125,2|0|0,1:0|2:0|1:0,2:0:0:0:
314,272,84934,1,8,2:0:0:0:
144,59,85084,1,2,2:0:0:0:
0,342,85234,6,0,B|46:334|46:334|73:352|73:352|118:344,1,125,2|0,1:2|1:0,2:0:0:0:
238,145,85534,1,10,2:0:0:0:
15,232,85684,1,2,2:0:0:0:
310,384,85834,6,0,B|349:333|314:271|314:271|334:300|371:302,1,187.5,6|0,1:2|2:0,2:0:0:0:
443,282,86134,2,0,B|427:233|371:227|371:227|399:227|417:204,1,150,10|0,2:0|2:0,2:0:0:0:
431,132,86434,2,0,B|394:120|366:152|366:152|378:135|372:114,1,112.5,2|0,1:2|2:0,2:0:0:0:
347,41,86734,1,10,2:0:0:0:
129,216,86884,6,0,P|158:268|217:275,1,125,2|2,1:0|2:0,2:0:0:0:
417,203,87184,1,2,1:2:0:0:
248,30,87334,1,10,2:0:0:0:
300,336,87484,6,0,P|309:268|322:213,1,125,2|0,2:0|1:0,2:0:0:0:
331,199,87784,1,2,1:2:0:0:
191,384,87934,1,8,2:0:0:0:
512,345,88084,1,2,2:0:0:0:
171,308,88234,6,0,B|101:297|101:297|73:258|73:258|5:244,1,187.5,6|0,1:2|2:0,2:0:0:0:
70,371,88534,2,0,B|86:281|86:281|91:275|91:275|109:187,1,187.5,10|0,2:0|2:0,2:0:0:0:
84,70,88834,2,0,B|68:98|68:98|120:107|120:107|125:114|125:114|132:109|132:109|184:118|184:118|178:87,1,187.5,2|0,1:2|2:0,2:0:0:0:
142,14,89134,5,8,2:0:0:0:
179,232,89284,1,2,1:0:0:0:
0,50,89434,5,2,2:0:0:0:
304,120,89584,1,0,1:0:0:0:
12,171,89734,1,8,2:0:0:0:
272,3,89884,1,2,2:0:0:0:
267,278,90034,5,2,1:2:0:0:
239,316,90109,1,0,1:2:0:0:
193,334,90184,1,0,1:2:0:0:
145,325,90259,1,0,1:2:0:0:
109,290,90334,1,2,1:2:0:0:
97,242,90409,1,0,1:2:0:0:
112,195,90484,1,8,2:0:0:0:
150,164,90559,1,8,2:0:0:0:
200,158,90634,6,0,B|263:161|276:222|257:207|272:267|334:270,1,187.5,6|0,1:2|2:0,2:0:0:0:
378,359,90934,2,0,P|422:343|434:264,1,125,10|0,2:0|2:0,2:0:0:0:
322,83,91234,1,2,1:2:0:0:
270,361,91384,1,0,1:0:0:0:
495,182,91534,1,10,2:0:0:0:
182,59,91684,6,0,B|154:114|154:114|199:156,1,125,2|0,1:0|2:0,2:0:0:0:
335,285,91984,1,2,1:2:0:0:
413,38,92134,1,8,2:0:0:0:
199,246,92284,1,2,1:2:0:0:
199,246,92359,1,0,1:2:0:0:
199,246,92434,1,0,1:2:0:0:
490,183,92584,1,2,2:1:0:0:
281,0,92734,2,0,B|271:46|271:46|289:73|289:73|282:119,1,125,10|0,2:0|2:0,2:0:0:0:
193,334,93034,6,0,B|130:342|106:284|127:296|103:239|41:247,1,187.5,6|0,1:2|2:0,2:0:0:0:
25,260,93334,2,0,B|66:265|83:227|69:234|84:196|126:202,1,125,10|0,2:0|2:0,2:0:0:0:
336,318,93634,1,2,1:2:0:0:
121,73,93784,1,0,1:2:0:0:
17,381,93934,1,10,2:0:0:0:
313,135,94084,6,0,B|331:87|276:43|221:75|198:160|273:212,1,250,6|0,1:2|2:0,2:0:0:0:
418,341,94534,5,10,2:0:0:0:
494,82,94684,1,2,2:0:0:0:
211,318,94834,1,2,1:2:0:0:
190,50,94984,1,2,1:2:0:0:
377,223,95134,2,0,B|345:219|323:246|323:246|307:215|273:211,1,125,10|0,2:0|2:0,2:0:0:0:
110,197,95434,6,0,B|82:177|83:136|111:115|111:115|146:125|160:163|141:191,1,187.5,6|0,1:2|2:0,2:0:0:0:
89,335,95734,2,0,B|86:368|50:388|17:374|17:374|9:339|34:307|68:310,1,187.5,10|0,2:0|2:0,2:0:0:0:
220,284,96034,2,0,B|250:269|285:290|289:326|289:326|263:350|223:344|209:314,1,187.5,2|0,1:2|2:0,2:0:0:0:
139,272,96334,5,10,2:0:0:0:
51,61,96484,2,0,B|95:17|95:17|152:43,2,125,2|0|2,1:0|2:0|1:2,2:0:0:0:
369,159,96934,6,0,B|379:99|379:99|377:96|377:96|388:37,1,125,10|0,2:0|2:0,2:0:0:0:
139,272,97234,2,0,B|128:212|128:212|130:209|130:209|119:150,1,125,2|0,1:2|2:0,2:0:0:0:
403,357,97534,2,0,B|413:297|413:297|411:294|411:294|422:235,1,125,10|0,2:0|2:0,2:0:0:0:
63,286,97834,6,0,B|46:342|103:363|103:363|141:356|190:346,1,187.5,6|0,1:2|2:0,2:0:0:0:
294,384,98134,2,0,B|316:338|279:304|279:304|269:301|269:301|232:266|255:221,1,187.5,10|0,2:0|2:0,2:0:0:0:
228,43,98434,2,0,B|206:61|207:94|207:94|210:91|210:91|217:124|247:152|291:147|312:119,1,187.5,2|0,1:2|2:0,2:0:0:0:
313,42,98734,5,10,2:0:0:0:
76,0,98884,1,0,2:0:0:0:
308,124,99034,5,2,1:2:0:0:
47,77,99184,1,0,1:2:0:0:
302,214,99334,5,10,2:0:0:0:
15,162,99484,1,0,1:2:0:0:
330,296,99634,5,6,1:2:0:0:
368,271,99709,1,10,2:0:0:0:
390,228,99784,1,10,2:0:0:0:
384,179,99859,1,8,2:0:0:0:
353,140,99934,1,10,2:0:0:0:
308,124,100009,1,8,2:0:0:0:
260,134,100084,1,8,2:0:0:0:
225,169,100159,1,8,2:0:0:0:
212,220,100234,6,0,B|284:279|284:279|372:248,1,187.5,6|0,1:2|2:0,2:0:0:0:
460,216,100534,1,10,2:0:0:0:
286,380,100684,6,0,B|213:320|213:320|125:351,1,187.5,2|0,1:0|2:0,2:0:0:0:
39,384,100984,1,2,1:2:0:0:
212,220,101134,6,0,L|222:158,1,62.5,10|0,2:0|2:0,2:0:0:0:
27,21,101284,2,0,P|-13:99|50:156,1,187.5,2|0,1:0|2:0,2:0:0:0:
227,9,101584,5,2,1:2:0:0:
92,254,101734,1,10,2:0:0:0:
341,102,101884,1,0,1:0:0:0:
341,102,101959,1,0,1:0:0:0:
341,102,102034,1,10,2:0:0:0:
57,85,102184,5,2,2:0:0:0:
199,215,102334,1,8,2:0:0:0:
126,38,102484,1,2,2:0:0:0:
154,282,102634,6,0,P|215:295|264:263,1,125,6|0,1:2|2:0,2:0:0:0:
341,102,102859,1,2,2:0:0:0:
341,102,102934,2,0,L|351:163,1,62.5,10|0,2:0|2:0,2:0:0:0:
299,348,103084,6,0,B|387:379|387:379|459:319,1,187.5,2|0,1:0|2:0,2:0:0:0:
512,271,103384,1,2,2:0:0:0:
230,140,103534,1,10,2:0:0:0:
434,17,103684,6,0,B|466:35|496:43|496:43|478:104|466:158,1,187.5,2|0,1:0|2:0,2:0:0:0:
264,262,103984,1,0,1:0:0:0:
222,25,104134,1,8,2:0:0:0:
267,285,104284,1,0,1:0:0:0:
390,120,104434,5,2,1:2:0:0:
352,88,104509,1,0,1:2:0:0:
303,80,104584,1,0,1:2:0:0:
258,99,104659,1,0,1:2:0:0:
230,140,104734,1,2,1:2:0:0:
202,181,104809,1,0,1:2:0:0:
159,200,104884,1,2,1:2:0:0:
108,193,104959,1,0,1:2:0:0:
71,160,105034,6,0,B|36:98|68:28|139:16,1,187.5,6|0,1:2|2:0,2:0:0:0:
222,25,105334,1,10,2:0:0:0:
315,173,105484,6,0,B|350:234|318:304|247:316,1,187.5,2|0,1:0|2:0,2:0:0:0:
164,308,105784,1,2,2:0:0:0:
189,191,105934,6,0,L|204:110,1,62.5,10|0,2:0|2:0,2:0:0:0:
407,35,106084,2,0,B|420:117|420:117|437:129|437:129|451:212,1,187.5,2|0,1:0|2:0,2:0:0:0:
463,291,106384,5,2,2:0:0:0:
200,129,106534,1,8,2:0:0:0:
512,62,106684,1,0,1:0:0:0:
512,62,106759,1,0,1:0:0:0:
512,62,106834,1,2,1:2:0:0:
333,238,106984,5,2,1:2:0:0:
274,14,107134,1,10,2:0:0:0:
351,195,107284,1,2,2:0:0:0:
162,47,107434,6,0,B|133:31|89:51|64:113|120:175,1,187.5,6|0,1:2|2:0,2:0:0:0:
183,223,107734,1,10,2:0:0:0:
15,350,107884,2,0,P|103:328|199:315,1,187.5,2|0,1:0|2:0,2:0:0:0:
277,315,108184,1,2,2:0:0:0:
119,174,108334,2,0,P|102:204|100:233,1,62.5,10|0,2:0|2:0,2:0:0:0:
333,368,108484,6,0,B|376:322|343:269|340:293|308:240|352:194,1,187.5,2|0,1:0|2:0,2:0:0:0:
447,149,108784,6,0,B|438:119|438:119|409:105,1,62.5,2|0,2:0|2:0,2:0:0:0:
400,6,108934,1,10,2:0:0:0:
400,6,109009,1,2,2:0:0:0:
400,6,109084,2,0,B|367:3|367:3|346:25,1,62.5,2|0,1:0|2:0,2:0:0:0:
316,120,109234,1,10,2:0:0:0:
316,120,109309,1,0,1:0:0:0:
316,120,109384,5,0,1:0:0:0:
200,24,109534,1,10,2:0:0:0:
73,241,109684,1,2,2:0:0:0:
206,14,109834,6,0,B|222:103|222:103|226:106|226:106|243:195,1,187.5,6|0,2:0|2:0,2:0:0:0:
261,274,110134,1,10,2:0:0:0:
400,6,110284,1,2,1:2:0:0:
151,189,110434,2,0,B|140:129|140:129|137:127|137:127|127:67,1,125,8|0,2:0|1:2,2:0:0:0:
124,50,110734,1,10,2:0:0:0:
167,272,110884,1,2,1:0:0:0:
406,102,111034,5,8,2:0:0:0:
59,177,111184,1,2,1:0:0:0:
384,320,111334,1,10,2:0:0:0:
206,14,111484,1,2,1:2:0:0:
169,366,111634,1,10,2:0:0:0:
244,195,111784,5,2,1:2:0:0:
13,114,111934,2,0,P|-17:166|0:224,1,125,10|2,2:0|1:2,2:0:0:0:
406,102,112234,6,0,B|334:89|334:89|300:113|300:113|228:100,1,187.5,14|0,2:0|2:0,2:0:0:0:
151,92,112534,1,10,2:0:0:0:
398,214,112684,1,2,1:0:0:0:
169,366,112834,2,0,B|180:306|180:306|183:304|183:304|193:244,1,125,8|2,2:0|1:2,2:0:0:0:
230,12,113134,1,10,2:0:0:0:
60,232,113284,1,2,2:0:0:0:
340,57,113434,5,10,0:2:0:0:
510,277,113584,1,2,1:2:0:0:
324,70,113734,5,10,2:0:0:0:
395,367,113884,1,0,1:0:0:0:
302,75,114034,5,10,2:0:0:0:
246,375,114184,1,2,1:2:0:0:
455,73,114334,1,10,2:0:0:0:
491,95,114409,1,8,2:0:0:0:
508,134,114484,1,8,2:0:0:0:
498,176,114559,1,8,2:0:0:0:
465,204,114634,6,0,B|425:211|397:185|415:190|389:163|349:169,1,125,6|2,2:0|2:0,2:0:0:0:
135,382,114934,1,10,2:0:0:0:
395,268,115084,1,2,1:2:0:0:
73,193,115234,2,0,P|39:143|53:83,1,125,8|0,2:0|1:2,2:0:0:0:
284,0,115534,1,10,2:0:0:0:
143,293,115684,6,0,P|81:302|20:316,1,125,2|10,2:0|2:0,2:0:0:0:
221,144,115984,1,2,1:0:0:0:
308,377,116134,1,10,2:0:0:0:
467,184,116284,1,2,1:2:0:0:
159,70,116434,5,10,2:0:0:0:
238,314,116584,1,2,1:2:0:0:
410,38,116734,1,10,2:0:0:0:
392,295,116884,1,2,1:2:0:0:
125,213,117034,6,0,L|30:196,1,62.5,6|0,1:2|2:0,2:0:0:0:
353,129,117184,1,8,2:0:0:0:
353,129,117259,1,8,2:0:0:0:
353,129,117334,6,0,L|447:112,1,62.5,10|0,2:0|2:0,2:0:0:0:
159,70,117484,1,2,1:0:0:0:
238,314,117634,6,0,B|245:271|245:271|251:267|251:267|244:243|244:243|251:239|251:239|258:196,1,125,2|0,2:0|1:2,2:0:0:0:
279,77,117934,1,2,1:2:0:0:
39,213,118084,6,0,B|69:257|69:257|147:244,1,125,10|0,2:0|2:0,2:0:0:0:
385,203,118384,2,0,B|375:262|375:262|377:267|377:267|368:325,1,125,10|0,2:0|2:0,2:0:0:0:
124,129,118684,6,0,L|112:65,1,62.5,10|0,2:0|2:0,2:0:0:0:
444,17,118834,2,0,B|483:23|483:23|465:126,1,125,10|0,2:0|2:0,2:0:0:0:
100,3,127984,6,0,P|97:15|97:28,1,25,2|0,2:0|2:0,2:0:0:0:
46,76,128134,2,0,P|49:89|49:101,1,25,0|0,1:2|2:0,2:0:0:0:
97,159,128284,1,8,2:0:0:0:
28,230,128434,1,0,1:2:0:0:
105,289,128584,2,0,P|129:284|154:280,1,50,2|0,1:0|2:0,2:0:0:0:
213,152,128884,6,0,B|259:140|289:177|270:170|301:207|347:195,1,150,6|0,1:2|1:0,2:0:0:0:
455,20,129634,2,0,B|436:31|416:38|416:38|426:69|432:99,1,100,8|0,2:0|2:0,2:0:0:0:
506,192,130084,2,0,P|496:241|488:290,1,100,2|0,1:2|2:0,2:0:0:0:
469,368,130534,1,0,1:0:0:0:
271,278,130834,6,0,L|205:290,1,50,8|0,2:0|2:0,2:0:0:0:
131,356,131134,1,2,1:2:0:0:
115,354,131284,2,0,P|90:311|98:262,1,100,2|0,1:2|2:0,2:0:0:0:
160,208,131734,1,0,1:0:0:0:
76,132,131884,1,0,2:0:0:0:
138,76,132034,2,0,P|140:48|146:26,2,50,10|0|0,2:0|2:0|2:0,2:0:0:0:
283,166,132484,6,0,P|332:156|381:148,1,100,2|10,1:2|2:0,2:0:0:0:
457,131,132934,1,0,1:0:0:0:
327,287,133084,2,0,L|354:291,1,25,8|8,2:0|2:0,2:0:0:0:
453,308,133234,5,10,2:0:0:0:
245,384,133434,5,8,2:0:0:0:
283,166,133634,5,8,2:0:0:0:
77,244,133784,5,8,2:0:0:0:
77,244,133834,2,0,P|52:201|60:152,2,100,2|2|10,1:2|1:2|2:0,2:0:0:0:
194,151,134734,5,0,2:0:0:0:
195,132,134884,2,0,P|189:103|184:75,2,50,0|0|0,1:2|2:0|2:0,2:0:0:0:
218,243,135334,1,0,1:0:0:0:
474,116,135634,5,8,2:0:0:0:
512,199,135784,2,0,P|479:192|448:187,1,50,2|0,2:0|2:0,2:0:0:0:
340,207,136084,6,0,P|326:189|330:161,1,50,2|0,1:2|2:0,2:0:0:0:
380,86,136384,1,10,2:0:0:0:
316,18,136534,1,2,1:2:0:0:
300,24,136609,1,2,2:0:0:0:
284,30,136684,2,0,L|240:22,2,25,2|0|0,1:2|1:2|1:2,1:2:0:0:
131,0,136984,5,2,1:2:0:0:
53,88,137134,1,2,1:2:0:0:
152,156,137284,1,2,1:2:0:0:
155,175,137359,1,0,1:2:0:0:
158,195,137434,6,0,B|199:224|199:224|247:210,1,100,2|0,1:0|2:0,2:0:0:0:
168,306,137884,2,0,P|179:335|199:311,1,75,2|0,2:0|2:0,2:0:0:0:
198,225,138184,5,2,2:0:0:0:
90,355,138334,1,2,2:0:0:0:
255,384,138484,1,2,2:0:0:0:
89,257,138634,6,0,P|53:246|17:256,1,75.0000000000002,2|0,1:2|2:0,2:0:0:0:
152,155,138934,2,0,P|150:118|130:87,1,75.0000000000002,2|2,1:2|2:0,2:0:0:0:
266,184,139234,2,0,P|301:171|324:142,1,75.0000000000002,0|0,1:2|2:0,2:0:0:0:
275,302,139534,1,2,1:2:0:0:
275,302,139684,1,2,2:0:0:0:
386,284,139834,6,0,B|372:293|372:293|382:350,1,75.0000000000002,0|0,1:0|2:0,2:0:0:0:
481,158,140134,2,0,B|495:168|495:168|485:224,1,75.0000000000002,2|0,1:2|2:0,2:0:0:0:
386,32,140434,2,0,B|371:42|371:42|380:98,1,75.0000000000002,2|2,1:2|2:0,2:0:0:0:
397,203,140734,1,2,1:2:0:0:
397,203,140884,1,2,2:0:0:0:
261,115,141034,6,0,B|251:105|233:108|233:108|221:131|199:133,1,75.0000000000002,2|0,1:2|2:0,2:0:0:0:
50,84,141334,2,0,B|40:94|43:112|43:112|66:124|68:146,1,75.0000000000002,2|0,1:2|2:0,2:0:0:0:
19,296,141634,2,0,B|29:306|47:302|47:302|59:280|81:278,1,75.0000000000002,2|0,1:2|2:0,2:0:0:0:
231,327,141934,1,2,1:2:0:0:
231,327,142084,1,2,2:0:0:0:
374,201,142234,6,0,B|390:218|413:210|402:207|425:199|442:216,1,75.0000000000002,0|0,1:0|2:0,2:0:0:0:
340,369,142534,2,0,B|345:346|327:331|330:341|312:325|317:303,1,75.0000000000002,2|0,1:2|2:0,2:0:0:0:
503,313,142834,2,0,B|480:319|476:343|483:335|479:359|456:365,1,75.0000000000002,2|2,1:2|2:0,2:0:0:0:
407,294,143134,1,2,1:2:0:0:
407,294,143284,1,2,2:0:0:0:
343,133,143434,6,0,P|335:99|354:67,1,75.0000000000002,2|0,1:2|2:0,2:0:0:0:
180,177,143734,2,0,P|214:169|247:188,1,75.0000000000002,2|2,1:2|2:0,2:0:0:0:
137,14,144034,2,0,P|144:48|125:80,1,75.0000000000002,0|0,1:0|2:0,2:0:0:0:
241,70,144334,1,2,1:2:0:0:
241,70,144484,1,2,2:0:0:0:
86,191,144634,6,0,L|24:233,1,75.0000000000002,0|0,1:2|2:0,2:0:0:0:
357,229,144934,2,0,L|400:290,1,75.0000000000002,2|0,1:2|2:0,2:0:0:0:
208,286,145234,2,0,L|194:359,1,75.0000000000002,2|2,1:2|2:0,2:0:0:0:
225,187,145534,1,2,1:2:0:0:
225,187,145684,1,2,2:0:0:0:
180,83,145834,6,0,B|163:60|135:73|135:73|147:70|160:78,1,75.0000000000002,2|0,1:2|2:0,2:0:0:0:
305,101,146134,2,0,B|321:79|301:55|301:55|307:66|304:80,1,75.0000000000002,2|2,1:2|2:0,2:0:0:0:
326,225,146434,2,0,B|352:234|368:207|368:207|359:216|345:217,1,75.0000000000002,0|0,1:0|2:0,2:0:0:0:
225,187,146734,1,2,1:2:0:0:
225,187,146884,1,2,2:0:0:0:
197,352,147034,6,0,B|194:367|194:367|135:377,1,75.0000000000002,0|0,1:2|2:0,2:0:0:0:
40,235,147334,2,0,B|42:219|42:219|99:208,1,75.0000000000002,2|0,1:2|2:0,2:0:0:0:
225,187,147634,1,2,1:2:0:0:
55,137,147784,5,2,2:0:0:0:
183,14,147934,1,8,2:0:0:0:
183,14,148084,1,2,2:0:0:0:
311,156,148234,6,0,B|358:172|385:132|367:137|396:97|443:113,1,150,2|0,1:0|2:0,2:0:0:0:
499,169,148534,1,2,1:2:0:0:
364,263,148684,1,2,2:0:0:0:
420,320,148834,2,0,B|449:296|449:296|437:230,1,100,0|0,1:0|2:0,2:0:0:0:
311,156,149134,1,2,1:2:0:0:
311,156,149284,1,2,2:0:0:0:
179,234,149434,6,0,B|133:225|133:225|131:219|131:219|86:211,1,100,0|0,1:0|2:0,2:0:0:0:
94,67,149734,2,0,B|48:58|48:58|46:52|46:52|1:44,2,100,2|0|2,1:2|2:0|1:2,2:0:0:0:
240,99,150184,5,2,2:0:0:0:
151,1,150334,1,2,1:2:0:0:
179,154,150484,1,2,2:0:0:0:
235,21,150634,6,0,B|282:4|309:44|291:39|320:79|367:63,1,150,2|0,1:0|2:0,2:0:0:0:
438,26,150934,1,2,1:2:0:0:
357,142,151084,1,2,2:0:0:0:
485,93,151234,2,0,B|499:114|499:114|484:197,1,100,2|0,1:2|2:0,2:0:0:0:
468,285,151534,1,2,1:2:0:0:
468,285,151684,1,2,2:0:0:0:
341,224,151834,6,0,P|293:214|252:239,1,100,0|0,1:0|2:0,2:0:0:0:
267,330,152134,2,0,P|314:339|355:314,2,100,2|0|2,1:2|2:0|1:2,2:0:0:0:
111,255,152584,5,2,2:0:0:0:
198,168,152734,1,2,1:2:0:0:
172,316,152884,1,2,2:0:0:0:
165,91,153034,6,0,B|212:77|212:77|253:106,1,100,2|0,1:0|2:0,2:0:0:0:
376,193,153334,1,2,1:2:0:0:
198,168,153484,1,2,2:0:0:0:
351,13,153634,6,0,B|359:59|359:59|354:63|354:63|361:109,1,100,0|0,1:0|2:0,2:0:0:0:
376,193,153934,1,0,1:2:0:0:
376,193,154084,1,2,2:0:0:0:
486,220,154234,6,0,B|499:172|499:172|469:132,1,100,0|0,1:0|2:0,2:0:0:0:
265,165,154534,2,0,B|251:212|251:212|281:252,1,100,2|0,1:2|2:0,2:0:0:0:
404,360,154834,1,2,1:2:0:0:
376,193,154984,1,2,2:0:0:0:
407,378,155134,1,2,1:2:0:0:
486,220,155284,1,2,2:0:0:0:
281,253,155434,6,0,B|251:257|229:236|242:240|221:218|190:223,1,100,0|0,1:0|2:0,2:0:0:0:
25,310,155734,2,0,B|36:282|65:273|55:282|85:275|96:246,1,100,2|0,1:2|2:0,2:0:0:0:
103,59,156034,2,0,B|121:82|114:112|111:99|102:128|122:152,1,100,2|0,1:2|2:0,2:0:0:0:
174,313,156334,6,0,P|175:349|157:317,1,100,2|2,1:2|2:0,2:0:0:0:
208,120,156634,2,0,P|238:100|220:131,1,100,0|0,2:0|2:0,2:0:0:0:
25,186,156934,2,0,P|-7:170|29:170,1,100,0|0,2:0|2:0,2:0:0:0:
437,48,157234,5,8,2:0:0:0:
392,40,157309,1,8,2:0:0:0:
348,32,157384,1,8,2:0:0:0:
304,24,157459,1,8,2:0:0:0:
259,16,157534,1,8,2:0:0:0:
215,8,157609,1,8,2:0:0:0:
171,0,157684,6,0,B|150:12|150:12|155:46|155:46|152:46|152:46|155:46|155:46|162:86,1,100,6|0,1:2|2:0,2:0:0:0:
166,91,157984,5,0,1:2:0:0:
98,262,158134,2,0,B|141:270|141:270|148:278|148:278|191:286,1,100,10|0,2:0|1:0,2:0:0:0:
441,354,158434,5,8,2:0:0:0:
465,311,158509,1,8,2:0:0:0:
451,264,158584,1,8,2:0:0:0:
408,242,158659,1,8,2:0:0:0:
362,256,158734,1,8,2:0:0:0:
340,300,158809,1,8,2:0:0:0:
356,346,158884,6,0,B|390:339|390:339|398:291|398:291|402:292|402:292|398:291|398:291|408:235,1,150,6|0,1:2|2:0,2:0:0:0:
420,160,159184,5,0,1:2:0:0:
190,195,159334,2,0,P|179:242|205:282,1,100,10|0,2:0|2:0,2:0:0:0:
489,224,159634,5,2,1:2:0:0:
512,180,159709,1,0,1:2:0:0:
510,131,159784,1,0,1:2:0:0:
484,89,159859,1,0,1:2:0:0:
439,67,159934,1,0,1:2:0:0:
390,70,160009,1,0,1:2:0:0:
349,96,160084,6,0,B|300:108|275:66|293:73|268:31|220:44,1,150,6|0,1:2|2:0,2:0:0:0:
164,91,160384,5,0,1:2:0:0:
272,314,160534,2,0,B|288:219|275:311|292:217,1,100,10|0,2:0|2:0,2:0:0:0:
43,108,160834,5,8,2:0:0:0:
56,149,160909,1,8,2:0:0:0:
58,190,160984,1,8,2:0:0:0:
70,231,161059,1,8,2:0:0:0:
72,272,161134,1,8,2:0:0:0:
84,313,161209,1,8,2:0:0:0:
86,354,161284,6,0,B|104:383|104:383|153:374|153:374|153:378|153:378|153:374|153:374|209:365,1,150,6|0,1:2|2:0,2:0:0:0:
272,314,161584,5,0,1:2:0:0:
488,384,161734,2,0,B|495:341|495:341|503:334|503:334|511:288,1,100,10|0,2:0|2:0,2:0:0:0:
250,93,162034,5,8,2:0:0:0:
421,290,162184,1,0,1:0:0:0:
507,43,162334,1,8,2:0:0:0:
326,236,162484,6,0,B|275:250|254:202|272:211|251:163|201:177,1,150,6|0,1:2|2:0,2:0:0:0:
136,211,162784,5,0,1:2:0:0:
327,27,162934,2,0,B|348:39|348:39|343:73|343:73|346:73|346:73|343:73|343:73|336:113,1,100,10|0,2:0|2:0,2:0:0:0:
149,307,163234,5,8,2:0:0:0:
99,301,163309,1,8,2:0:0:0:
60,272,163384,1,8,2:0:0:0:
39,227,163459,1,8,2:0:0:0:
46,177,163534,1,8,2:0:0:0:
76,138,163609,1,8,2:0:0:0:
121,119,163684,6,0,B|175:128|175:128|197:160|197:160|251:170,1,150,6|0,1:2|2:0,2:0:0:0:
330,185,163984,5,0,1:2:0:0:
471,42,164134,2,0,B|425:21|425:21|390:56,1,100,10|0,2:0|2:0,2:0:0:0:
475,271,164434,5,2,1:2:0:0:
475,271,164509,1,0,1:2:0:0:
475,271,164584,1,0,1:2:0:0:
252,170,164734,1,8,2:0:0:0:
235,181,164809,1,8,2:0:0:0:
218,191,164884,6,0,B|186:213|186:213|195:264|195:264|196:266|196:266|206:323,1,150,6|0,1:2|2:0,2:0:0:0:
260,384,165184,5,0,1:2:0:0:
483,162,165334,2,0,B|440:153|440:153|430:158|430:158|387:151,1,100,10|0,2:0|2:0,2:0:0:0:
241,23,165634,5,8,2:0:0:0:
197,10,165709,1,8,2:0:0:0:
155,22,165784,1,8,2:0:0:0:
126,55,165859,1,8,2:0:0:0:
96,89,165934,1,8,2:0:0:0:
55,101,166009,1,8,2:0:0:0:
11,89,166084,5,6,1:2:0:0:
159,268,166234,1,2,2:0:0:0:
50,9,166384,1,2,1:2:0:0:
153,287,166534,5,10,2:0:0:0:
319,61,166684,1,2,1:2:0:0:
31,225,166834,6,0,B|18:238|2:252|2:252|-2:296|34:330,1,125,10|0,2:0|2:0,2:0:0:0:
250,384,167059,6,0,B|290:372|295:335|295:335|299:340|299:340|309:298|283:270,1,150,10|0,2:0|2:0,2:0:0:0:
142,280,167284,6,0,P|158:313|164:276,1,100,10|0,2:0|2:0,2:0:0:0:
98,76,167434,6,0,P|107:6|139:68,1,187.5,2|0,2:1|2:0,2:0:0:0:
21,105,168634,6,0,B|79:83|111:137|96:132|127:186|186:165,1,187.5,6|0,1:2|2:0,2:0:0:0:
238,98,168934,2,0,P|224:158|214:231,1,125,10|0,2:0|2:0,2:0:0:0:
395,384,169234,1,2,1:2:0:0:
351,125,169384,1,0,2:0:0:0:
150,294,169534,1,10,2:0:0:0:
420,170,169684,6,0,P|431:110|400:57,1,125,2|2,1:2|2:0,2:0:0:0:
195,166,169984,1,2,1:2:0:0:
443,309,170134,1,8,2:0:0:0:
177,164,170284,6,0,B|98:164|139:129|60:130,2,125,2|0|0,2:0|1:0|1:0,2:0:0:0:
400,57,170734,1,10,2:0:0:0:
296,305,170884,2,0,L|280:218,1,62.5,2|0,1:0|2:0,2:0:0:0:
314,52,171034,6,0,B|259:53|243:2|243:2|244:56|193:73,1,187.5,6|0,1:2|2:0,2:0:0:0:
60,129,171334,2,0,B|96:129|106:96|106:96|106:131|139:142,1,125,10|0,2:0|2:0,2:0:0:0:
54,365,171634,6,0,B|64:306|64:306|68:303|68:303|79:245,1,125,2|0,1:2|2:0,2:0:0:0:
119,22,171934,1,10,2:0:0:0:
381,211,172084,6,0,B|433:201|433:201|443:186|443:186|495:177,1,125,2|0,1:2|2:0,2:0:0:0:
183,64,172384,1,2,1:2:0:0:
260,277,172534,1,10,2:0:0:0:
406,102,172684,1,2,1:2:0:0:
194,332,172834,6,0,P|246:362|307:352,1,125,2|0,1:2|2:0,2:0:0:0:
301,46,173134,1,10,2:0:0:0:
98,243,173284,1,2,1:2:0:0:
402,384,173434,6,0,B|441:333|406:271|406:271|371:277|345:253,1,187.5,6|0,1:2|2:0,2:0:0:0:
394,200,173734,2,0,B|374:152|317:152|317:152|307:178|280:187,1,150,10|0,2:0|2:0,2:0:0:0:
239,117,174034,2,0,B|199:111|176:150|176:150|190:167|185:188,1,112.5,2|0,1:2|2:0,2:0:0:0:
108,114,174334,5,10,2:0:0:0:
215,384,174484,2,0,B|225:325|225:325|229:322|229:322|240:264,1,125,2|0,1:2|2:0,2:0:0:0:
274,47,174784,5,2,1:2:0:0:
64,314,174934,1,10,2:0:0:0:
365,254,175084,2,0,P|343:181|300:165,1,125,2|0,2:0|1:0,2:0:0:0:
207,188,175384,1,2,1:2:0:0:
349,384,175534,5,10,2:0:0:0:
512,95,175684,1,2,1:2:0:0:
207,188,175834,6,0,B|149:210|117:156|132:161|101:107|42:128,1,187.5,6|0,1:2|2:0,2:0:0:0:
109,252,176134,2,0,P|126:162|143:67,1,187.5,10|0,2:0|2:0,2:0:0:0:
230,0,176434,2,0,P|280:30|259:159,1,187.5,2|0,1:2|2:0,2:0:0:0:
207,188,176734,5,10,2:0:0:0:
6,253,176884,1,2,1:2:0:0:
223,200,177034,5,2,2:0:0:0:
0,45,177184,1,0,1:0:0:0:
58,355,177334,1,8,2:0:0:0:
220,83,177484,1,2,1:2:0:0:
300,328,177634,5,2,1:2:0:0:
328,366,177709,1,0,1:2:0:0:
374,384,177784,1,0,1:2:0:0:
422,375,177859,1,0,1:2:0:0:
458,340,177934,1,10,2:0:0:0:
470,292,178009,1,8,2:0:0:0:
455,245,178084,1,8,2:0:0:0:
417,214,178159,1,8,2:0:0:0:
367,208,178234,6,0,B|288:223|288:223|272:245|272:245|194:259,1,187.5,6|0,1:2|2:0,2:0:0:0:
59,196,178534,2,0,P|73:256|83:329,1,125,10|0,2:0|2:0,2:0:0:0:
272,99,178834,1,2,1:0:0:0:
19,75,178984,1,0,1:0:0:0:
193,259,179134,1,10,2:0:0:0:
333,41,179284,6,0,B|286:0|286:0|229:22,1,125,2|0,1:2|2:0,2:0:0:0:
317,276,179584,1,2,1:2:0:0:
466,74,179734,1,8,2:0:0:0:
198,165,179884,1,2,2:0:0:0:
198,165,179959,1,8,2:0:0:0:
198,165,180034,1,0,1:0:0:0:
466,212,180184,1,0,1:0:0:0:
304,278,180334,2,0,P|281:333|321:377,1,125,10|0,2:0|2:0,2:0:0:0:
407,128,180634,6,0,B|377:169|325:157|325:157|311:105|260:97,1,187.5,6|0,1:2|2:0,2:0:0:0:
99,144,180934,2,0,B|118:116|153:124|153:124|162:159|196:164,1,125,10|0,2:0|2:0,2:0:0:0:
433,51,181234,1,2,1:2:0:0:
291,275,181384,1,0,1:2:0:0:
207,0,181534,1,10,2:0:0:0:
424,231,181684,6,0,B|414:283|414:283|399:293|399:293|390:345,2,125,2|2|0,1:0|2:0|2:0,2:0:0:0:
219,96,182134,1,10,2:0:0:0:
287,357,182284,1,2,1:2:0:0:
492,173,182434,6,0,P|440:143|379:153,1,125,2|0,1:2|1:0,2:0:0:0:
162,346,182734,2,0,P|101:356|48:326,1,125,10|0,2:0|2:0,2:0:0:0:
122,124,183034,6,0,P|128:193|160:131,1,187.5,6|0,1:2|2:0,2:0:0:0:
61,76,183334,2,0,B|5:135|37:209|37:209|22:191|2:186,1,187.5,10|0,2:0|2:0,2:0:0:0:
211,240,183634,2,0,B|266:180|234:106|234:106|249:124|269:129,1,187.5,2|0,1:2|2:0,2:0:0:0:
346,118,183934,5,10,2:0:0:0:
89,384,184084,2,0,B|99:325|99:325|103:322|103:322|114:264,1,125,2|0,1:2|2:0,2:0:0:0:
154,40,184384,1,0,1:0:0:0:
248,351,184534,6,0,P|296:386|353:369,1,125,10|0,2:0|1:0,2:0:0:0:
104,126,184834,2,0,P|48:149|34:208,1,125,2|0,1:2|1:0,2:0:0:0:
369,112,185134,2,0,P|375:52|332:11,1,125,10|0,2:0|1:0,2:0:0:0:
138,237,185434,6,0,B|158:262|176:290|176:290|237:277|296:268,1,187.5,6|0,1:2|2:0,2:0:0:0:
369,205,185734,2,0,B|391:187|423:195|423:195|420:197|420:197|446:209|457:233|457:233|413:254|414:304,1,187.5,10|0,2:0|2:0,2:0:0:0:
211,201,186034,2,0,B|224:121|224:121|208:98|208:98|222:21,1,187.5,2|0,1:2|2:0,2:0:0:0:
298,78,186334,5,10,2:0:0:0:
50,0,186484,1,0,1:0:0:0:
299,109,186634,5,10,2:0:0:0:
1,126,186784,1,0,1:0:0:0:
312,136,186934,5,10,2:0:0:0:
8,278,187084,1,0,1:0:0:0:
276,382,187234,5,2,1:2:0:0:
311,349,187309,1,0,1:2:0:0:
325,301,187384,1,2,1:2:0:0:
312,254,187459,1,0,1:2:0:0:
275,222,187534,1,10,2:0:0:0:
237,189,187609,1,8,2:0:0:0:
224,143,187684,1,10,2:0:0:0:
237,94,187759,1,8,2:0:0:0:
274,62,187834,6,0,B|333:41|368:92|345:85|381:136|440:115,1,187.5,6|0,2:0|2:0,2:0:0:0:
481,51,188134,1,10,2:0:0:0:
324,178,188284,6,0,B|264:198|229:147|252:154|216:103|157:124,1,187.5,2|0,1:0|2:0,2:0:0:0:
116,189,188584,1,0,1:0:0:0:
241,348,188734,6,0,L|254:269,1,62.5,10|0,2:0|2:0,2:0:0:0:
29,130,188884,2,0,B|12:138|12:138|25:213|25:213|29:216|29:216|45:305,1,187.5,2|0,1:0|2:0,2:0:0:0:
60,376,189184,5,0,1:0:0:0:
352,251,189334,1,10,2:0:0:0:
98,61,189484,1,0,1:0:0:0:
98,61,189559,1,0,1:0:0:0:
98,61,189634,1,2,1:2:0:0:
251,286,189784,5,2,1:2:0:0:
302,108,189934,1,10,2:0:0:0:
219,276,190084,1,2,2:0:0:0:
257,40,190234,6,0,P|318:27|367:59,1,125,6|0,1:2|2:0,2:0:0:0:
404,129,190459,1,2,2:0:0:0:
407,144,190534,2,0,P|408:174|396:203,1,62.5,10|0,2:0|2:0,2:0:0:0:
135,323,190684,6,0,L|102:139,1,187.5,2|0,1:0|2:0,2:0:0:0:
86,61,190984,1,2,1:2:0:0:
219,276,191134,1,10,2:0:0:0:
368,59,191284,6,0,P|457:50|513:121,1,187.5,2|0,1:0|2:0,2:0:0:0:
499,197,191584,1,0,1:2:0:0:
196,99,191734,1,8,2:0:0:0:
347,381,191884,1,0,1:0:0:0:
347,381,191959,1,0,1:0:0:0:
347,381,192034,1,10,2:0:0:0:
416,137,192184,5,2,1:2:0:0:
196,286,192334,1,10,2:0:0:0:
457,337,192484,1,2,2:0:0:0:
222,205,192634,6,0,B|168:191|128:233|128:233|120:281|74:292,1,187.5,6|0,1:2|2:0,2:0:0:0:
1,257,192934,1,10,2:0:0:0:
170,367,193084,6,0,B|224:381|264:339|264:339|272:291|318:280,1,187.5,2|0,1:0|2:0,2:0:0:0:
391,315,193384,1,0,1:0:0:0:
233,143,193534,6,0,L|218:224,1,62.5,10|0,2:0|2:0,2:0:0:0:
436,381,193684,2,0,B|478:344|478:344|468:287|468:287|465:285|465:285|453:217,1,187.5,2|0,1:0|2:0,2:0:0:0:
432,132,193984,5,0,1:0:0:0:
196,286,194134,1,8,2:0:0:0:
181,84,194284,1,0,1:2:0:0:
212,68,194359,1,0,1:2:0:0:
246,67,194434,1,0,1:2:0:0:
279,80,194509,1,0,1:2:0:0:
304,105,194584,5,2,1:2:0:0:
108,135,194734,1,10,2:0:0:0:
328,84,194884,1,2,2:0:0:0:
80,219,195034,6,0,P|30:179|50:68,1,187.5,6|0,1:2|2:0,2:0:0:0:
119,34,195334,1,10,2:0:0:0:
265,192,195484,6,0,B|340:178|340:178|361:149|361:149|436:135,1,187.5,2|0,1:0|2:0,2:0:0:0:
512,123,195784,1,0,1:0:0:0:
257,5,195934,6,0,L|240:97,1,62.5,10|0,2:0|2:0,2:0:0:0:
141,319,196084,2,0,L|108:135,1,187.5,2|0,1:0|2:0,2:0:0:0:
66,56,196384,6,0,B|90:37|90:37|120:46,1,62.5,2|0,1:0|2:0,2:0:0:0:
265,192,196534,2,0,B|294:200|294:200|319:182,1,62.5,10|0,2:0|2:0,2:0:0:0:
362,58,196684,2,0,B|388:39|388:39|417:47,1,62.5,2|0,1:2|2:0,2:0:0:0:
512,204,196834,1,0,2:0:0:0:
512,204,196909,1,0,1:0:0:0:
511,203,196984,6,0,P|511:235|499:263,1,62.5,2|0,1:2|1:0,2:0:0:0:
404,384,197134,2,0,P|404:352|391:324,1,62.5,10|0,2:0|2:0,2:0:0:0:
263,188,197284,1,2,2:0:0:0:
32,367,197434,6,0,P|120:345|216:332,1,187.5,14|0,2:0|2:0,2:0:0:0:
285,373,197734,1,10,2:0:0:0:
73,198,197884,1,2,1:2:0:0:
365,69,198034,2,0,P|404:113|392:172,1,125,8|0,2:0|2:0,2:0:0:0:
380,191,198334,1,10,2:0:0:0:
140,84,198484,1,2,1:2:0:0:
347,274,198634,5,8,2:0:0:0:
235,10,198784,1,0,2:0:0:0:
94,345,198934,1,10,2:0:0:0:
268,149,199084,1,2,1:2:0:0:
12,95,199234,1,10,2:0:0:0:
223,346,199384,5,2,1:2:0:0:
140,84,199534,1,10,2:0:0:0:
227,372,199684,1,2,1:2:0:0:
494,149,199834,6,0,B|435:128|400:179|423:172|387:223|328:202,1,187.5,10|0,2:0|2:0,2:0:0:0:
268,149,200134,1,10,2:0:0:0:
488,344,200284,1,2,1:2:0:0:
378,10,200434,2,0,P|361:71|352:133,1,125,8|0,2:0|2:0,2:0:0:0:
397,300,200734,1,10,2:0:0:0:
486,46,200884,1,0,2:0:0:0:
215,235,201034,1,8,2:0:0:0:
512,160,201184,5,2,1:2:0:0:
289,20,201334,1,10,2:0:0:0:
397,300,201484,1,2,1:2:0:0:
265,13,201634,1,10,2:0:0:0:
221,345,201784,1,2,1:2:0:0:
362,113,201934,1,8,2:0:0:0:
309,103,202009,1,8,2:0:0:0:
257,94,202084,1,10,2:0:0:0:
204,84,202159,1,8,2:0:0:0:
151,74,202234,6,0,B|121:96|88:111|88:111|104:166|117:221,1,187.5,14|0,2:0|2:0,2:0:0:0:
134,298,202534,1,10,2:0:0:0:
265,13,202684,1,2,1:2:0:0:
46,258,202834,1,8,2:0:0:0:
423,207,202984,1,0,2:0:0:0:
235,384,203134,6,0,P|225:322|209:262,1,125,10|2,2:0|1:2,2:0:0:0:
85,28,203434,1,8,2:0:0:0:
326,329,203584,1,0,2:0:0:0:
195,46,203734,1,10,2:0:0:0:
98,384,203884,1,2,1:2:0:0:
425,112,204034,6,0,P|435:50|401:0,1,125,10|2,2:0|1:2,2:0:0:0:
67,263,204334,2,0,P|88:321|97:383,1,125,10|2,2:0|1:2,2:0:0:0:
421,246,204634,6,0,P|450:236|481:229,1,62.5,14|0,2:0|2:0,2:0:0:0:
170,111,204784,1,8,2:0:0:0:
158,116,204859,1,8,2:0:0:0:
146,120,204934,6,0,P|112:112|85:103,1,62.5,10|0,2:0|2:0,2:0:0:0:
402,1,205084,1,2,1:2:0:0:
264,310,205234,2,0,B|274:272|250:242|254:259|228:231|238:192,1,125,2|2,2:0|1:2,2:0:0:0:
243,181,205534,1,2,1:0:0:0:
120,274,205684,6,0,B|96:240|54:251|54:251|42:276|14:279,1,125,14|0,2:0|2:0,2:0:0:0:
277,0,205984,2,0,P|288:61|309:120,1,125,10|0,2:0|2:0,2:0:0:0:
449,226,206284,6,0,P|482:222|511:216,1,62.5,10|0,2:0|2:0,2:0:0:0:
279,384,206434,2,0,P|219:368|155:364,1,125,10|0,2:0|2:0,2:0:0:0:
