osu file format v14

[General]
AudioFilename: audio.mp3
AudioLeadIn: 0
PreviewTime: 44795
Countdown: 0
SampleSet: Soft
StackLeniency: 0.2
Mode: 0
LetterboxInBreaks: 0
WidescreenStoryboard: 0

[Editor]
Bookmarks: 11670,23099,34527,45956,68813,80242,91670,103099,125956,148813,168813
DistanceSpacing: 0.6
BeatDivisor: 8
GridSize: 4
TimelineZoom: 2

[Metadata]
Title:HEY
TitleUnicode:HEY
Artist:JIMIN (AOA)
ArtistUnicode:JIMIN (AOA)
Creator:-M4x
Version:SUCK IT UP
Source:
Tags:
BeatmapID:1542530
BeatmapSetID:730880

[Difficulty]
HPDrainRate:5
CircleSize:4.4
OverallDifficulty:7.5
ApproachRate:9
SliderMultiplier:1.69
SliderTickRate:1

[Events]
//Background and Video events
Video,0,"MV.flv"
0,0,"jimin-aoa2-1200x768.jpg",0,0
//Break Periods
2,34727,36670
//Storyboard Layer 0 (Background)
//Storyboard Layer 1 (Fail)
//Storyboard Layer 2 (Pass)
//Storyboard Layer 3 (Foreground)
//Storyboard Sound Samples

[TimingPoints]
242,357.142857142857,4,2,0,69,1,0
242,-142.857142857143,4,2,0,69,0,0
8813,-1000,4,2,0,69,0,0
10241,-83.3333333333333,4,2,0,69,0,0
10331,-83.3333333333333,4,2,0,5,0,0
10420,-83.3333333333333,4,2,0,69,0,0
10509,-83.3333333333333,4,2,0,5,0,0
10599,-83.3333333333333,4,2,0,69,0,0
10866,-83.3333333333333,4,2,0,5,0,0
10956,-50,4,2,0,69,0,0
11268,-50,4,2,0,5,0,0
11313,-500,4,2,0,69,0,0
11402,-500,4,2,0,5,0,0
11491,-500,4,2,0,69,0,0
11581,-500,4,2,0,5,0,0
11670,-100,4,2,0,69,0,0
12384,-83.3333333333333,4,2,0,69,0,0
13813,-83.3333333333333,4,2,0,69,0,0
14438,-83.3333333333333,4,2,0,5,0,0
14527,-83.3333333333333,4,2,0,69,0,0
15956,-250,4,2,0,69,0,0
17027,-50,4,2,0,69,0,0
17295,-50,4,2,0,5,0,0
17384,-50,4,2,0,69,0,0
17563,-83.3333333333333,4,2,0,69,0,0
17741,-66.6666666666667,4,2,0,69,0,0
18991,-50,4,2,0,69,0,0
20063,-500,4,2,0,69,0,0
20956,-66.6666666666667,4,2,0,69,0,0
21045,-66.6666666666667,4,2,0,5,0,0
21134,-66.6666666666667,4,2,0,69,0,0
21224,-66.6666666666667,4,2,0,5,0,0
21313,-57.1428571428571,4,2,0,69,0,0
23099,-50,4,2,0,69,0,0
23143,-50,4,2,0,5,0,0
23188,-100,4,2,0,69,0,0
23813,-133.333333333333,4,2,0,69,0,0
24706,-250,4,2,0,69,0,0
25956,-50,4,2,0,69,0,0
26000,-50,4,2,0,5,0,0
26045,-100,4,2,0,69,0,0
26670,-133.333333333333,4,2,0,69,0,0
27563,-250,4,2,0,69,0,0
28813,-142.857142857143,4,2,0,69,0,0
29884,-142.857142857143,4,2,0,69,0,0
29974,-142.857142857143,4,2,0,5,0,0
30063,-142.857142857143,4,2,0,69,0,0
30152,-142.857142857143,4,2,0,5,0,0
30241,-285.714285714286,4,2,0,69,0,0
31670,-133.333333333333,4,2,0,49,0,0
32027,-100,4,2,0,59,0,0
32384,-80,4,2,0,69,0,0
33099,-58.8235294117647,4,2,0,79,0,0
33813,-58.8235294117647,4,2,0,89,0,0
34170,-58.8235294117647,4,2,0,79,0,0
34527,-100,4,2,0,69,0,0
39170,-133.333333333333,4,2,0,69,0,0
39884,-200,4,2,0,69,0,0
44884,-50,4,2,0,69,0,0
45197,-50,4,2,0,5,0,0
45241,-500,4,2,0,69,0,0
45866,-500,4,2,0,5,0,0
45956,-66.6666666666667,4,2,0,69,0,1
48858,-66.6666666666667,4,2,0,5,0,1
49170,-66.6666666666667,4,2,0,69,0,1
51715,-66.6666666666667,4,2,0,5,0,1
52027,-66.6666666666667,4,2,0,69,0,1
52072,-66.6666666666667,4,2,0,5,0,1
52206,-66.6666666666667,4,2,0,69,0,1
53902,-66.6666666666667,4,2,0,5,0,1
53991,-66.6666666666667,4,2,0,69,0,1
54438,-66.6666666666667,4,2,0,5,0,1
54527,-285.714285714286,4,2,0,69,0,0
57384,-66.6666666666667,4,2,0,69,0,1
60241,-285.714285714286,4,2,0,69,0,1
60956,-66.6666666666667,4,2,0,69,0,1
63099,-285.714285714286,4,2,0,69,0,1
64170,-66.6666666666667,4,2,0,69,0,1
65331,-66.6666666666667,4,2,0,5,0,1
65420,-66.6666666666667,4,2,0,69,0,1
65866,-66.6666666666667,4,2,0,5,0,1
65956,-285.714285714286,4,2,0,69,0,0
80241,-100,4,2,0,69,0,0
82741,-113.636363636364,4,2,0,69,0,0
83009,-113.636363636364,4,2,0,5,0,0
83099,-100,4,2,0,69,0,0
85956,-285.714285714286,4,2,0,69,0,0
86402,-285.714285714286,4,2,0,5,0,0
86491,-285.714285714286,4,2,0,69,0,0
88099,-142.857142857143,4,2,0,69,0,0
88366,-142.857142857143,4,2,0,5,0,0
88456,-142.857142857143,4,2,0,69,0,0
88724,-142.857142857143,4,2,0,5,0,0
88813,-142.857142857143,4,2,0,69,0,0
89081,-142.857142857143,4,2,0,5,0,0
89170,-142.857142857143,4,2,0,69,0,0
89438,-142.857142857143,4,2,0,5,0,0
89527,-142.857142857143,4,2,0,69,0,0
90956,-66.6666666666667,4,2,0,69,0,0
91625,-66.6666666666667,4,2,0,5,0,0
91670,-66.6666666666667,4,2,0,69,0,0
92384,-83.3333333333333,4,2,0,69,0,0
93039,-83.3333333333333,4,2,0,5,0,0
93099,-83.3333333333333,4,2,0,69,0,0
94527,-200,4,2,0,69,0,0
95063,-83.3333333333333,4,2,0,69,0,0
95896,-83.3333333333333,4,2,0,5,0,0
95956,-83.3333333333333,4,2,0,69,0,0
96670,-66.6666666666667,4,2,0,69,0,0
97384,-200,4,2,0,69,0,0
98099,-100,4,2,0,69,0,0
98366,-100,4,2,0,5,0,0
98456,-125,4,2,0,69,0,0
98813,-83.3333333333333,4,2,0,69,0,0
99170,-66.6666666666667,4,2,0,69,0,0
99438,-66.6666666666667,4,2,0,5,0,0
99527,-57.1428571428571,4,2,0,69,0,0
99616,-57.1428571428571,4,2,0,5,0,0
99706,-200,4,2,0,69,0,0
100956,-83.3333333333333,4,2,0,69,0,0
101670,-66.6666666666667,4,2,0,69,0,0
102384,-294.117647058824,4,2,0,69,0,0
103009,-294.117647058824,4,2,0,5,0,0
103099,-66.6666666666667,4,2,0,69,0,1
106000,-66.6666666666667,4,2,0,5,0,1
106313,-66.6666666666667,4,2,0,69,0,1
108858,-66.6666666666667,4,2,0,5,0,1
109170,-66.6666666666667,4,2,0,69,0,1
109215,-66.6666666666667,4,2,0,5,0,1
109349,-66.6666666666667,4,2,0,69,0,1
111045,-66.6666666666667,4,2,0,5,0,1
111134,-66.6666666666667,4,2,0,69,0,1
111581,-66.6666666666667,4,2,0,5,0,1
111670,-285.714285714286,4,2,0,69,0,0
114527,-66.6666666666667,4,2,0,69,0,1
117384,-285.714285714286,4,2,0,69,0,1
118099,-66.6666666666667,4,2,0,69,0,1
120241,-285.714285714286,4,2,0,69,0,1
121313,-66.6666666666667,4,2,0,69,0,1
122474,-66.6666666666667,4,2,0,5,0,1
122563,-66.6666666666667,4,2,0,69,0,1
123009,-66.6666666666667,4,2,0,5,0,1
123099,-285.714285714286,4,2,0,69,0,0
124527,-200,4,2,0,69,0,0
125241,-111.111111111111,4,2,69,69,0,0
125554,-111.111111111111,4,2,69,5,0,0
125599,-44.4444444444445,4,2,69,69,0,0
125911,-44.4444444444445,4,2,69,5,0,0
125956,-200,4,2,69,69,0,0
126224,-200,4,2,69,5,0,0
126313,-66.6666666666667,4,2,0,69,0,0
128456,-285.714285714286,4,2,0,69,0,0
128724,-285.714285714286,4,2,0,5,0,0
128813,-66.6666666666667,4,2,0,69,0,1
129170,-66.6666666666667,4,2,0,69,0,0
130599,-100,4,2,0,69,0,0
130866,-100,4,2,0,5,0,0
130956,-66.6666666666667,4,2,0,69,0,0
131670,-100,4,2,0,69,0,1
131938,-117.647058823529,4,2,0,5,0,1
132027,-66.6666666666667,4,2,0,69,0,0
133099,-100,4,2,0,69,0,0
133366,-100,4,2,0,5,0,0
133456,-133.333333333333,4,2,0,69,0,0
133724,-133.333333333333,4,2,0,5,0,0
133813,-40,4,2,0,69,0,0
133902,-40,4,2,0,5,0,0
133991,-50,4,2,0,69,0,0
134081,-50,4,2,0,5,0,0
134170,-100,4,2,0,69,0,0
134438,-100,4,2,0,5,0,0
134527,-100,4,2,0,69,0,0
137027,-153.846153846154,4,2,0,69,0,0
137295,-153.846153846154,4,2,0,5,0,0
137384,-200,4,2,0,69,0,0
137652,-200,4,2,0,5,0,0
137741,-66.6666666666667,4,2,0,69,0,0
139884,-285.714285714286,4,2,0,69,0,0
140152,-285.714285714286,4,2,0,5,0,0
140241,-66.6666666666667,4,2,0,69,0,1
140599,-66.6666666666667,4,2,0,69,0,0
142027,-100,4,2,0,69,0,0
142295,-100,4,2,0,5,0,0
142384,-66.6666666666667,4,2,0,69,0,0
143099,-100,4,2,0,69,0,1
143366,-100,4,2,0,5,0,0
143456,-66.6666666666667,4,2,0,69,0,0
144527,-100,4,2,0,69,0,0
144795,-100,4,2,0,5,0,0
144884,-133.333333333333,4,2,0,69,0,0
145152,-133.333333333333,4,2,0,5,0,0
145241,-40,4,2,0,69,0,0
145331,-40,4,2,0,5,0,0
145420,-50,4,2,0,69,0,0
145509,-50,4,2,0,5,0,0
145599,-66.6666666666667,4,2,0,69,0,0
148813,-66.6666666666667,4,2,0,69,0,1
151715,-66.6666666666667,4,2,0,5,0,1
152027,-66.6666666666667,4,2,0,69,0,1
154572,-66.6666666666667,4,2,0,5,0,1
154884,-66.6666666666667,4,2,0,69,0,1
154929,-66.6666666666667,4,2,0,5,0,1
155063,-66.6666666666667,4,2,0,69,0,1
156759,-66.6666666666667,4,2,0,5,0,1
156849,-66.6666666666667,4,2,0,69,0,1
157295,-66.6666666666667,4,2,0,5,0,1
157384,-285.714285714286,4,2,0,69,0,0
160241,-66.6666666666667,4,2,0,69,0,1
163143,-66.6666666666667,4,2,0,5,0,1
163456,-66.6666666666667,4,2,0,69,0,1
165956,-285.714285714286,4,2,0,69,0,1
167027,-66.6666666666667,4,2,0,69,0,1
168188,-66.6666666666667,4,2,0,5,0,1
168277,-66.6666666666667,4,2,0,69,0,1
168724,-66.6666666666667,4,2,0,5,0,0
168813,-285.714285714286,4,2,0,69,0,1
168902,-285.714285714286,4,2,0,69,0,0
170241,-285.714285714286,4,2,0,69,0,1
170331,-285.714285714286,4,2,0,69,0,0

[Colours]
Combo1 : 66,126,187
Combo2 : 187,187,187
Combo3 : 255,0,0
SliderTrackOverride : 255,0,128

[HitObjects]
336,308,242,6,0,P|376:328|424:316,1,88.724997292328,2|0,3:0|0:0,0:0:0:0:
386,258,599,2,0,L|398:190,1,59.1499981948853,2|2,3:2|3:2,0:0:0:0:
211,135,956,2,0,L|200:76,2,59.1499981948853,2|2|2,0:0|0:0|3:0,0:0:0:0:
200,76,1670,6,0,L|211:135,1,59.1499981948853,2|0,3:0|0:0,0:0:0:0:
311,76,2027,2,0,L|322:18,1,59.1499981948853,2|2,0:0|3:2,0:0:0:0:
200,76,2384,6,0,L|211:135,1,59.1499981948853,2|0,0:3|0:0,0:0:0:0:
256,192,2652,1,0,0:0:0:0:
301,135,2741,2,0,L|311:76,1,59.1499981948853,2|2,3:2|0:0,0:0:0:0:
176,308,3099,6,0,P|136:328|88:316,1,88.724997292328,2|0,3:0|0:0,0:0:0:0:
126,258,3456,2,0,L|114:190,1,59.1499981948853,2|2,3:2|3:2,0:0:0:0:
301,135,3813,2,0,L|313:67,2,59.1499981948853,2|2|2,0:0|0:0|3:0,0:0:0:0:
301,135,4527,6,0,L|313:67,1,59.1499981948853,2|0,3:0|0:0,0:0:0:0:
190,18,4884,2,0,L|200:76,1,59.1499981948853,2|2,3:2|3:2,0:0:0:0:
301,135,5241,6,0,L|313:67,1,59.1499981948853,2|0,0:3|0:0,0:0:0:0:
256,8,5509,1,0,0:0:0:0:
200,76,5599,2,0,L|211:135,1,59.1499981948853,2|2,3:2|3:2,0:0:0:0:
256,208,5866,1,0,3:0:0:0:
301,135,5956,5,2,3:0:0:0:
301,135,6134,1,0,0:0:0:0:
301,135,6313,2,0,L|313:67,1,59.1499981948853,2|2,3:2|3:2,0:0:0:0:
402,52,6670,1,2,3:2:0:0:
474,113,6849,1,2,3:2:0:0:
402,52,7027,1,2,3:0:0:0:
201,308,7384,5,2,3:2:0:0:
110,332,7742,1,2,3:0:0:0:
38,271,8099,5,2,3:2:0:0:
110,332,8277,1,2,3:0:0:0:
201,308,8456,1,2,3:2:0:0:
211,311,8813,6,0,P|237:317|261:321,1,50.7,0|0,3:0|3:0,0:0:0:0:
301,73,10241,6,0,P|275:67|251:63,1,50.6999984527588,0|0,3:2|3:0,0:0:0:0:
185,22,10420,2,0,P|159:16|135:12,1,50.6999984527588,0|0,3:2|3:0,0:0:0:0:
48,56,10599,6,0,P|41:107|49:215,1,152.099995358276,0|0,3:0|0:0,0:0:0:0:
47,207,10956,6,0,B|62:233|99:249|109:244|109:244|116:201|172:129|220:197|249:204|291:178,1,295.75,4|0,0:0|0:0,0:0:0:0:
349,119,11313,6,0,L|359:120,1,8.45,2|0,3:0|0:0,0:0:0:0:
439,106,11491,6,0,L|449:107,1,8.45,2|0,3:0|0:0,0:0:0:0:
327,252,11670,6,0,P|330:295|303:342,1,84.5,4|0,1:0|0:0,0:0:0:0:
108,244,12027,2,0,P|105:201|132:154,1,84.5,2|4,0:3|3:0,0:0:0:0:
316,36,12384,6,0,P|390:22|466:23,1,152.099995358276,8|0,1:2|0:0,0:0:0:0:
512,132,12741,2,0,L|503:244,1,101.399996905518,4|0,3:0|0:0,0:0:0:0:
259,283,13099,1,2,0:3:0:0:
237,289,13277,1,0,3:0:0:0:
175,214,13456,5,4,3:0:0:0:
197,220,13634,1,2,0:3:0:0:
125,355,13813,2,0,L|14:359,2,101.399996905518,8|4|0,1:2|3:0|0:0,0:0:0:0:
100,84,14349,6,0,P|125:105|136:136,1,50.6999984527588,4|0,0:0|3:0,0:0:0:0:
65,149,14527,2,0,P|143:154|173:230,2,152.099995358276,4|2|4,3:0|0:3|3:0,0:0:0:0:
378,120,15241,5,8,1:2:0:0:
386,105,15421,1,2,0:0:0:0:
397,93,15599,1,4,3:0:0:0:
412,83,15777,1,2,0:0:0:0:
446,150,15956,6,0,P|464:178|466:212,1,67.6,4|4,0:0|0:1,0:0:0:0:
417,260,16491,2,0,P|400:234|399:194,1,67.6,2|4,0:0|0:1,0:0:0:0:
466,212,17027,6,2,P|503:151|375:161,1,253.5,2|0,0:1|0:1,0:1:0:0:
417,260,17384,1,4,1:0:0:0:
245,341,17563,1,4,0:0:0:0:
119,334,17741,6,0,L|245:341,1,126.750004835129,2|4,0:0|3:0,0:0:0:0:
324,280,18099,1,8,1:2:0:0:
324,280,18277,1,2,0:0:0:0:
170,193,18456,1,4,3:0:0:0:
498,74,18634,1,2,0:0:0:0:
498,74,18991,6,2,B|501:38|526:9|526:9|499:18|479:47|479:47|463:70|436:78|436:78|405:103|390:137|390:137|370:98|380:56,1,338,2|2,0:1|0:2,0:1:0:0:
324,280,19527,5,8,1:2:0:0:
170,193,19706,1,4,3:0:0:0:
498,74,19884,1,2,0:0:0:0:
464,165,20063,6,0,L|465:182,1,16.9,0|0,0:1|3:0,0:0:0:0:
471,261,20420,2,0,L|472:278,1,16.9,2|0,0:1|3:0,0:0:0:0:
256,344,20777,5,4,3:0:0:0:
315,305,20956,2,0,L|396:298,1,63.3750024175645,8|0,1:2|0:0,0:0:0:0:
176,225,21134,2,0,L|95:218,1,63.3750024175645,2|0,3:2|0:0,0:0:0:0:
366,81,21313,6,0,P|441:60|513:76,2,147.875001410246,4|2|4,3:0|0:0|0:0,0:0:0:0:
146,303,21849,1,0,3:0:0:0:
146,303,21938,1,0,3:0:0:0:
146,303,22027,2,0,P|71:324|-1:308,1,147.875001410246,4|0,3:0|3:0,0:0:0:0:
435,191,22384,5,4,3:0:0:0:
350,207,22563,1,4,3:0:0:0:
77,193,22741,5,4,3:0:0:0:
162,177,22920,1,4,3:0:0:0:
451,277,23099,6,0,L|381:271,1,42.25,4|0,0:0|0:0,0:0:0:0:
241,292,23188,2,0,L|464:277,1,211.25,2|4,0:1|3:0,0:0:0:0:
104,111,23813,6,0,P|102:62|116:34,1,63.3750024175645,8|2,1:2|0:3,0:0:0:0:
172,83,24170,2,0,P|174:132|160:160,1,63.3750024175645,4|2,3:0|0:3,0:0:0:0:
104,111,24527,5,0,3:0:0:0:
307,281,24706,2,2,P|357:282|410:272,1,101.4,0|8,3:1|1:2,0:1:0:0:
407,272,25420,2,2,P|371:272|334:265,1,67.6,4|0,3:0|3:0,0:1:0:0:
204,99,25956,6,0,L|275:106,1,42.25,4|0,0:0|0:0,0:0:0:0:
415,85,26045,2,0,L|192:100,1,211.25,2|4,0:1|3:0,0:0:0:0:
97,299,26670,6,0,P|62:302|21:280,1,63.3750024175645,8|2,1:2|0:3,0:0:0:0:
73,231,27027,2,0,P|107:227|148:249,1,63.3750024175645,0|2,3:0|0:3,0:0:0:0:
97,299,27384,5,0,3:0:0:0:
32,138,27563,2,2,P|24:83|33:33,1,101.4,0|8,3:0|1:2,0:1:0:0:
31,38,28277,6,2,B|53:42|53:42|77:34|77:34|103:38,1,67.6,4|2,3:0|3:0,0:1:0:0:
352,73,28813,6,0,P|409:69|475:55,1,118.299996389771,4|0,0:1|0:1,0:1:0:0:
169,130,29349,6,0,P|137:82|91:32,1,118.299996389771,4|2,3:0|0:0,0:0:0:0:
320,75,29884,2,0,P|352:87|370:110,1,59.1499981948853,4|0,3:0|3:0,0:0:0:0:
309,259,30241,6,2,P|283:310|263:374,1,118.299996389771,0|0,0:0|0:0,0:1:0:0:
311,144,31134,2,0,P|283:134|263:113,1,59.1499981948853,4|0,3:0|3:0,0:0:0:0:
322,77,31670,6,0,L|384:67,1,63.3750024175645,6|0,3:0|0:0,0:0:0:0:
429,125,32027,6,0,L|540:141,1,84.5,2|4,0:0|3:0,0:0:0:0:
377,227,32384,1,8,1:2:0:0:
371,199,32563,1,2,0:0:0:0:
311,269,32741,1,4,3:0:0:0:
305,297,32920,1,2,0:0:0:0:
116,35,33099,6,0,P|184:11|256:8,1,143.650002739906,2|0,1:2|3:0,0:0:0:0:
326,46,33366,1,0,3:0:0:0:
373,110,33456,2,0,P|444:114|512:136,1,143.650002739906,4|0,1:3|3:0,0:0:0:0:
305,297,33813,5,8,1:2:0:0:
299,269,33992,1,2,3:0:0:0:
279,297,34170,5,4,3:0:0:0:
273,325,34349,1,2,3:0:0:0:
197,311,34527,5,4,0:1:0:0:
448,334,37384,6,0,P|430:315|461:328,1,84.5,0|2,3:0|0:0,0:0:0:0:
256,192,37920,6,0,P|274:173|243:186,1,84.5,0|8,3:0|0:0,0:0:0:0:
64,334,38456,6,0,P|46:315|77:328,2,84.5,8|0|4,3:0|0:0|3:0,0:0:0:0:
332,128,38991,5,0,0:0:0:0:
332,128,39170,2,0,P|343:162|341:197,1,63.375,0|2,3:0|0:0,0:0:0:0:
169,189,39527,2,0,P|169:157|180:128,1,63.375,8|2,0:0|0:0,0:0:0:0:
256,192,39884,6,0,P|238:173|269:186,1,84.5,0|4,0:0|0:1,0:0:0:0:
215,265,40599,5,8,0:0:0:0:
215,265,40777,2,0,P|257:275|300:263,1,84.5,2|0,3:0|3:0,0:0:0:0:
296,118,41313,2,0,P|255:108|215:119,1,84.5,4|0,3:0|3:0,0:0:0:0:
215,265,41849,2,0,P|257:275|300:263,1,84.5,2|4,0:3|3:0,0:0:0:0:
392,192,42384,1,8,0:0:0:0:
120,192,42741,1,0,3:0:0:0:
256,192,43099,1,4,3:0:0:0:
98,175,43456,6,0,L|106:223,1,42.25,2|4,0:0|3:0,0:0:0:0:
120,192,43813,2,0,L|128:144,1,42.25,8|0,0:0|0:0,0:0:0:0:
317,304,44170,6,0,P|364:314|405:318,1,84.5
247,277,44884,6,2,B|253:256|276:237|276:237|277:221|238:189|204:192|164:179|127:151|127:151|155:124|199:110,1,295.75,2|0,0:1|0:1,0:1:0:0:
271,100,45241,6,0,P|295:111|330:114,1,59.15,4|0,0:0|0:0,0:0:0:0:
61,295,45956,6,0,P|41:211|58:28,1,253.500009670258,4|0,1:0|0:0,0:0:0:0:
185,114,46491,1,4,3:0:0:0:
459,45,46670,2,0,P|474:170|451:295,1,253.500009670258,8|4,1:2|3:0,0:0:0:0:
256,192,47206,2,0,L|182:198,1,63.3750024175645,2|0,0:0|0:0,0:0:0:0:
298,94,47384,5,0,3:0:0:0:
138,247,47563,1,2,0:0:0:0:
332,187,47741,5,4,3:0:0:0:
172,340,47920,1,2,0:0:0:0:
399,109,48099,6,0,B|465:102|465:102|469:70|495:40,1,126.750004835129,8|4,1:2|3:0,0:0:0:0:
113,275,48456,2,0,B|46:281|46:281|43:314|17:344,1,126.750004835129,0|0,3:0|3:0,0:0:0:0:
435,208,48813,6,0,P|439:225|439:249,1,31.6875012087822,4|0,1:2|0:0,0:0:0:0:
439,239,49170,1,2,0:3:0:0:
399,109,49349,1,4,3:0:0:0:
256,352,49527,6,0,P|177:346|114:324,1,126.750004835129,8|0,1:2|0:0,0:0:0:0:
335,298,49884,1,4,3:0:0:0:
335,298,50063,1,0,0:0:0:0:
84,259,50241,6,0,P|32:198|3:138,1,126.750004835129,0|0,1:0|0:0,0:0:0:0:
196,259,50598,1,4,3:0:0:0:
196,259,50777,1,0,0:0:0:0:
122,92,50956,6,0,B|101:95|83:108|83:108|48:64|-9:70,1,126.750004835129,8|4,1:2|3:0,0:0:0:0:
390,292,51313,2,0,B|411:289|429:276|429:276|464:320|521:314,1,126.750004835129,0|0,3:0|3:0,0:0:0:0:
354,76,51670,6,0,P|358:60|368:41,1,31.6875012087822,4|0,1:2|0:0,0:0:0:0:
299,121,52027,6,0,P|290:106|284:86,1,31.6875012087822,2|0,0:0|0:0,0:0:0:0:
425,85,52206,1,4,3:0:0:0:
390,292,52384,5,8,1:2:0:0:
231,261,52563,1,0,3:0:0:0:
262,103,52741,1,4,3:0:0:0:
420,133,52920,1,0,3:0:0:0:
226,280,53099,6,0,P|164:296|89:302,1,126.750004835129,0|0,1:0|3:0,0:0:0:0:
372,197,53456,2,0,P|434:213|509:219,1,126.750004835129,4|0,3:0|0:0,0:0:0:0:
202,153,53813,6,0,P|185:120|185:92,1,63.3750024175645,8|0,1:2|0:0,0:0:0:0:
264,39,53991,2,0,P|231:9|218:150,1,316.875012087822,4|0,3:0|0:0,0:0:0:0:
325,97,54527,6,0,L|388:89,1,59.1499981948853,4|0,0:1|0:0,0:0:0:0:
446,22,55063,1,4,3:0:0:0:
446,22,55241,2,0,L|509:30,1,59.1499981948853,8|4,1:2|3:0,0:0:0:0:
254,112,55777,5,0,3:0:0:0:
254,112,55866,1,0,3:0:0:0:
254,112,55956,2,0,P|252:82|265:56,1,59.1499981948853,0|4,3:0|3:0,0:0:0:0:
468,166,56491,1,0,3:0:0:0:
468,166,56581,1,0,3:0:0:0:
468,166,56670,2,0,P|469:195|456:221,1,59.1499981948853,8|0,1:2|3:0,0:0:0:0:
40,310,57384,6,0,P|157:359|282:352,1,253.500009670258,4|0,1:0|0:0,0:0:0:0:
244,246,57920,1,4,3:0:0:0:
472,74,58099,2,0,P|355:25|230:32,1,253.500009670258,0|4,1:0|3:0,0:0:0:0:
268,138,58634,1,0,3:0:0:0:
268,138,58724,1,0,3:0:0:0:
268,138,58813,5,0,3:0:0:0:
244,246,58991,1,0,3:0:0:0:
312,113,59170,5,4,3:0:0:0:
198,269,59348,1,2,0:0:0:0:
420,260,59527,6,0,B|434:358|434:358|441:315,1,126.750004835129,8|4,1:2|3:0,0:0:0:0:
92,124,59884,2,0,B|78:26|78:26|71:69,1,126.750004835129,0|0,3:0|3:0,0:0:0:0:
56,188,60241,6,0,P|76:196|117:193,1,59.1499981948853,4|2,1:0|0:3,0:0:0:0:
92,124,60777,1,4,3:0:0:0:
256,32,60956,6,0,P|335:38|398:60,1,126.750004835129,8|0,1:2|0:0,0:0:0:0:
177,86,61313,1,4,3:0:0:0:
177,86,61492,1,0,0:0:0:0:
428,125,61670,6,0,P|480:186|509:246,1,126.750004835129,0|0,1:0|0:0,0:0:0:0:
316,125,62027,1,4,3:0:0:0:
316,125,62206,1,0,0:0:0:0:
183,298,62384,6,0,P|120:318|61:290,1,126.750004835129,8|4,1:2|3:0,0:0:0:0:
329,86,62741,2,0,P|392:66|451:94,1,126.750004835129,0|0,3:0|3:0,0:0:0:0:
390,262,63099,6,0,B|411:213|365:195|390:142,1,118.299996389771,4|8,1:0|1:2,0:0:0:0:
390,262,64170,6,0,P|338:273|257:277,1,126.750004835129,4|0,3:0|3:0,0:0:0:0:
73,177,64527,2,0,P|135:189|198:192,1,126.750004835129,0|0,1:0|3:0,0:0:0:0:
440,100,64884,1,4,3:0:0:0:
440,100,65063,1,0,0:0:0:0:
390,233,65241,6,0,L|386:169,1,63.3750024175645,8|0,1:2|0:0,0:0:0:0:
338,327,65420,2,0,P|464:337|390:234,1,316.875012087822,4|0,3:0|0:0,0:0:0:0:
288,246,65956,6,0,P|255:254|225:255,1,59.1499981948853,4|0,0:1|0:0,0:0:0:0:
150,328,66491,1,4,3:0:0:0:
150,328,66670,2,0,P|117:336|87:337,1,59.1499981948853,8|4,1:2|3:0,0:0:0:0:
356,219,67206,5,0,3:0:0:0:
356,219,67295,1,0,3:0:0:0:
356,219,67384,2,0,P|363:192|353:157,1,59.1499981948853,0|4,3:0|3:0,0:0:0:0:
156,165,67920,1,0,3:0:0:0:
156,165,68009,1,0,3:0:0:0:
156,165,68098,2,0,P|149:192|159:227,1,59.1499981948853,8|0,1:2|3:0,0:0:0:0:
256,84,68813,5,4,3:0:0:0:
252,116,68991,1,0,0:0:0:0:
292,57,69170,1,0,0:0:0:0:
288,25,69348,1,0,3:0:0:0:
184,92,69527,1,2,0:0:0:0:
184,92,69884,5,0,3:0:0:0:
184,92,70063,1,0,0:0:0:0:
355,162,70241,5,0,3:0:0:0:
387,155,70420,1,0,0:0:0:0:
325,197,70599,1,0,0:0:0:0:
293,190,70777,1,0,3:0:0:0:
434,273,70956,1,2,0:0:0:0:
128,281,73099,5,0,3:0:0:0:
128,281,73277,1,0,3:0:0:0:
140,288,73366,1,0,3:0:0:0:
154,290,73456,1,0,3:0:0:0:
195,270,73634,1,0,3:0:0:0:
236,184,73813,1,8,3:2:0:0:
232,152,73991,1,0,0:0:0:0:
314,361,74170,1,0,3:0:0:0:
314,361,74349,1,0,0:0:0:0:
371,71,74527,5,4,3:0:0:0:
371,71,74884,1,0,0:0:0:0:
358,114,75063,1,8,3:0:0:0:
411,206,75241,1,0,0:0:0:0:
398,249,75599,1,4,3:0:0:0:
358,114,75777,1,0,0:0:0:0:
262,239,75956,5,4,3:0:0:0:
233,233,76134,1,0,0:0:0:0:
300,216,76313,1,0,0:0:0:0:
329,210,76491,1,4,3:0:0:0:
120,168,76670,1,0,0:0:0:0:
436,112,77027,1,8,3:0:0:0:
465,106,77384,1,4,3:1:0:0:
436,112,77563,5,0,0:0:0:0:
432,84,77741,1,0,0:0:0:0:
465,106,77920,1,0,0:0:0:0:
445,186,78099,1,2,0:0:0:0:
438,212,78277,1,0,0:0:0:0:
454,257,78456,1,0,0:0:0:0:
256,208,78634,2,0,P|220:180|198:173,1,59.1499981948853,2|8,0:0|3:0,0:0:0:0:
176,188,79170,1,0,3:0:0:0:
168,168,79259,1,0,3:0:0:0:
176,143,79349,1,0,3:0:0:0:
152,102,79438,1,0,3:0:0:0:
156,77,79527,5,8,0:0:0:0:
46,104,79706,1,0,0:3:0:0:
49,125,79884,1,0,0:3:0:0:
52,146,80063,1,0,0:3:0:0:
23,96,80241,5,4,3:0:0:0:
176,143,80331,1,2,0:0:0:0:
55,167,80777,5,4,3:0:0:0:
96,27,80956,1,8,1:2:0:0:
90,47,81313,1,4,3:3:0:0:
224,283,81491,2,0,P|266:303|275:305,1,42.25,0|0,3:0|0:0,0:0:0:0:
331,273,81670,5,2,0:0:0:0:
331,273,81849,1,0,3:0:0:0:
404,200,82027,1,4,3:0:0:0:
397,161,82206,1,0,3:0:0:0:
346,259,82384,1,8,1:2:0:0:
330,344,82563,1,4,3:0:0:0:
485,79,82741,2,2,P|443:114|388:121,1,111.540003403931,2|0,0:1|0:1,0:1:0:0:
363,95,83099,6,0,L|232:81,2,126.75,4|0|4,3:0|0:0|3:0,0:0:0:0:
201,167,83813,5,8,1:2:0:0:
172,178,83991,1,0,0:0:0:0:
152,125,84170,5,4,3:0:0:0:
132,72,84349,1,0,0:0:0:0:
27,111,84527,5,2,0:0:0:0:
27,111,84706,1,0,3:0:0:0:
132,72,84884,1,4,3:0:0:0:
99,182,85063,1,2,0:0:0:0:
260,170,85241,1,8,1:2:0:0:
75,254,85420,1,4,3:0:0:0:
5,238,85599,5,4,0:0:0:0:
507,146,85956,2,0,P|479:131|434:125,1,73.9374977436066
410,149,86491,1,4,3:0:0:0:
132,72,86670,1,8,1:2:0:0:
107,82,87027,1,4,3:0:0:0:
137,56,87206,1,0,0:0:0:0:
168,120,87384,5,2,0:0:0:0:
104,155,87563,1,0,3:0:0:0:
191,129,87741,1,4,3:0:0:0:
191,129,87920,1,0,0:0:0:0:
37,126,88099,6,0,P|32:168|69:220,1,88.724997292328,8|0,1:2|0:0,0:0:0:0:
191,129,88456,2,0,P|195:86|159:35,1,88.724997292328,4|0,0:0|0:0,0:0:0:0:
53,207,88813,6,0,P|48:249|85:301,1,88.724997292328,4|0,3:0|0:0,0:0:0:0:
207,210,89170,2,0,P|211:167|175:116,1,88.724997292328,2|0,0:0|0:0,0:0:0:0:
69,288,89527,6,0,L|144:298,1,59.1499981948853,8|2,1:2|0:0,0:0:0:0:
265,217,89884,2,0,L|190:207,1,59.1499981948853,4|2,3:0|0:0,0:0:0:0:
174,46,90241,5,0,3:0:0:0:
320,153,90420,1,0,3:0:0:0:
318,169,90509,1,0,3:0:0:0:
334,203,90599,1,4,3:0:0:0:
127,295,90777,1,0,3:0:0:0:
393,243,90956,1,8,1:2:0:0:
51,314,91224,6,2,P|190:248|321:239,1,285.18751087904,2|0,0:1|0:1,0:1:0:0:
512,285,91670,1,4,1:0:0:0:
51,70,92206,5,4,3:0:0:0:
103,25,92295,1,2,0:0:0:0:
172,18,92384,2,0,P|208:60|306:55,1,135.199995874024,8|0,1:2|0:0,0:0:0:0:
298,47,92682,2,0,P|288:102|314:160,1,101.399996905518,2|0,0:3|0:0,0:0:0:0:
337,178,92920,6,0,P|313:215|267:244,1,67.5999979370118,2|0,0:3|0:0,0:0:0:0:
193,268,93099,1,4,0:0:0:0:
193,268,93277,1,0,3:0:0:0:
333,297,93456,1,4,3:0:0:0:
133,342,93634,1,0,0:0:0:0:
420,312,93813,6,0,P|461:253|510:242,3,101.399996905518,8|0|2|2,1:2|0:0|0:3|0:0,0:0:0:0:
454,67,94527,6,0,L|446:124,1,42.25,4|0,1:0|3:0,0:0:0:0:
448,109,94795,1,0,3:0:0:0:
448,109,94884,1,0,3:0:0:0:
162,201,95063,5,4,3:0:0:0:
148,272,95152,1,2,0:0:0:0:
133,342,95241,2,0,L|109:197,1,135.199995874024,8|0,1:2|0:0,0:0:0:0:
94,229,95539,2,0,P|125:266|192:269,1,101.399996905518,2|0,0:3|0:0,0:0:0:0:
213,258,95777,6,0,L|250:182,1,67.5999979370118,2|0,0:3|0:0,0:0:0:0:
338,142,95956,1,4,0:0:0:0:
338,142,96134,1,0,3:0:0:0:
297,2,96313,1,4,3:0:0:0:
260,210,96491,1,0,0:0:0:0:
92,72,96670,6,0,B|8:96|8:96|40:68,3,126.750004835129,8|0|2|2,1:2|0:0|0:3|0:0,0:0:0:0:
219,174,97384,6,0,P|235:162|205:166,1,84.5,4|0,1:0|0:0,0:0:0:0:
476,124,97920,5,4,3:0:0:0:
475,97,98009,1,0,3:0:0:0:
475,70,98099,6,0,B|451:154|451:154|479:122,1,126.750004835129,8|0,1:2|0:0,0:0:0:0:
492,211,98456,2,0,P|457:226|417:215,1,67.6,4|2,3:0|0:0,0:0:0:0:
187,79,98813,6,0,P|236:73|279:98,1,101.399996905518,0|2,1:0|0:0,0:0:0:0:
259,269,99170,6,0,B|223:145|223:145|264:192,1,190.125007252693,4|0,3:0|0:0,0:0:0:0:
316,317,99527,2,0,P|287:338|250:342,1,73.937500705123,8|0,1:2|0:0,0:0:0:0:
93,233,99706,6,0,P|147:244|193:309,1,126.75,4|4,3:0|0:1,0:0:0:0:
93,233,100777,5,0,3:0:0:0:
93,233,100956,2,0,P|45:227|1:174,2,101.399996905518,8|0|4,1:2|0:0|3:0,0:0:0:0:
184,94,101491,1,0,3:0:0:0:
184,94,101581,1,0,3:0:0:0:
184,94,101670,6,0,P|122:100|82:147,1,126.750004835129,0|0,1:0|3:0,0:0:0:0:
93,233,101938,1,0,3:0:0:0:
155,292,102027,2,0,P|180:235|159:177,1,126.750004835129,0|0,1:0|3:0,0:0:0:0:
8,190,102384,6,0,P|44:224|93:233,1,100.555000613739,4|0,1:2|0:0,0:0:0:0:
403,52,103099,6,0,P|441:125|373:270,1,253.500009670258,4|0,1:0|0:0,0:0:0:0:
288,197,103634,1,4,3:0:0:0:
92,232,103813,2,0,P|53:158|121:13,1,253.500009670258,8|4,1:2|3:0,0:0:0:0:
331,253,104349,2,0,P|310:265|268:267,1,63.3750024175645,2|0,0:0|0:0,0:0:0:0:
202,48,104527,5,0,1:0:0:0:
288,197,104706,1,0,3:0:0:0:
132,97,104884,5,4,3:0:0:0:
359,186,105063,1,0,0:0:0:0:
155,331,105241,6,0,P|92:329|38:296,1,126.750004835129,8|4,1:2|3:0,0:0:0:0:
357,53,105599,2,0,P|420:55|474:88,1,126.750004835129,0|0,3:0|3:0,0:0:0:0:
220,266,105956,6,0,L|172:258,1,31.6875012087822,4|0,1:2|0:0,0:0:0:0:
188,260,106313,1,0,0:0:0:0:
105,173,106491,1,4,3:0:0:0:
357,53,106670,6,0,P|417:23|493:0,1,126.750004835129,8|0,1:2|0:0,0:0:0:0:
325,134,107027,1,4,3:0:0:0:
325,134,107206,1,0,0:0:0:0:
158,95,107384,6,0,P|92:81|12:79,1,126.750004835129,0|0,1:0|3:0,0:0:0:0:
273,68,107741,1,4,3:0:0:0:
273,68,107920,1,0,0:0:0:0:
440,212,108099,6,0,B|436:232|423:245|423:245|444:293|444:293|466:296|485:309,1,126.750004835129,8|4,1:2|3:0,0:0:0:0:
72,172,108456,2,0,B|75:151|88:138|88:138|67:90|67:90|46:88|26:74,1,126.750004835129,0|0,3:0|3:0,0:0:0:0:
338,205,108813,6,0,P|368:199|380:192,1,31.6875012087822,4|0,1:2|0:0,0:0:0:0:
143,185,109170,6,0,P|136:200|133:215,1,31.6875012087822,2|0,0:0|0:0,0:0:0:0:
275,127,109349,1,4,3:0:0:0:
203,220,109527,5,8,1:2:0:0:
368,198,109706,1,0,3:0:0:0:
346,33,109884,1,4,3:0:0:0:
181,55,110063,1,0,3:0:0:0:
162,286,110241,6,0,P|104:315|31:309,1,126.750004835129,0|0,1:0|3:0,0:0:0:0:
249,170,110599,2,0,P|307:199|380:193,1,126.750004835129,4|0,3:0|0:0,0:0:0:0:
181,55,110956,6,0,L|107:62,1,63.3750024175645,8|0,1:2|0:0,0:0:0:0:
190,71,111134,6,0,B|453:97|453:97|415:82|391:46,1,316.875012087822,4|0,3:0|0:0,0:0:0:0:
435,179,111670,6,0,P|435:214|421:240,1,59.1499981948853,4|0,0:1|0:0,0:0:0:0:
179,127,112206,1,4,3:0:0:0:
179,127,112384,2,0,P|179:92|193:66,1,59.1499981948853,8|4,1:2|3:0,0:0:0:0:
375,182,112920,5,0,3:0:0:0:
375,182,113009,1,0,3:0:0:0:
375,182,113099,2,0,L|436:178,1,59.1499981948853,0|4,3:0|3:0,0:0:0:0:
305,113,113634,1,0,3:0:0:0:
305,113,113723,1,0,3:0:0:0:
305,113,113813,2,0,L|244:109,1,59.1499981948853,8|0,1:2|3:0,0:0:0:0:
152,355,114527,6,0,L|424:374,1,253.500009670258,4|0,1:0|0:0,0:0:0:0:
357,274,115063,1,4,3:0:0:0:
498,91,115241,2,0,L|226:110,1,253.500009670258,8|4,1:2|3:0,0:0:0:0:
147,15,115777,1,0,3:0:0:0:
147,15,115866,1,0,3:0:0:0:
147,15,115956,5,2,0:0:0:0:
236,127,116134,1,0,3:0:0:0:
83,56,116313,5,4,3:0:0:0:
192,193,116491,1,0,3:0:0:0:
367,72,116670,6,0,B|464:87|464:87|439:74,1,126.750004835129,8|4,1:2|3:0,0:0:0:0:
145,312,117027,2,0,B|47:326|47:326|74:330,1,126.750004835129,0|0,3:0|3:0,0:0:0:0:
208,281,117384,6,0,P|189:257|163:243,1,59.1499981948853,4|2,1:0|0:3,0:0:0:0:
145,312,117920,1,4,3:0:0:0:
380,227,118099,6,0,P|440:257|516:280,1,126.750004835129,8|0,1:2|0:0,0:0:0:0:
371,149,118456,1,4,3:0:0:0:
371,149,118635,1,0,0:0:0:0:
175,192,118813,6,0,P|109:206|29:208,1,126.750004835129,0|0,1:0|3:0,0:0:0:0:
208,104,119170,1,4,3:0:0:0:
208,104,119349,1,0,0:0:0:0:
395,344,119527,6,0,B|430:328|444:304|444:304|443:274|406:235,1,126.750004835129,8|4,1:2|3:0,0:0:0:0:
117,40,119884,2,0,B|82:56|67:79|67:79|69:110|106:149,1,126.750004835129,0|0,3:0|3:0,0:0:0:0:
232,37,120241,6,0,B|183:16|165:62|112:37,1,118.299996389771,4|8,1:0|1:2,0:0:0:0:
232,37,121313,6,0,L|240:175,1,126.750004835129,4|0,3:0|3:0,0:0:0:0:
280,347,121670,2,0,L|287:220,1,126.750004835129,0|0,1:0|3:0,0:0:0:0:
428,156,122027,1,4,3:0:0:0:
428,156,122206,1,0,3:0:0:0:
261,115,122384,6,0,L|265:43,1,63.3750024175645,8|0,1:2|0:0,0:0:0:0:
242,132,122563,6,0,B|257:395|257:395|266:355|298:326,1,316.875012087822,4|0,3:0|0:0,0:0:0:0:
373,293,123099,6,0,L|432:299,1,59.1499981948853,4|0,1:0|0:0,0:0:0:0:
296,188,123634,1,4,3:0:0:0:
296,188,123813,2,0,P|269:203|240:208,1,59.1499981948853,8|4,1:2|3:0,0:0:0:0:
284,114,124349,5,0,3:0:0:0:
279,104,124438,1,0,3:0:0:0:
276,94,124527,2,2,B|260:108|248:128|248:128|262:115|287:113,1,84.5,4|4,3:2|3:0,0:1:0:0:
304,320,125241,6,2,L|296:188,1,133.087495938492,2|0,0:1|0:1,0:1:0:0:
350,142,125599,6,2,B|408:156|483:132|483:132|421:123|288:192,1,332.718762692214,6|0,0:2|0:1,0:1:0:0:
207,297,125956,2,0,L|203:234,1,63.375,4|0,1:0|0:0,0:0:0:0:
140,335,126313,6,0,P|185:372|250:361,1,126.750004835129,4|4,1:2|3:0,0:0:0:0:
296,188,126670,1,8,1:2:0:0:
207,297,126849,1,0,0:0:0:0:
404,161,127027,2,0,P|356:199|296:188,1,126.750004835129,4|0,1:2|3:0,0:0:0:0:
140,49,127384,5,0,1:0:0:0:
337,125,127563,1,2,0:0:0:0:
98,111,127741,5,4,3:0:0:0:
295,187,127920,1,2,0:0:0:0:
379,63,128099,5,8,1:2:0:0:
173,117,128277,1,4,3:0:0:0:
306,357,128456,2,0,L|312:312,1,44.362498646164,0|0,3:0|0:0,0:0:0:0:
295,187,128813,6,0,L|311:312,1,126.750004835129,4|0,1:0|3:0,0:0:0:0:
63,149,129170,6,0,P|98:114|185:126,1,126.750004835129,4|4,1:2|3:0,0:0:0:0:
311,312,129527,1,8,1:2:0:0:
132,182,129706,1,0,0:0:0:0:
332,29,129884,2,0,P|381:34|428:108,1,126.750004835129,4|0,1:2|3:0,0:0:0:0:
132,182,130241,5,2,1:2:0:0:
351,102,130420,1,2,1:2:0:0:
229,87,130599,6,0,B|284:68|287:123|361:100,1,126.75,4|0,3:0|0:0,0:0:0:0:
332,29,130956,6,0,P|326:79|358:161,1,126.750004835129,8|4,1:2|3:0,0:0:0:0:
154,228,131314,2,0,P|200:208|255:139,1,126.750004835129,2|4,0:0|3:0,0:0:0:0:
416,283,131670,6,0,P|375:252|288:239,1,126.75,4|0,1:0|0:0,0:0:0:0:
192,304,132027,6,0,P|121:307|74:262,1,126.750004835129,4|4,1:2|3:0,0:0:0:0:
192,80,132384,1,8,1:2:0:0:
154,228,132563,1,0,0:0:0:0:
320,80,132741,2,0,P|391:77|438:122,1,126.750004835129,4|0,1:2|3:0,0:0:0:0:
68,149,133099,6,0,B|73:181|81:241|46:268|26:234,1,126.75,4|0,0:0|0:0,0:0:0:0:
159,133,133456,6,0,L|154:227,1,95.0625036263467,8|0,3:0|0:0,0:0:0:0:
226,194,133813,6,0,B|233:174|233:174|260:191|260:191|289:180|289:180|295:211,1,105.625,8|0,1:2|0:0,0:0:0:0:
366,233,133991,6,0,L|361:128,1,84.5,4|0,3:0|0:0,0:0:0:0:
433,184,134170,6,0,B|477:226|477:226|475:160,1,126.75,4|0,0:0|0:0,0:0:0:0:
379,22,134527,5,2,0:0:0:0:
354,28,134616,1,2,0:0:0:0:
329,34,134706,1,2,0:0:0:0:
154,106,134884,5,2,0:0:0:0:
179,112,134973,1,2,0:0:0:0:
204,118,135063,1,2,0:0:0:0:
366,233,135241,5,8,1:2:0:0:
76,88,135599,1,4,3:0:0:0:
379,22,135956,5,2,0:0:0:0:
354,28,136045,1,2,0:0:0:0:
329,34,136135,1,2,0:0:0:0:
379,22,136313,5,4,3:0:0:0:
76,88,136491,1,0,3:0:0:0:
390,258,136670,2,2,L|385:174,1,84.5,8|4,1:2|3:0,0:0:0:0:
309,150,137027,6,2,L|315:235,1,82.3874962285997,2|0,0:1|0:1,0:1:0:0:
309,150,137384,6,0,L|305:87,1,63.375,4|0,1:0|0:0,0:0:0:0:
372,49,137741,6,0,P|327:12|262:23,1,126.750004835129,4|4,1:2|3:0,0:0:0:0:
216,196,138098,1,8,1:2:0:0:
305,87,138277,1,0,0:0:0:0:
108,223,138455,2,0,P|156:185|216:196,1,126.750004835129,4|0,1:2|3:0,0:0:0:0:
372,335,138812,5,0,1:0:0:0:
175,259,138991,1,2,0:0:0:0:
414,273,139169,5,4,3:0:0:0:
217,197,139348,1,2,0:0:0:0:
133,321,139527,5,8,1:2:0:0:
339,267,139705,1,4,3:0:0:0:
206,27,139884,2,0,L|200:72,1,44.362498646164,0|0,3:0|0:0,0:0:0:0:
217,197,140241,6,0,L|201:72,1,126.750004835129,4|0,1:0|3:0,0:0:0:0:
449,235,140598,6,0,P|414:270|327:258,1,126.750004835129,4|4,1:2|3:0,0:0:0:0:
201,72,140955,1,8,1:2:0:0:
380,202,141134,1,0,0:0:0:0:
180,355,141312,2,0,P|131:350|84:276,1,126.750004835129,4|0,1:2|3:0,0:0:0:0:
380,202,141669,5,2,1:2:0:0:
161,282,141848,1,2,1:2:0:0:
283,297,142027,6,0,B|228:316|225:261|151:284,1,126.75,4|0,3:0|0:0,0:0:0:0:
180,355,142384,6,0,P|186:305|154:223,1,126.750004835129,8|4,1:2|3:0,0:0:0:0:
358,156,142742,2,0,P|312:176|257:245,1,126.750004835129,2|4,0:0|3:0,0:0:0:0:
96,101,143099,6,0,P|137:132|224:145,1,126.75,4|0,1:0|0:0,0:0:0:0:
320,80,143456,6,0,P|391:77|438:122,1,126.750004835129,4|4,1:2|3:0,0:0:0:0:
320,304,143812,1,8,1:2:0:0:
358,156,143991,1,0,0:0:0:0:
192,304,144170,2,0,P|121:307|74:262,1,126.750004835129,4|0,1:2|3:0,0:0:0:0:
54,99,144527,6,0,B|61:130|74:189|42:219|19:187,1,126.75,4|0,0:0|0:0,0:0:0:0:
143,75,144884,6,0,L|146:169,1,95.0625036263467,8|0,3:0|0:0,0:0:0:0:
215,130,145241,6,0,B|220:109|220:109|248:124|248:124|276:110|276:110|285:140,1,105.625,8|0,1:0|0:0,0:0:0:0:
358,156,145420,6,0,L|343:51,1,84.5,4|0,3:0|0:0,0:0:0:0:
420,102,145599,6,0,B|467:140|467:140|459:74,1,126.75,4|0,0:0|3:0,0:0:0:0:
459,74,145866,1,0,3:0:0:0:
459,74,145956,1,0,3:0:0:0:
420,282,146134,1,4,1:3:0:0:
351,263,146492,5,8,0:0:0:0:
161,301,146670,1,4,1:3:0:0:
92,282,147027,5,4,0:1:0:0:
256,192,147384,12,0,148634,0:0:0:0:
418,275,148813,6,0,B|381:270|362:243|362:243|339:268|304:278|304:278|261:221|200:238,1,253.500009670258,4|0,1:0|3:0,0:0:0:0:
73,305,149349,1,4,3:0:0:0:
4,47,149527,2,0,B|41:52|59:78|59:78|82:53|117:43|117:43|160:100|222:84,1,253.500009670258,8|4,1:2|3:0,0:0:0:0:
146,287,150063,2,0,P|174:308|214:309,1,63.3750024175645,2|0,3:0|3:0,0:0:0:0:
422,204,150241,5,0,1:0:0:0:
200,238,150420,1,2,0:0:0:0:
440,108,150599,5,4,3:0:0:0:
218,142,150778,1,2,0:0:0:0:
421,325,150956,6,0,B|435:306|435:306|420:188,1,126.750004835129,8|4,1:2|3:0,0:0:0:0:
91,59,151313,2,0,B|77:78|77:78|92:196,1,126.750004835129,0|0,3:0|3:0,0:0:0:0:
440,108,151670,6,0,L|478:103,1,31.6875012087822,4|0,1:2|0:0,0:0:0:0:
471,103,152027,1,2,0:0:0:0:
421,203,152206,1,4,3:0:0:0:
216,46,152384,6,0,P|150:57|80:58,1,126.750004835129,8|2,1:2|0:0,0:0:0:0:
292,96,152742,1,4,3:0:0:0:
292,96,152920,1,0,3:0:0:0:
120,172,153099,6,0,P|55:154|-8:125,1,126.750004835129,0|2,1:0|0:0,0:0:0:0:
167,249,153457,1,4,3:0:0:0:
167,249,153635,1,0,3:0:0:0:
394,52,153813,6,0,B|408:61|408:61|385:69|359:61|359:61|342:30|301:23,1,126.750004835129,8|4,1:2|3:0,0:0:0:0:
65,294,154170,2,0,B|50:284|50:284|74:277|100:285|100:285|117:316|158:323,1,126.750004835129,0|0,3:0|3:0,0:0:0:0:
339,217,154527,6,0,L|346:252,1,31.6875012087822,4|0,1:2|0:0,0:0:0:0:
447,294,154884,6,0,L|454:259,1,31.6875012087822,2|0,0:0|0:0,0:0:0:0:
345,248,155063,1,4,3:0:0:0:
145,320,155241,5,8,1:2:0:0:
123,175,155420,1,2,0:0:0:0:
275,248,155599,5,4,3:0:0:0:
291,102,155778,1,2,0:0:0:0:
447,293,155956,6,0,L|465:153,1,126.750004835129,4|0,0:0|1:0,0:0:0:0:
275,248,156313,2,0,L|293:388,1,126.750004835129,4|0,3:0|3:0,0:0:0:0:
123,175,156670,2,0,L|132:98,1,63.3750024175645,2|0,3:0|0:0,0:0:0:0:
412,27,156849,6,0,P|377:66|117:106,1,316.875012087822,4|0,3:0|0:0,0:0:0:0:
48,155,157384,6,0,P|46:180|55:213,1,59.1499981948853,4|0,0:1|0:0,0:0:0:0:
206,290,157920,1,4,3:0:0:0:
205,290,158099,2,0,P|206:260|197:232,1,59.1499981948853,8|4,1:2|3:0,0:0:0:0:
307,180,158634,5,0,3:0:0:0:
307,180,158724,1,0,3:0:0:0:
307,180,158813,2,0,P|298:208|300:237,1,59.1499981948853,0|4,3:0|3:0,0:0:0:0:
367,278,159349,5,0,3:0:0:0:
367,278,159439,1,0,3:0:0:0:
367,278,159528,2,0,P|376:250|375:220,1,59.1499981948853,8|0,1:2|3:0,0:0:0:0:
74,218,160241,6,0,B|96:224|115:238|115:238|146:229|170:210|170:210|208:221|229:249|229:249|264:229|301:237,1,253.500009670258,4|0,1:0|3:0,0:0:0:0:
257,37,160777,1,4,3:0:0:0:
484,17,160956,2,0,B|462:23|443:37|443:37|411:28|387:9|387:9|349:20|328:48|328:48|293:28|237:39,1,253.500009670258,4|0,1:0|3:0,0:0:0:0:
300,237,161491,6,0,P|313:208|311:177,1,63.3750024175645,2|0,3:0|3:0,0:0:0:0:
56,154,161670,5,0,1:0:0:0:
240,197,161849,1,2,0:0:0:0:
82,290,162027,5,4,3:0:0:0:
300,237,162206,1,2,0:0:0:0:
88,45,162384,6,0,B|89:66|100:85|100:85|59:113|55:153,1,126.750004835129,8|4,1:2|3:0,0:0:0:0:
353,358,162741,2,0,B|351:336|340:317|340:317|381:289|385:249,1,126.750004835129,8|4,1:2|3:0,0:0:0:0:
192,45,163099,6,0,L|144:40,1,31.6875012087822,4|0,1:2|0:0,0:0:0:0:
160,41,163456,1,0,0:0:0:0:
354,22,163634,1,0,0:0:0:0:
296,240,163813,6,0,P|250:270|168:308,1,126.750004835129,8|2,1:2|0:0,0:0:0:0:
382,253,164170,1,4,3:0:0:0:
382,253,164349,1,0,3:0:0:0:
148,193,164527,6,0,P|94:205|4:213,1,126.750004835129,0|2,1:0|0:0,0:0:0:0:
224,234,164884,1,4,3:0:0:0:
224,234,165063,1,0,3:0:0:0:
326,80,165241,6,0,P|381:44|445:56,1,126.750004835129,8|4,1:2|3:0,0:0:0:0:
186,304,165599,2,0,P|130:339|66:327,1,126.750004835129,8|4,1:2|3:0,0:0:0:0:
435,167,165956,6,0,B|443:130|443:130|431:92|431:92|439:50,1,118.299996389771,4|8,1:0|1:2,0:0:0:0:
445,171,167027,6,0,B|453:132|453:132|440:92|440:92|449:48,1,126.750004835129,4|0,3:0|1:0,0:0:0:0:
363,239,167384,2,0,B|371:278|371:278|358:318|358:318|367:363,1,126.750004835129,0|0,1:0|3:0,0:0:0:0:
214,276,167741,1,4,3:0:0:0:
214,276,167920,1,0,3:0:0:0:
308,122,168099,2,0,L|299:45,1,63.3750024175645,8|0,1:2|0:0,0:0:0:0:
16,129,168278,6,0,P|52:91|314:65,1,316.875012087822,4|0,3:0|0:0,0:0:0:0:
386,119,168813,6,0,P|411:134|441:141,2,59.1499981948853,4|0|0,0:1|0:0|0:0,0:0:0:0:
264,328,170241,2,0,P|239:343|209:350,2,59.1499981948853,4|0|0,0:1|0:0|0:0,0:0:0:0:
