osu file format v14

[General]
AudioFilename: audio.mp3
AudioLeadIn: 0
PreviewTime: 173164
Countdown: 0
SampleSet: Normal
StackLeniency: 0.4
Mode: 0
LetterboxInBreaks: 0
WidescreenStoryboard: 1
SamplesMatchPlaybackRate: 1

[Editor]
Bookmarks: 22854
DistanceSpacing: 1.6
BeatDivisor: 2
GridSize: 32
TimelineZoom: 1.2

[Metadata]
Title:XOXO
TitleUnicode:XOXO
Artist:JEON SOMI
ArtistUnicode:전소미
Creator:Sani_
Version:Normal
Source:
Tags:THEBLACKLABEL Natsu Skymin Nabori tadahitotsu rap Xandit [Im Nayeon] [Im_Nayeon] nemidnight XOXO_album The Black Label kpop k-pop korean pop english
BeatmapID:3352059
BeatmapSetID:1642211

[Difficulty]
HPDrainRate:4
CircleSize:3
OverallDifficulty:5
ApproachRate:5
SliderMultiplier:1.4
SliderTickRate:1

[Events]
//Background and Video events
0,0,"SOMI.jpeg",0,0
//Break Periods
2,54295,59516
2,120502,125723
2,160226,164992
//Storyboard Layer 0 (Background)
//Storyboard Layer 1 (Fail)
//Storyboard Layer 2 (Pass)
//Storyboard Layer 3 (Foreground)
//Storyboard Layer 4 (Overlay)
//Storyboard Sound Samples

[TimingPoints]
1130,413.793103448276,4,2,10,80,1,0
1130,-111.111111111111,4,2,10,80,0,0
2681,-111.111111111111,4,2,10,40,0,0
3509,-111.111111111111,4,2,10,80,0,0
5992,-111.111111111111,4,2,10,40,0,0
6819,-111.111111111111,4,2,10,80,0,0
9302,-111.111111111111,4,2,10,40,0,0
10130,-111.111111111111,4,2,10,80,0,0
10957,-111.111111111111,4,2,10,40,0,0
11371,-111.111111111111,4,2,10,80,0,0
12612,-111.111111111111,4,2,10,40,0,0
13026,-111.111111111111,4,2,10,80,0,0
14371,-100,4,1,1,80,0,1
19750,-100,4,1,1,80,0,0
20992,-100,4,1,1,80,0,1
26371,-100,4,1,1,80,0,0
27612,-100,4,2,10,50,0,0
40440,-100,4,2,11,95,0,0
40647,-100,4,1,1,80,0,0
50888,-100,4,1,1,30,0,0
51509,-100,4,1,1,80,0,0
52336,-100,4,1,1,30,0,0
52750,-100,4,1,1,80,0,0
54198,-100,4,2,10,30,0,0
54819,-100,4,2,10,80,0,0
55026,-100,4,2,10,30,0,0
55440,-100,4,2,10,80,0,0
55647,-100,4,2,10,30,0,0
56474,-100,4,2,10,80,0,0
57509,-100,4,2,10,30,0,0
58130,-100,4,2,10,80,0,0
58336,-100,4,2,10,30,0,0
58750,-100,4,2,10,80,0,0
58957,-100,4,2,10,30,0,0
59785,-100,4,2,10,80,0,0
60716,-100,4,1,2,80,0,0
61130,-100,4,1,2,30,0,0
61543,-100,4,1,2,80,0,0
61957,-100,4,1,2,30,0,0
62371,-100,4,1,2,80,0,0
62785,-100,4,1,2,30,0,0
63198,-100,4,1,2,80,0,0
63612,-100,4,1,2,30,0,0
64026,-100,4,1,2,80,0,0
65267,-100,4,2,31,95,0,0
65371,-100,4,1,1,95,0,0
65681,-100,4,2,23,30,0,0
65785,-100,4,1,1,30,0,0
66509,-100,4,2,10,80,0,0
67336,-100,4,1,2,80,0,1
67440,-100,4,1,1,80,0,1
73130,-100,4,1,1,80,0,0
73957,-100,4,1,1,80,0,1
79336,-100,4,1,1,80,0,0
80578,-100,4,1,1,80,0,1
85957,-100,4,1,1,80,0,0
87198,-100,4,1,1,80,0,1
93819,-100,4,2,1,95,0,0
93923,-100,4,2,1,80,0,0
94854,-100,4,2,1,80,0,0
94957,-100,4,2,1,80,0,0
95474,-100,4,2,1,80,0,0
95578,-100,4,2,1,80,0,0
96509,-100,4,2,1,80,0,0
96612,-100,4,2,1,80,0,0
97130,-100,4,2,1,80,0,0
97233,-100,4,2,1,80,0,0
98164,-100,4,2,1,80,0,0
98267,-100,4,2,1,80,0,0
98785,-100,4,2,1,80,0,0
98888,-100,4,2,1,80,0,0
99819,-100,4,2,1,80,0,0
99923,-100,4,2,1,80,0,0
100440,-100,4,2,1,80,0,0
100543,-100,4,2,1,80,0,0
101474,-100,4,2,1,80,0,0
101578,-100,4,2,1,80,0,0
102095,-100,4,2,1,80,0,0
102198,-100,4,2,1,80,0,0
103130,-100,4,2,1,80,0,0
103233,-100,4,2,1,80,0,0
103750,-100,4,2,1,80,0,0
103854,-100,4,2,1,80,0,0
104785,-100,4,2,1,80,0,0
104888,-100,4,2,1,80,0,0
105405,-100,4,2,22,95,0,0
105474,-100,4,2,22,30,0,0
107061,-100,4,1,1,80,0,0
110785,-100,4,1,1,30,0,0
111198,-100,4,1,1,80,0,0
113681,-100,4,1,2,60,0,0
118647,-100,4,1,2,30,0,0
119474,-100,4,1,3,95,0,0
120302,-100,4,1,1,80,0,0
120405,-100,4,2,10,30,0,0
121026,-100,4,2,10,80,0,0
121233,-100,4,2,10,30,0,0
121647,-100,4,2,10,80,0,0
121957,-100,4,2,10,30,0,0
122785,-100,4,2,10,80,0,0
123716,-100,4,2,10,30,0,0
124336,-100,4,2,10,80,0,0
124543,-100,4,2,10,30,0,0
124957,-100,4,2,10,80,0,0
125267,-100,4,2,10,30,0,0
126095,-100,4,2,10,80,0,0
126923,-100,4,1,2,80,0,0
127336,-100,4,1,2,30,0,0
127750,-100,4,1,2,80,0,0
128164,-100,4,1,2,30,0,0
128578,-100,4,1,2,80,0,0
128992,-100,4,1,2,30,0,0
129405,-100,4,1,2,80,0,0
129819,-100,4,1,2,30,0,0
130233,-100,4,1,2,80,0,0
131474,-100,4,2,31,95,0,0
131578,-100,4,1,2,80,0,0
131888,-100,4,2,23,30,0,0
131992,-100,4,1,1,30,0,0
132716,-100,4,2,10,80,0,0
133543,-100,4,1,2,80,0,1
133647,-100,4,1,1,80,0,1
139336,-100,4,1,1,80,0,0
140164,-100,4,1,1,80,0,1
145543,-100,4,1,1,80,0,0
146785,-100,4,1,1,80,0,1
152164,-100,4,1,1,80,0,0
153405,-100,4,1,1,80,0,1
160026,-100,4,1,1,80,0,0
160130,-100,4,2,10,60,0,0
163750,-100,4,2,10,30,0,0
164992,-100,4,2,10,60,0,0
165405,-100,4,2,10,30,0,0
165612,-100,4,2,10,60,0,0
166647,-111.111111111111,4,2,10,60,0,0
170371,-111.111111111111,4,2,10,30,0,0
170785,-111.111111111111,4,2,10,60,0,0
171612,-111.111111111111,4,2,33,80,0,0
171716,-111.111111111111,4,2,10,80,0,0
172854,-111.111111111111,4,2,10,30,0,0
173267,-100,4,2,11,80,0,0
173992,-100,4,1,1,80,0,0
174095,-100,4,2,10,80,0,0
174923,-100,4,1,2,80,0,1
175026,-100,4,1,1,80,0,1
180716,-100,4,1,1,80,0,0
181543,-100,4,1,1,80,0,1
186923,-100,4,1,1,80,0,0
188164,-100,4,1,1,80,0,1
193543,-100,4,1,1,80,0,0
194785,-100,4,1,1,80,0,1
201198,-100,4,1,1,80,0,0

[Colours]
Combo1 : 106,106,232
Combo2 : 239,135,248
Combo3 : 239,167,86
Combo4 : 174,221,66

[HitObjects]
428,355,1130,6,0,L|361:343,1,62.9999980773926,2|2,0:0|0:0,0:0:0:0:
323,302,1543,2,0,L|257:312,1,62.9999980773926,2|2,0:0|0:0,0:0:0:0:
215,348,1957,2,0,P|158:336|143:276,1,125.999996154785,2|2,0:0|0:0,0:0:0:0:
69,194,2785,2,0,L|3:207,2,62.9999980773926,0|0|0,0:0|0:0|0:0,0:0:0:0:
154,125,3612,2,0,L|281:146,1,125.999996154785,2|2,0:0|0:0,0:0:0:0:
364,91,4440,6,0,B|396:126|396:126|366:199,1,125.999996154785,2|2,0:0|0:0,0:0:0:0:
391,251,5061,1,2,0:0:0:0:
391,251,5267,2,0,B|451:235|451:235|510:284,1,125.999996154785,2|2,0:0|0:0,0:0:0:0:
428,355,6095,1,0,0:0:0:0:
420,359,6923,2,0,P|356:346|292:332,1,125.999996154785,2|2,0:0|0:0,0:0:0:0:
234,248,7750,6,0,P|202:251|174:271,1,62.9999980773926,2|2,0:0|0:0,0:0:0:0:
124,291,8164,2,0,L|95:234,1,62.9999980773926,2|2,0:0|0:0,0:0:0:0:
45,204,8578,2,0,B|67:148|67:148|72:144|72:144|100:71,1,125.999996154785,2|2,0:0|0:0,0:0:0:0:
187,41,9405,2,0,L|274:29,1,62.9999980773926,0|0,0:0|0:0,0:0:0:0:
297,61,9819,1,0,0:0:0:0:
375,139,10233,2,0,L|348:205,2,62.9999980773926,2|2|0,0:0|0:0|0:0,0:0:0:0:
423,110,10854,6,0,B|454:104|479:88|479:88|495:111|533:128,1,125.999996154785,2|0,0:0|0:0,0:0:0:0:
510,185,11474,1,2,0:0:0:0:
481,293,11888,2,0,P|419:320|362:282,1,125.999996154785,2|2,0:0|0:0,0:0:0:0:
327,256,12509,2,0,L|353:189,2,62.9999980773926,2|0|0,0:0|0:0|0:0,0:0:0:0:
271,279,13130,1,2,0:0:0:0:
265,287,14371,6,0,P|203:272|128:260,1,140,4|0,3:1|0:0,0:0:0:0:
92,215,14992,1,0,0:0:0:0:
92,215,15198,2,0,P|69:180|72:153,1,70,2|0,0:0|0:0,0:0:0:0:
119,115,15612,1,0,0:0:0:0:
204,50,16026,2,0,P|239:62|277:84,1,70,0|2,0:0|0:0,0:0:0:0:
301,127,16440,2,0,B|382:115|342:68|463:56,1,140,0|2,3:0|0:0,0:0:0:0:
466,103,17061,2,0,P|440:176|424:237,1,140,0|0,3:0|0:0,0:0:0:0:
379,269,17681,6,0,B|319:234|248:277|277:299|235:289|264:314|210:380|133:344,1,280,0|2,3:0|0:0,0:0:0:0:
58,266,18923,2,0,P|41:219|32:191,1,70,0|2,0:0|0:0,0:0:0:0:
71,155,19336,2,0,P|103:145|126:108,1,70,0|2,0:0|3:1,0:0:0:0:
99,64,19750,5,0,3:0:0:0:
204,43,20164,1,2,0:0:0:0:
313,22,20578,2,0,P|301:71|292:115,1,70,0|2,0:0|0:0,0:0:0:0:
254,135,20992,6,0,B|273:195|273:195|278:197|278:197|298:266,1,140,4|0,3:1|0:0,0:0:0:0:
366,344,21819,2,0,P|395:358|456:357,1,70,2|0,0:0|0:0,0:0:0:0:
475,324,22233,1,0,0:0:0:0:
507,228,22647,2,0,P|489:206|467:167,1,70,0|2,0:0|0:0,0:0:0:0:
499,123,23061,2,0,P|515:56|429:76,1,140,0|2,3:0|0:0,0:0:0:0:
416,73,23681,2,0,B|362:116|362:116|278:83,1,140,0|0,3:0|0:0,0:0:0:0:
262,40,24302,6,0,B|201:15|128:71|169:95|118:93|156:122|124:206|57:194,1,280,0|2,3:0|0:0,0:0:0:0:
4,282,25543,2,0,P|35:297|69:322,1,70,0|2,0:0|0:0,0:0:0:0:
108,358,25957,2,0,P|139:343|173:318,1,70,0|2,0:0|0:0,0:0:0:0:
217,289,26371,5,0,3:0:0:0:
307,347,26785,1,2,0:0:0:0:
307,347,26992,2,0,B|383:325|330:280|427:262,1,140,0|2,3:0|0:0,0:0:0:0:
440,213,27612,6,0,P|454:169|457:127,1,70,2|2,0:2|0:2,0:0:0:0:
415,109,28026,2,0,P|383:126|339:115,1,70,2|2,0:2|0:2,0:0:0:0:
312,76,28440,2,0,B|252:61|252:61|243:64|243:64|159:45,1,140,10|2,0:2|0:0,0:0:0:0:
72,6,29267,2,0,P|55:41|40:88,1,70,2|2,0:0|0:0,0:0:0:0:
7,114,29681,2,0,P|23:160|25:193,1,70,2|2,0:0|0:0,0:0:0:0:
63,223,30095,2,0,P|129:210|211:201,1,140,10|2,0:0|0:0,0:0:0:0:
306,236,30923,6,0,P|304:272|281:321,1,70,2|2,0:0|0:0,0:0:0:0:
247,343,31336,2,0,P|214:347|170:352,1,70,2|2,0:0|0:0,0:0:0:0:
121,359,31750,1,10,0:0:0:0:
42,290,32164,2,0,P|52:257|67:207,2,70,2|2|2,0:0|0:0|0:0,0:0:0:0:
121,359,32992,1,2,0:0:0:0:
208,286,33405,2,0,P|242:339|297:366,1,70,10|0,0:0|0:0,0:0:0:0:
300,358,33819,2,0,P|341:342|382:335,1,70,0|0,0:0|0:0,0:0:0:0:
424,356,34233,6,0,B|443:298|443:298|446:301|446:301|470:213,1,140,2|2,0:0|0:0,0:0:0:0:
434,186,34854,1,2,0:0:0:0:
434,186,35061,2,0,P|408:129|340:146,1,140,10|2,0:0|0:0,0:0:0:0:
267,217,35888,2,0,P|250:178|241:130,1,70,2|2,0:0|0:0,0:0:0:0:
202,106,36302,2,0,P|216:78|226:35,1,70,2|2,0:0|0:0,0:0:0:0:
176,9,36716,2,0,P|88:30|30:48,1,140,10|2,0:0|0:0,0:0:0:0:
6,145,37543,5,2,0:0:0:0:
84,205,37957,2,0,P|115:186|171:170,1,70,2|2,0:0|0:0,0:0:0:0:
200,195,38371,2,0,P|237:210|276:217,1,70,10|2,0:0|0:0,0:0:0:0:
322,207,38785,2,0,P|338:181|342:140,2,70,2|2|2,0:0|0:0|0:0,0:0:0:0:
408,265,39612,2,0,P|438:205|442:133,2,140,2|10|2,0:0|0:0|0:0,0:0:0:0:
323,331,40854,6,0,P|272:315|186:308,1,140,4|0,3:1|0:0,0:0:0:0:
139,347,41474,1,0,0:0:0:0:
139,347,41681,2,0,P|81:313|87:248,1,140,8|0,0:0|0:0,0:0:0:0:
169,168,42509,2,0,P|180:125|193:80,1,70,0|0,0:0|0:0,0:0:0:0:
161,51,42923,6,0,B|168:19|194:6|194:6|280:24,1,140,0|8,3:0|0:0,0:0:0:0:
292,79,43543,2,0,B|340:123|340:123|416:106,1,140,0|0,3:0|0:0,0:0:0:0:
454,71,44164,6,0,B|469:133|469:133|467:137|467:137|486:219,1,140,4|0,3:1|0:0,0:0:0:0:
447,255,44785,1,0,0:0:0:0:
447,255,44992,2,0,P|394:204|330:231,1,140,8|0,0:0|0:0,0:0:0:0:
257,290,45819,2,0,P|212:303|168:321,1,70,0|0,0:0|3:0,0:0:0:0:
149,353,46233,6,0,P|98:326|95:245,1,140,0|8,3:0|0:0,0:0:0:0:
143,230,46854,2,0,P|125:151|97:84,1,140,0|0,3:0|0:0,0:0:0:0:
60,61,47474,6,0,B|139:54|108:6|185:-1,1,140,4|0,3:1|0:0,0:0:0:0:
269,69,48302,2,0,P|254:101|238:152,1,70,8|0,0:0|0:0,0:0:0:0:
291,171,48716,2,0,P|333:160|373:148,1,70,0|0,0:0|0:0,0:0:0:0:
396,107,49130,2,0,P|460:127|475:201,1,140,0|0,0:0|3:0,0:0:0:0:
429,293,49957,2,0,L|360:314,1,70,8|0,0:0|3:0,0:0:0:0:
322,356,50371,2,0,P|257:336|188:310,1,140,0|4,0:0|3:1,0:0:0:0:
86,338,51198,2,0,L|70:256,1,70,0|0,0:0|0:0,0:0:0:0:
35,227,51612,1,8,0:0:0:0:
129,170,52026,6,0,P|170:161|226:149,1,70,0|0,0:0|0:0,0:0:0:0:
239,115,52440,2,0,P|243:78|222:44,1,70,0|0,0:0|0:0,0:0:0:0:
176,21,52854,6,0,P|108:52|20:102,1,140,0|8,3:0|0:0,0:0:0:0:
17,128,53474,2,0,P|79:138|45:226,1,140,0|0,3:0|0:0,0:0:0:0:
35,227,54095,5,4,0:1:0:0:
54,222,60716,6,0,B|120:193|179:247|141:271|188:330|276:297,1,210,8|0,0:0|0:0,0:0:0:0:
260,257,61543,2,0,B|307:212|307:212|391:241,1,140,8|0,0:0|0:0,0:0:0:0:
477,290,62371,2,0,P|499:186|526:79,1,210,8|0,0:0|0:0,0:0:0:0:
491,40,63198,2,0,P|446:8|401:72,1,140,8|0,0:0|0:0,0:0:0:0:
313,126,64026,6,0,P|259:106|222:89,1,70,8|0,0:0|0:0,0:0:0:0:
213,54,64440,2,0,P|159:74|122:91,1,70,8|0,0:0|0:0,0:0:0:0:
114,124,64854,2,0,B|40:106|87:48|3:33,2,140,8|2|2,0:0|0:0|0:0,0:0:0:0:
377,236,67336,6,0,P|366:286|346:300,1,70,4|0,3:1|0:0,0:0:0:0:
320,347,67750,2,0,P|286:333|249:327,1,70,0|0,0:0|0:0,0:0:0:0:
203,358,68164,1,2,0:0:0:0:
117,288,68578,2,0,P|101:249|84:214,1,70,0|0,0:0|0:0,0:0:0:0:
39,204,68992,2,0,P|31:173|79:125,1,70,0|2,0:0|0:0,0:0:0:0:
94,104,69405,6,0,B|163:117|148:50|224:61,1,140,0|2,3:0|0:0,0:0:0:0:
251,108,70026,2,0,P|265:159|344:150,1,140,0|0,3:0|0:0,0:0:0:0:
358,100,70647,5,0,3:0:0:0:
459,55,71061,2,0,P|464:92|474:159,1,70,0|0,0:0|0:0,0:0:0:0:
472,182,71474,1,2,0:0:0:0:
412,278,71888,2,0,P|443:297|454:336,1,70,0|2,0:0|0:0,0:0:0:0:
415,371,72302,2,0,L|340:357,1,70,0|2,0:0|3:1,0:0:0:0:
314,312,72716,6,0,B|276:274|276:274|154:290,1,140,0|2,3:0|0:0,0:0:0:0:
149,326,73336,2,0,P|103:334|79:255,1,140,0|2,3:0|0:0,0:0:0:0:
126,225,73957,6,0,P|113:177|92:128,1,70,4|0,3:1|0:0,0:0:0:0:
57,123,74371,2,0,P|73:66|87:40,1,70,0|0,0:0|0:0,0:0:0:0:
133,36,74785,1,2,0:0:0:0:
227,91,75198,2,0,P|265:81|297:71,1,70,0|0,0:0|0:0,0:0:0:0:
341,34,75612,2,0,P|376:46|390:76,1,70,0|2,0:0|0:0,0:0:0:0:
422,124,76026,6,0,B|344:149|403:183|309:216,1,140,0|2,3:0|0:0,0:0:0:0:
286,259,76647,2,0,P|285:299|311:331,1,70,0|0,3:0|0:0,0:0:0:0:
411,348,77267,6,0,P|444:280|486:189,1,140,0|0,3:0|0:0,0:0:0:0:
422,124,78095,2,0,P|415:84|385:76,1,70,2|0,0:0|0:0,0:0:0:0:
371,24,78509,2,0,P|345:0|305:8,1,70,0|2,0:0|0:0,0:0:0:0:
292,63,78923,2,0,L|165:94,1,70,0|2,0:0|0:0,0:0:0:0:
177,48,79336,6,0,B|126:105|160:94|139:137|99:165,1,140,0|2,3:0|0:0,0:0:0:0:
4,127,80164,2,0,B|41:152|62:195|28:184|79:241,1,140,0|4,0:0|3:1,0:0:0:0:
96,304,80785,1,0,0:0:0:0:
96,304,80992,2,0,P|133:320|174:335,1,70,0|0,0:0|0:0,0:0:0:0:
209,298,81405,6,0,P|214:289|272:268,1,70,2|0,0:0|0:0,0:0:0:0:
313,305,81819,1,0,0:0:0:0:
405,366,82233,2,0,P|430:326|463:286,1,70,0|2,0:0|0:0,0:0:0:0:
491,269,82647,6,0,B|459:129|459:129|455:179|415:210,1,210,0|0,3:0|3:0,0:0:0:0:
348,125,83681,1,0,0:0:0:0:
348,125,83888,6,0,B|350:61|259:48|225:100|264:106|223:144|168:125,1,210,0|0,3:0|0:0,0:0:0:0:
139,163,84716,2,0,P|97:140|92:94,1,70,2|0,0:0|0:0,0:0:0:0:
47,85,85130,2,0,P|59:52|118:36,1,70,0|2,0:0|0:0,0:0:0:0:
135,4,85543,2,0,L|210:16,1,70,0|2,0:0|3:1,0:0:0:0:
254,27,85957,6,0,B|323:47|281:110|368:131,1,140,0|2,3:0|0:0,0:0:0:0:
447,110,86785,2,0,B|378:130|420:193|333:214,1,140,0|4,0:0|3:1,0:0:0:0:
319,248,87405,1,0,0:0:0:0:
319,248,87612,2,0,P|305:283|283:346,1,70,0|0,0:0|0:0,0:0:0:0:
340,354,88026,6,0,P|427:293|482:284,1,140,2|0,0:0|0:0,0:0:0:0:
497,243,88647,2,0,B|479:178|479:178|473:173|473:173|451:96,1,140,0|2,0:0|0:0,0:0:0:0:
488,63,89267,6,0,B|463:17|399:15|399:15|379:75|303:75,1,210,0|0,3:0|3:0,0:0:0:0:
228,14,90302,1,0,0:0:0:0:
228,14,90509,6,0,P|197:40|177:108,1,70,0|0,3:0|0:0,0:0:0:0:
130,102,90923,2,0,P|136:149|154:173,1,70,0|0,0:0|0:0,0:0:0:0:
181,219,91336,2,0,B|105:202|129:271|54:263,1,140,2|0,0:0|0:0,0:0:0:0:
8,170,92164,2,0,P|-4:115|-12:80,2,70,0|2|0,0:0|0:0|3:0,0:0:0:0:
56,263,92992,6,0,P|41:302|37:343,1,70,2|0,0:0|3:0,0:0:0:0:
88,366,93405,2,0,P|130:351|168:346,1,70,0|2,0:0|0:0,0:0:0:0:
210,361,93819,5,2,0:2:0:0:
288,287,94233,2,0,P|317:310|334:353,1,70,2|2,0:2|0:2,0:0:0:0:
379,365,94647,2,0,B|403:308|403:308|408:304|408:304|433:237,1,140,2|2,0:2|0:0,0:0:0:0:
374,145,95474,5,2,0:2:0:0:
437,55,95888,2,0,B|411:30|411:30|374:35,1,70,2|2,0:2|0:2,0:0:0:0:
326,12,96302,2,0,P|264:25|168:45,1,140,2|2,0:2|0:0,0:0:0:0:
90,8,97130,6,0,P|77:33|53:84,1,70,2|2,0:2|0:0,0:0:0:0:
90,120,97543,2,0,P|121:121|148:151,1,70,2|2,0:0|0:0,0:0:0:0:
197,181,97957,2,0,P|161:254|151:288,1,70,2|2,0:0|0:2,0:0:0:0:
140,298,98371,1,2,0:0:0:0:
247,332,98785,6,0,B|327:317|348:244|348:244|327:317|388:366,1,280,2|2,0:2|0:0,0:0:0:0:
443,343,99819,2,0,P|489:298|461:226,1,140,2|2,0:2|0:0,0:0:0:0:
436,186,100440,6,0,P|458:147|485:104,1,70,2|2,0:2|0:0,0:0:0:0:
456,68,100854,1,2,0:0:0:0:
366,8,101267,2,0,P|361:65|290:88,1,140,2|2,0:0|0:0,0:0:0:0:
213,13,102095,6,0,P|184:26|146:44,1,70,2|2,0:2|0:0,0:0:0:0:
128,95,102509,2,0,P|84:89|54:49,1,70,2|2,0:0|0:0,0:0:0:0:
24,29,102923,2,0,P|37:126|43:193,1,140,2|2,0:0|0:0,0:0:0:0:
136,209,103750,6,0,P|161:250|94:301,1,140,2|2,0:2|0:0,0:0:0:0:
52,308,104371,1,2,0:0:0:0:
52,308,104578,2,0,B|129:305|96:381|198:373,1,140,2|2,0:0|0:0,0:0:0:0:
263,326,105405,2,0,P|286:337|346:368,1,70,2|0,0:2|0:0,0:0:0:0:
336,356,107061,6,0,B|400:332|393:234|393:234|358:258|313:249,1,210,6|0,3:1|0:0,0:0:0:0:
293,209,107888,2,0,P|252:202|201:194,1,70,2|0,0:0|0:0,0:0:0:0:
195,151,108302,1,0,0:0:0:0:
233,54,108716,2,0,P|268:43|332:24,1,70,0|2,0:0|0:0,0:0:0:0:
349,3,109130,6,0,B|427:19|387:67|471:87,1,140,0|2,3:0|0:0,0:0:0:0:
501,128,109750,2,0,P|488:204|481:270,1,140,0|2,3:0|0:0,0:0:0:0:
453,317,110371,6,0,B|371:317|317:358|317:358|348:336|348:294,1,210,6|0,3:1|0:0,0:0:0:0:
311,256,111198,2,0,P|289:237|232:313,1,140,2|0,0:0|0:0,0:0:0:0:
204,350,111819,1,2,0:0:0:0:
204,350,112026,2,0,P|154:339|105:329,1,70,0|2,0:0|3:1,0:0:0:0:
85,355,112440,6,0,B|45:302|45:302|79:232,1,140,2|0,3:1|0:0,0:0:0:0:
41,140,113267,2,0,P|87:131|127:118,1,70,0|0,0:0|0:0,0:0:0:0:
159,87,113681,6,0,P|196:103|251:116,2,70,8|0|8,3:1|0:0|0:0,0:0:0:0:
90,0,114509,1,8,0:0:0:0:
15,74,114923,2,0,P|33:116|46:160,1,70,8|0,0:0|0:0,0:0:0:0:
23,197,115336,2,0,P|52:229|110:227,1,70,8|0,0:0|0:0,0:0:0:0:
125,204,115750,6,0,P|160:196|215:190,1,70,8|0,3:2|0:0,0:0:0:0:
241,158,116164,1,8,0:0:0:0:
241,158,116371,2,0,B|315:171|269:227|372:244,1,140,0|0,3:0|0:0,0:0:0:0:
400,209,116992,6,0,P|431:195|441:148,1,70,8|0,3:2|0:0,0:0:0:0:
486,123,117405,2,0,P|480:90|444:66,1,70,8|0,0:0|0:0,0:0:0:0:
411,31,117819,2,0,P|341:49|263:69,1,140,8|8,0:0|0:0,0:0:0:0:
229,30,118440,1,0,0:0:0:0:
221,26,119474,2,0,L|145:44,1,70,0|0,3:0|3:0,0:0:0:0:
105,87,119888,2,0,B|69:93|69:93|38:69,1,70,0|0,3:0|3:0,0:0:0:0:
42,13,120302,5,4,0:1:0:0:
490,249,126923,6,0,B|458:318|376:313|376:313|395:289|397:248,1,210,8|0,0:0|0:0,0:0:0:0:
362,198,127750,2,0,B|290:178|343:122|264:101,1,140,8|0,0:0|0:0,0:0:0:0:
195,19,128578,2,0,B|138:53|138:53|181:191,1,210,8|0,0:0|0:0,0:0:0:0:
143,230,129405,2,0,B|78:204|78:204|45:271,1,140,8|0,0:0|0:0,0:0:0:0:
126,344,130233,6,0,P|157:367|212:369,1,70,8|0,0:0|0:0,0:0:0:0:
232,334,130647,2,0,P|268:320|285:280,1,70,8|0,0:0|0:0,0:0:0:0:
334,266,131061,2,0,B|371:266|391:233|391:233|371:266|385:300,2,140,8|2|2,0:0|0:0|0:0,0:0:0:0:
334,266,133543,6,0,P|320:219|305:169,1,70,4|0,3:1|0:0,0:0:0:0:
345,147,133957,2,0,P|375:133|392:91,1,70,0|0,0:0|0:0,0:0:0:0:
364,48,134371,1,2,0:0:0:0:
266,5,134785,2,0,P|229:15|175:31,1,70,0|0,0:0|0:0,0:0:0:0:
165,77,135198,2,0,P|120:64|85:54,1,70,0|2,0:0|0:0,0:0:0:0:
63,9,135612,6,0,P|4:47|55:134,1,140,0|2,3:0|0:0,0:0:0:0:
37,157,136233,2,0,B|115:151|87:212|174:209,1,140,0|0,3:0|0:0,0:0:0:0:
215,180,136854,1,0,3:0:0:0:
250,284,137267,2,0,P|215:304|203:348,1,70,0|0,0:0|0:0,0:0:0:0:
241,375,137681,1,2,0:0:0:0:
343,341,138095,2,0,P|378:357|430:376,1,70,0|2,0:0|0:0,0:0:0:0:
458,347,138509,2,0,P|478:327|478:275,1,70,0|2,0:0|3:1,0:0:0:0:
446,243,138923,6,0,B|373:226|417:179|340:157,1,140,0|2,3:0|0:0,0:0:0:0:
316,107,139543,2,0,B|358:53|358:53|420:88,1,140,0|2,3:0|0:0,0:0:0:0:
470,65,140164,6,0,P|494:95|493:145,1,70,4|0,3:1|0:0,0:0:0:0:
473,178,140578,2,0,P|458:213|437:261,1,70,0|0,0:0|0:0,0:0:0:0:
482,286,140992,1,2,0:0:0:0:
370,281,141405,2,0,P|332:292|284:308,1,70,0|0,0:0|0:0,0:0:0:0:
270,353,141819,2,0,P|241:351|210:320,1,70,0|2,0:0|0:0,0:0:0:0:
180,276,142233,6,0,B|199:217|199:217|203:215|203:215|224:138,1,140,0|2,3:0|0:0,0:0:0:0:
266,108,142854,2,0,P|248:72|197:62,1,70,0|0,3:0|0:0,0:0:0:0:
132,7,143474,2,0,B|62:8|62:8|9:78,1,140,0|0,3:0|0:0,0:0:0:0:
104,132,144302,2,0,L|73:212,1,70,2|0,0:0|0:0,0:0:0:0:
29,224,144716,2,0,P|38:265|90:301,1,70,0|2,0:0|0:0,0:0:0:0:
111,290,145130,2,0,P|141:282|190:275,1,70,0|2,0:0|0:0,0:0:0:0:
222,235,145543,6,0,B|254:172|292:214|314:134,1,140,0|2,3:0|0:0,0:0:0:0:
315,40,146371,2,0,B|336:117|374:75|406:138,1,140,0|4,0:0|3:1,0:0:0:0:
464,159,146992,1,0,0:0:0:0:
464,159,147198,2,0,B|455:189|455:189|456:193|456:193|442:240,1,70,0|0,0:0|0:0,0:0:0:0:
423,276,147612,6,0,B|390:268|390:268|357:298,1,70,2|0,0:0|0:0,0:0:0:0:
363,350,148026,1,0,0:0:0:0:
259,356,148440,2,0,P|248:310|230:260,1,70,0|2,0:0|0:0,0:0:0:0:
222,235,148854,6,0,B|173:252|117:211|155:194|112:197|148:180|97:136|50:148,1,210,0|0,3:0|3:0,0:0:0:0:
34,255,149888,1,0,0:0:0:0:
34,255,150095,2,0,P|108:246|208:150,1,210,0|0,3:0|0:0,0:0:0:0:
176,106,150923,2,0,P|145:78|119:60,1,70,2|0,0:0|0:0,0:0:0:0:
154,11,151336,2,0,P|176:0|241:4,1,70,0|2,0:0|0:0,0:0:0:0:
269,31,151750,2,0,P|302:35|350:69,1,70,0|2,0:0|3:1,0:0:0:0:
313,110,152164,6,0,B|339:175|374:137|409:209,1,140,0|2,3:0|0:0,0:0:0:0:
505,186,152992,2,0,B|479:251|444:213|409:285,1,140,0|4,0:0|3:1,0:0:0:0:
385,338,153612,1,0,0:0:0:0:
385,338,153819,2,0,P|352:349|304:364,1,70,0|0,0:0|0:0,0:0:0:0:
274,324,154233,6,0,B|225:273|225:273|155:293,1,140,2|0,0:0|0:0,0:0:0:0:
123,343,154854,2,0,P|55:308|72:248,1,140,0|2,0:0|0:0,0:0:0:0:
103,210,155474,6,0,B|78:71|78:71|102:116|148:128,1,210,0|0,3:0|3:0,0:0:0:0:
189,36,156509,1,0,0:0:0:0:
189,36,156716,2,0,L|270:58,1,70,0|0,3:0|0:0,0:0:0:0:
309,24,157130,2,0,B|341:38|341:38|361:90,1,70,0|0,0:0|0:0,0:0:0:0:
322,122,157543,2,0,B|310:173|310:173|288:189|288:189|270:249,1,140,2|0,0:0|0:0,0:0:0:0:
353,319,158371,2,0,P|390:306|440:290,2,70,0|2|0,0:0|0:0|3:0,0:0:0:0:
257,361,159198,6,0,P|224:345|164:319,1,70,2|0,0:0|3:0,0:0:0:0:
141,324,159612,2,0,P|102:341|45:366,1,70,0|2,0:0|0:0,0:0:0:0:
23,374,160026,5,4,0:1:0:0:
485,144,166647,6,0,P|485:89|392:101,1,125.999996154785,2|2,0:0|0:0,0:0:0:0:
343,126,167474,2,0,B|301:144|295:167|295:167|300:144|275:100,1,125.999996154785,10|2,0:0|0:0,0:0:0:0:
203,38,168302,2,0,P|255:3|323:11,2,125.999996154785,2|2|10,0:0|0:0|0:0,0:0:0:0:
119,106,169543,2,0,L|36:80,2,62.9999980773926,2|2|2,0:0|0:0|0:0,0:0:0:0:
192,189,170371,1,0,0:0:0:0:
115,267,170785,2,0,B|77:288|77:288|41:264|-7:271,2,125.999996154785,8|0|4,0:0|0:0|0:0,0:0:0:0:
122,272,173267,5,2,0:0:0:0:
222,315,173681,1,2,0:0:0:0:
323,357,174095,2,0,B|363:342|377:308|377:308|419:295|464:311,1,140,2|2,0:0|0:0,0:0:0:0:
496,210,174923,6,0,P|490:181|465:143,1,70,4|0,3:1|0:0,0:0:0:0:
464,89,175336,2,0,P|425:79|376:66,1,70,0|0,0:0|0:0,0:0:0:0:
354,118,175750,2,0,P|321:177|250:164,1,140,2|0,0:0|0:0,0:0:0:0:
205,75,176578,2,0,P|236:48|274:40,2,70,0|2|0,0:0|0:0|3:0,0:0:0:0:
159,102,177198,1,0,0:0:0:0:
159,102,177405,6,0,B|83:116|126:165|46:178,1,140,2|0,0:0|0:0,0:0:0:0:
17,284,178233,2,0,P|94:309|160:378,1,140,0|0,3:0|0:0,0:0:0:0:
195,364,178854,1,0,0:0:0:0:
195,364,179061,2,0,P|262:350|327:300,1,140,2|0,0:0|0:0,0:0:0:0:
296,258,179681,2,0,P|283:238|278:173,1,70,2|0,0:0|0:0,0:0:0:0:
315,158,180095,1,2,3:1:0:0:
315,158,180302,6,0,B|381:148|370:218|443:198,1,140,0|2,3:0|0:0,0:0:0:0:
481,156,180923,2,0,B|507:94|507:94|422:24,1,140,0|2,3:0|0:0,0:0:0:0:
400,58,181543,6,0,P|366:63|310:71,1,70,4|0,3:1|0:0,0:0:0:0:
285,35,181957,2,0,P|259:42|234:86,1,70,0|0,0:0|0:0,0:0:0:0:
206,126,182371,1,2,0:0:0:0:
120,67,182785,1,0,0:0:0:0:
120,67,182992,2,0,B|99:125|99:125|100:132|100:132|72:209,1,140,0|2,0:0|0:0,0:0:0:0:
50,253,183612,6,0,P|118:255|132:342,1,140,0|2,3:0|0:0,0:0:0:0:
179,357,184233,1,0,3:0:0:0:
277,307,184647,2,0,B|352:320|323:240|397:255,1,140,0|0,0:0|0:0,0:0:0:0:
441,213,185267,2,0,P|481:233|488:277,1,70,0|0,0:0|0:0,0:0:0:0:
483,309,185681,6,0,B|456:371|456:371|376:360,1,140,2|0,0:0|0:0,0:0:0:0:
332,343,186302,2,0,P|315:320|266:308,1,70,2|0,0:0|0:0,0:0:0:0:
200,231,186923,6,0,L|253:153,1,70,0|0,3:0|0:0,0:0:0:0:
216,122,187336,2,0,L|140:106,1,70,2|0,0:0|3:0,0:0:0:0:
101,146,187750,2,0,L|115:226,1,70,0|2,0:0|0:0,0:0:0:0:
155,259,188164,1,4,3:1:0:0:
70,335,188578,1,0,0:0:0:0:
29,240,188992,6,0,L|7:89,1,140,2|0,0:0|0:0,0:0:0:0:
46,57,189612,2,0,P|81:4|158:18,1,140,0|2,0:0|0:0,0:0:0:0:
171,64,190233,6,0,B|252:57|211:126|301:117,1,140,0|2,3:0|0:0,0:0:0:0:
336,82,190854,1,0,3:0:0:0:
336,82,191061,2,0,B|371:77|371:77|410:108,1,70,0|0,0:0|0:0,0:0:0:0:
406,155,191474,1,0,3:0:0:0:
477,238,191888,1,0,0:0:0:0:
386,304,192302,6,0,B|349:316|312:309|326:275|279:270|250:280,1,140,2|0,0:0|0:0,0:0:0:0:
212,318,192923,2,0,P|172:295|159:247,1,70,2|0,0:0|0:0,0:0:0:0:
118,169,193543,6,0,L|58:133,1,70,0|0,3:0|0:0,0:0:0:0:
81,84,193957,2,0,P|115:66|136:44,1,70,2|0,0:0|3:0,0:0:0:0:
199,57,194371,2,0,L|189:144,1,70,0|2,0:0|0:0,0:0:0:0:
167,181,194785,1,4,3:1:0:0:
273,160,195198,1,0,0:0:0:0:
381,134,195612,6,0,P|409:155|368:237,1,140,2|0,0:0|0:0,0:0:0:0:
329,275,196233,2,0,B|397:260|386:339|453:324,1,140,0|2,0:0|0:0,0:0:0:0:
495,289,196854,6,0,L|518:140,1,140,0|2,3:0|0:0,0:0:0:0:
490,107,197474,1,0,3:0:0:0:
490,107,197681,2,0,P|459:83|429:51,1,70,0|0,0:0|0:0,0:0:0:0:
396,19,198095,1,0,3:0:0:0:
303,70,198509,1,0,0:0:0:0:
381,134,198923,6,0,B|336:188|336:188|252:151,1,140,2|0,0:0|0:0,0:0:0:0:
226,124,199543,2,0,P|211:99|211:45,2,70,2|0|2,0:0|0:0|0:0,0:0:0:0:
190,172,200164,5,0,3:0:0:0:
105,233,200578,2,0,P|110:271|146:294,1,70,2|0,0:0|3:0,0:0:0:0:
141,346,200992,1,0,0:0:0:0:
193,360,201198,5,2,0:0:0:0:
