osu file format v14

[General]
AudioFilename: audio.mp3
AudioLeadIn: 0
PreviewTime: 173164
Countdown: 0
SampleSet: Normal
StackLeniency: 0.2
Mode: 0
LetterboxInBreaks: 0
WidescreenStoryboard: 1
SamplesMatchPlaybackRate: 1

[Editor]
Bookmarks: 1130,14371,27612,40854,54095,65681,67336,80578,93819,107061,113681,120302,131888,133543,146785,160026,173267,174923,188164,201405
DistanceSpacing: 1
BeatDivisor: 4
GridSize: 32
TimelineZoom: 1

[Metadata]
Title:XOXO
TitleUnicode:XOXO
Artist:JEON SOMI
ArtistUnicode:전소미
Creator:Sani_
Version:Natsu's Insane
Source:
Tags:THEBLACKLABEL Natsu Skymin Nabori tadahitotsu rap Xandit [Im Nayeon] [Im_Nayeon] nemidnight XOXO_album The Black Label kpop k-pop korean pop english
BeatmapID:3360848
BeatmapSetID:1642211

[Difficulty]
HPDrainRate:5
CircleSize:4
OverallDifficulty:7.5
ApproachRate:9
SliderMultiplier:1.6
SliderTickRate:1

[Events]
//Background and Video events
0,0,"Natsu.jpeg",0,0
//Break Periods
//Storyboard Layer 0 (Background)
//Storyboard Layer 1 (Fail)
//Storyboard Layer 2 (Pass)
//Storyboard Layer 3 (Foreground)
//Storyboard Layer 4 (Overlay)
//Storyboard Sound Samples

[TimingPoints]
1130,413.793103448276,4,2,10,80,1,0
1130,-125,4,2,10,80,0,0
2681,-125,4,2,10,40,0,0
3509,-125,4,2,10,80,0,0
5992,-125,4,2,10,40,0,0
6819,-125,4,2,10,80,0,0
9302,-125,4,2,10,40,0,0
10130,-125,4,2,10,80,0,0
10957,-125,4,2,10,40,0,0
11371,-125,4,2,10,80,0,0
12612,-125,4,2,10,40,0,0
13026,-125,4,2,10,80,0,0
13543,-250,4,2,10,80,0,0
14371,-100,4,1,1,80,0,0
27612,-111.111111111111,4,2,10,50,0,0
40440,-111.111111111111,4,2,11,95,0,0
40647,-111.111111111111,4,1,1,80,0,0
40854,-100,4,1,1,80,0,0
50888,-100,4,1,1,30,0,0
51509,-100,4,1,1,80,0,0
52336,-100,4,1,1,30,0,0
52750,-100,4,1,1,80,0,0
54095,-125,4,1,1,80,0,0
54198,-125,4,2,10,30,0,0
54819,-125,4,2,10,80,0,0
54923,-125,4,2,10,80,0,0
55026,-125,4,2,10,30,0,0
55440,-125,4,2,10,80,0,0
55543,-125,4,2,10,80,0,0
55647,-125,4,2,10,30,0,0
56474,-125,4,2,10,80,0,0
57509,-125,4,2,10,30,0,0
58130,-125,4,2,10,80,0,0
58336,-125,4,2,10,30,0,0
58750,-125,4,2,10,80,0,0
58957,-125,4,2,10,30,0,0
59785,-125,4,2,10,80,0,0
60716,-125,4,1,2,80,0,0
61130,-125,4,1,2,30,0,0
61543,-125,4,1,2,80,0,0
61957,-125,4,1,2,30,0,0
62371,-125,4,1,2,80,0,0
62785,-125,4,1,2,30,0,0
63198,-125,4,1,2,80,0,0
63612,-125,4,1,2,30,0,0
64026,-125,4,1,2,80,0,0
65267,-125,4,2,31,95,0,0
65371,-125,4,1,1,95,0,0
65681,-125,4,2,23,30,0,0
65785,-125,4,1,1,30,0,0
66509,-200,4,2,10,80,0,0
67336,-90.9090909090909,4,1,2,80,0,1
67440,-90.9090909090909,4,1,1,80,0,1
80578,-100,4,1,1,80,0,0
93819,-111.111111111111,4,2,1,95,0,0
93923,-111.111111111111,4,2,1,80,0,0
94854,-111.111111111111,4,2,1,80,0,0
94957,-111.111111111111,4,2,1,80,0,0
95474,-111.111111111111,4,2,1,80,0,0
95578,-111.111111111111,4,2,1,80,0,0
96509,-111.111111111111,4,2,1,80,0,0
96612,-111.111111111111,4,2,1,80,0,0
97130,-111.111111111111,4,2,1,80,0,0
97233,-111.111111111111,4,2,1,80,0,0
98164,-111.111111111111,4,2,1,80,0,0
98267,-111.111111111111,4,2,1,80,0,0
98785,-111.111111111111,4,2,1,80,0,0
98888,-111.111111111111,4,2,1,80,0,0
99819,-111.111111111111,4,2,1,80,0,0
99923,-111.111111111111,4,2,1,80,0,0
100440,-111.111111111111,4,2,1,80,0,0
100543,-111.111111111111,4,2,1,80,0,0
101474,-111.111111111111,4,2,1,80,0,0
101578,-111.111111111111,4,2,1,80,0,0
102095,-111.111111111111,4,2,1,80,0,0
102198,-111.111111111111,4,2,1,80,0,0
103130,-111.111111111111,4,2,1,80,0,0
103233,-111.111111111111,4,2,1,80,0,0
103750,-111.111111111111,4,2,1,80,0,0
103854,-111.111111111111,4,2,1,80,0,0
104785,-111.111111111111,4,2,1,80,0,0
104888,-111.111111111111,4,2,1,80,0,0
105405,-111.111111111111,4,2,22,95,0,0
105474,-111.111111111111,4,2,22,30,0,0
107061,-100,4,1,1,80,0,0
110785,-100,4,1,1,30,0,0
111198,-100,4,1,1,80,0,0
113681,-111.111111111111,4,1,2,60,0,0
118647,-111.111111111111,4,1,2,30,0,0
119474,-111.111111111111,4,1,3,95,0,0
120302,-125,4,1,1,80,0,0
120405,-125,4,2,10,30,0,0
121026,-125,4,2,10,80,0,0
121233,-125,4,2,10,30,0,0
121647,-125,4,2,10,80,0,0
121957,-125,4,2,10,30,0,0
122785,-125,4,2,10,80,0,0
123716,-125,4,2,10,30,0,0
124336,-125,4,2,10,80,0,0
124543,-125,4,2,10,30,0,0
124957,-125,4,2,10,80,0,0
125267,-125,4,2,10,30,0,0
126095,-125,4,2,10,80,0,0
126923,-125,4,1,2,80,0,0
127336,-125,4,1,2,30,0,0
127750,-125,4,1,2,80,0,0
128164,-125,4,1,2,30,0,0
128578,-125,4,1,2,80,0,0
128992,-125,4,1,2,30,0,0
129405,-125,4,1,2,80,0,0
129819,-125,4,1,2,30,0,0
130233,-125,4,1,2,80,0,0
131474,-125,4,2,31,95,0,0
131578,-125,4,1,2,80,0,0
131888,-125,4,2,23,30,0,0
131992,-125,4,1,1,30,0,0
132716,-200,4,2,10,80,0,0
133543,-90.9090909090908,4,1,2,80,0,1
133647,-90.9090909090908,4,1,1,80,0,1
146785,-100,4,1,1,80,0,0
160026,-125,4,1,1,80,0,0
160130,-125,4,2,10,60,0,0
163750,-125,4,2,10,30,0,0
164992,-125,4,2,10,60,0,0
165405,-125,4,2,10,30,0,0
165612,-125,4,2,10,60,0,0
170371,-125,4,2,10,30,0,0
170785,-125,4,2,10,60,0,0
171612,-200,4,2,33,80,0,0
171716,-200,4,2,10,80,0,0
172854,-200,4,2,10,30,0,0
173267,-250,4,2,11,80,0,0
173992,-250,4,1,1,80,0,0
174095,-200,4,2,10,80,0,0
174923,-90.9090909090909,4,1,2,80,0,1
175026,-90.9090909090909,4,1,1,80,0,1
188164,-100,4,1,1,80,0,0

[Colours]
Combo1 : 106,106,232
Combo2 : 239,135,248
Combo3 : 239,167,86
Combo4 : 174,221,66

[HitObjects]
159,262,1130,54,0,P|161:231|150:199,1,64,2|2,0:0|0:0,0:0:0:0:
30,144,1543,2,0,P|57:160|89:167,1,64,2|2,0:0|0:0,0:0:0:0:
197,91,1957,2,0,P|169:107|147:130,1,64,2|0,0:0|0:0,0:0:0:0:
90,240,2371,1,2,0:0:0:0:
90,240,2578,2,0,L|235:226,1,128,2|0,0:0|0:0,0:0:0:0:
217,227,3612,22,0,P|248:225|280:236,1,64,2|0,0:0|0:0,0:0:0:0:
335,356,4026,2,0,P|319:329|312:297,1,64,2|0,0:0|0:0,0:0:0:0:
388,189,4440,2,0,P|372:217|349:239,1,64,2|0,0:0|0:0,0:0:0:0:
200,284,4854,22,0,L|123:288,1,64,2|2,0:0|0:0,0:0:0:0:
1,293,5267,2,0,L|78:289,1,64,2|0,0:0|0:0,0:0:0:0:
200,284,5682,1,2,0:0:0:0:
200,284,5889,2,0,L|214:151,1,128,2|0,0:0|0:0,0:0:0:0:
213,156,6923,22,0,L|290:152,1,64,2|0,0:0|0:0,0:0:0:0:
412,147,7336,2,0,L|335:151,1,64,2|0,0:0|0:0,0:0:0:0:
222,219,7750,22,0,L|213:156,1,64,2|2,0:0|0:0,0:0:0:0:
91,98,8164,2,0,L|151:122,1,64,2|2,0:0|0:0,0:0:0:0:
259,46,8578,2,0,L|210:85,1,64,2|0,0:0|0:0,0:0:0:0:
103,187,8991,1,2,0:0:0:0:
103,187,9198,2,0,L|114:317,1,128,2|0,0:0|0:0,0:0:0:0:
113,314,10233,21,2,0:0:0:0:
113,314,10440,2,0,L|108:249,1,64,2|0,0:0|0:0,0:0:0:0:
187,347,10854,2,0,P|248:356|314:333,1,128,2|0,0:0|0:0,0:0:0:0:
339,185,11474,21,2,0:0:0:0:
338,205,11681,1,0,0:0:0:0:
415,177,11888,2,0,L|483:171,1,64,2|0,0:0|0:0,0:0:0:0:
338,205,12302,1,2,0:0:0:0:
338,205,12509,2,0,L|270:211,1,64,2|0,0:0|0:0,0:0:0:0:
274,210,13130,22,0,L|346:204,1,64,2|0,0:0|0:0,0:0:0:0:
440,180,13543,2,0,L|445:142,1,32,2|0,0:0|0:0,0:0:0:0:
428,251,13957,2,0,L|423:282,1,32,2|0,0:0|0:0,0:0:0:0:
254,357,14371,21,4,3:1:0:0:
214,351,14474,1,0,0:0:0:0:
174,346,14577,1,0,0:0:0:0:
24,280,14785,2,0,L|107:269,1,80,0|0,0:0|0:0,0:0:0:0:
307,247,15198,37,2,0:0:0:0:
254,357,15405,1,0,0:0:0:0:
241,207,15612,1,0,0:0:0:0:
188,317,15819,2,0,L|94:322,1,80,0|0,0:0|0:0,0:0:0:0:
241,207,16233,5,2,0:0:0:0:
321,330,16440,2,0,L|415:325,1,80,0|0,3:0|0:0,0:0:0:0:
512,145,16854,1,2,0:0:0:0:
400,325,17061,1,0,3:0:0:0:
492,175,17267,1,0,0:0:0:0:
419,294,17474,1,0,0:0:0:0:
317,132,17681,38,0,L|303:53,1,80,0|0,3:0|0:0,0:0:0:0:
267,184,18095,2,0,L|281:263,1,80,0|0,0:0|0:0,0:0:0:0:
170,166,18509,1,2,0:0:0:0:
167,153,18612,1,0,0:0:0:0:
164,140,18716,2,0,L|150:61,1,80,0|0,0:0|0:0,0:0:0:0:
102,195,19130,2,0,L|116:274,1,80,2|0,0:0|0:0,0:0:0:0:
258,349,19543,5,2,3:1:0:0:
350,199,19750,2,0,L|431:191,1,80,0|0,3:0|0:0,0:0:0:0:
258,349,20164,1,2,0:0:0:0:
370,169,20371,1,0,3:0:0:0:
277,318,20577,1,0,0:0:0:0:
350,199,20784,1,2,0:0:0:0:
258,349,20992,37,4,3:1:0:0:
248,310,21095,1,0,0:0:0:0:
238,271,21198,1,0,0:0:0:0:
94,176,21405,2,0,L|114:254,1,80,0|0,0:0|0:0,0:0:0:0:
258,349,21819,5,2,0:0:0:0:
368,296,22026,1,0,0:0:0:0:
238,271,22233,1,0,0:0:0:0:
348,218,22440,2,0,L|353:124,1,80,0|0,0:0|0:0,0:0:0:0:
368,296,22854,37,2,0:0:0:0:
461,147,23061,2,0,L|466:61,1,80,0|0,3:0|0:0,0:0:0:0:
349,327,23475,1,2,0:0:0:0:
461,147,23682,1,0,3:0:0:0:
368,296,23888,1,0,0:0:0:0:
441,177,24095,1,0,0:0:0:0:
349,327,24302,6,0,L|266:322,1,80,0|0,3:0|0:0,0:0:0:0:
124,275,24716,2,0,L|203:279,1,80,0|0,0:0|0:0,0:0:0:0:
378,200,25130,1,2,0:0:0:0:
364,199,25233,1,0,0:0:0:0:
351,199,25337,2,0,L|270:194,1,80,0|0,0:0|0:0,0:0:0:0:
135,140,25750,2,0,L|215:144,1,80,2|0,0:0|0:0,0:0:0:0:
415,121,26164,37,2,0:0:0:0:
323,271,26371,2,0,L|241:265,1,80,0|0,3:0|0:0,0:0:0:0:
415,121,26785,1,2,0:0:0:0:
303,301,26992,1,0,3:0:0:0:
396,152,27198,1,0,0:0:0:0:
323,271,27405,1,2,0:0:0:0:
256,148,27612,37,2,0:2:0:0:
256,148,27819,1,2,0:2:0:0:
176,165,28026,1,2,0:2:0:0:
176,165,28233,1,2,0:2:0:0:
95,185,28440,2,0,L|83:343,1,143.999995605469,10|2,0:2|0:0,0:0:0:0:
84,328,29267,5,2,0:0:0:0:
84,328,29474,1,2,0:0:0:0:
164,311,29681,1,2,0:0:0:0:
164,311,29888,1,2,0:0:0:0:
245,291,30095,2,0,L|257:133,1,143.999995605469,10|2,0:0|0:0,0:0:0:0:
245,291,30716,37,2,0:0:0:0:
245,291,30923,1,2,0:0:0:0:
323,281,31129,1,2,0:0:0:0:
391,321,31337,1,2,0:0:0:0:
245,291,31543,1,2,0:0:0:0:
245,291,31750,2,0,L|240:212,1,71.9999978027344,10|2,0:0|0:0,0:0:0:0:
155,97,32164,5,2,0:0:0:0:
233,105,32370,1,2,0:0:0:0:
311,117,32578,2,0,L|318:191,1,71.9999978027344,2|0,0:0|0:0,0:0:0:0:
233,105,32992,2,0,L|226:31,1,71.9999978027344,2|0,0:0|0:0,0:0:0:0:
381,28,33405,2,0,L|398:193,1,143.999995605469,10|0,0:0|0:0,0:0:0:0:
395,171,34233,37,2,0:0:0:0:
395,171,34440,1,2,0:0:0:0:
315,188,34647,1,2,0:0:0:0:
315,188,34854,1,2,0:0:0:0:
234,208,35061,2,0,P|210:137|226:66,1,143.999995605469,10|2,0:0|0:0,0:0:0:0:
223,70,35888,5,2,0:0:0:0:
223,70,36095,1,2,0:0:0:0:
303,53,36302,1,2,0:0:0:0:
303,53,36509,1,2,0:0:0:0:
384,33,36716,2,0,P|408:104|392:175,1,143.999995605469,10|2,0:0|0:0,0:0:0:0:
394,170,37543,38,0,L|316:184,1,71.9999978027344,2|0,0:0|0:0,0:0:0:0:
186,183,37957,2,0,L|200:261,1,71.9999978027344,2|2,0:0|0:0,0:0:0:0:
194,384,38371,2,0,L|272:370,1,71.9999978027344,10|2,0:0|0:0,0:0:0:0:
392,343,38785,5,2,0:0:0:0:
400,264,38991,1,2,0:0:0:0:
411,185,39199,2,0,L|421:109,1,71.9999978027344,2|0,0:0|0:0,0:0:0:0:
400,264,39612,2,0,L|390:335,1,71.9999978027344,2|0,0:0|0:0,0:0:0:0:
411,185,40026,2,0,L|432:35,1,143.999995605469,10|2,0:0|0:0,0:0:0:0:
432,33,40543,1,2,0:0:0:0:
411,185,40854,21,4,3:1:0:0:
408,196,40957,1,0,0:0:0:0:
405,207,41061,1,0,0:0:0:0:
352,347,41267,21,0,0:0:0:0:
346,357,41371,2,0,P|320:363|295:361,1,40,0|0,0:0|0:0,0:0:0:0:
150,273,41681,2,0,P|188:266|233:277,1,80,8|0,0:0|0:0,0:0:0:0:
352,347,42095,1,0,0:0:0:0:
346,357,42199,2,0,P|320:363|295:361,1,40,0|0,0:0|0:0,0:0:0:0:
150,273,42509,2,0,P|188:266|233:277,1,80,0|0,0:0|0:0,0:0:0:0:
418,328,42923,22,0,L|426:239,1,80,0|0,3:0|0:0,0:0:0:0:
436,75,43336,1,8,0:0:0:0:
425,248,43543,1,0,3:0:0:0:
280,151,43750,2,0,B|212:130|183:188|112:146,1,160,0|4,0:0|3:1,0:0:0:0:
123,152,44578,21,0,0:0:0:0:
113,158,44682,2,0,P|107:184|109:209,1,40,0|0,0:0|0:0,0:0:0:0:
197,354,44992,2,0,P|204:316|193:271,1,80,8|0,0:0|0:0,0:0:0:0:
113,158,45405,2,0,P|106:196|117:241,1,80,0|0,0:0|0:0,0:0:0:0:
312,377,45819,21,0,0:0:0:0:
301,204,46026,1,0,3:0:0:0:
114,235,46233,2,0,B|33:229,1,80,0|0,3:0|0:0,0:0:0:0:
260,293,46647,1,8,0:0:0:0:
249,120,46854,1,0,3:0:0:0:
113,158,47061,2,0,B|32:152,1,80,0|0,0:0|0:0,0:0:0:0:
249,120,47474,21,4,3:1:0:0:
257,129,47578,1,0,0:0:0:0:
264,138,47681,2,0,B|345:144,1,80,0|0,0:0|0:0,0:0:0:0:
497,243,48095,21,0,0:0:0:0:
334,302,48302,1,8,0:0:0:0:
427,222,48509,1,0,0:0:0:0:
269,231,48716,1,0,0:0:0:0:
362,151,48923,1,0,0:0:0:0:
247,111,49130,22,0,P|237:69|243:27,1,80,0|0,0:0|0:0,0:0:0:0:
362,151,49543,2,0,P|371:192|366:235,1,80,0|0,3:0|0:0,0:0:0:0:
217,332,49957,1,8,0:0:0:0:
367,229,50164,1,0,3:0:0:0:
217,332,50371,2,0,P|207:290|213:248,1,80,0|0,0:0|0:0,0:0:0:0:
297,69,50785,22,0,P|341:48|292:84,1,240,4|0,3:1|0:0,0:0:0:0:
155,31,51612,1,8,0:0:0:0:
157,42,51716,1,0,0:0:0:0:
158,53,51819,1,0,0:0:0:0:
196,180,52026,21,0,0:0:0:0:
291,93,52233,1,0,0:0:0:0:
306,237,52440,2,0,L|392:231,1,80,0|0,0:0|0:0,0:0:0:0:
196,180,52854,2,0,L|110:186,1,80,0|0,3:0|0:0,0:0:0:0:
0,149,53267,21,8,0:0:0:0:
55,322,53474,1,0,3:0:0:0:
116,185,53681,2,0,L|202:179,1,80,0|0,0:0|0:0,0:0:0:0:
460,222,54095,6,0,B|367:275|360:175|273:231|273:231,1,192,4|0,0:1|0:0,0:0:0:0:
248,299,54923,2,0,P|215:276|225:179,1,128,2|0,0:0|0:0,0:0:0:0:
258,132,55543,2,0,B|231:155|210:193|210:193|140:116|46:169,1,256,2|0,0:0|0:0,0:0:0:0:
14,285,56578,38,0,L|20:348,1,64,2|0,0:0|0:0,0:0:0:0:
91,304,56992,2,0,L|97:367,1,64,2|0,0:0|0:0,0:0:0:0:
172,322,57405,6,0,B|265:375|272:275|359:331|359:331,1,192,2|0,0:0|0:0,0:0:0:0:
424,367,58233,2,0,P|399:342|408:248,1,128,2|0,0:0|0:0,0:0:0:0:
436,179,58854,2,0,B|446:158|470:154|489:172|508:211|470:246|395:231|364:161|286:218,1,256,2|0,0:0|0:0,0:0:0:0:
225,275,59888,38,0,L|220:343,1,64,2|0,0:0|0:0,0:0:0:0:
144,259,60302,2,0,L|148:195,1,64,2|0,0:0|0:0,0:0:0:0:
225,275,60716,2,0,B|318:328|325:228|412:284|412:284,1,192,8|0,0:0|0:0,0:0:0:0:
512,384,61543,6,0,L|494:255,1,128,8|0,0:0|0:0,0:0:0:0:
424,144,62164,2,0,L|432:207,1,64,0|8,0:0|0:0,0:0:0:0:
396,321,62578,2,0,B|303:374|296:274|209:330|209:330,1,192,0|8,0:0|0:0,0:0:0:0:
211,328,63612,2,0,L|218:251,1,64,0|0,0:0|0:0,0:0:0:0:
358,122,64026,37,8,0:0:0:0:
186,193,64233,1,0,0:0:0:0:
358,264,64440,1,8,0:0:0:0:
287,92,64647,1,0,0:0:0:0:
216,264,64854,1,8,0:0:0:0:
387,193,65061,1,0,0:0:0:0:
216,122,65267,1,2,0:0:0:0:
287,293,65474,1,0,0:0:0:0:
290,196,65681,5,2,0:0:0:0:
290,196,66509,38,0,L|281:148,1,40,2|0,0:0|0:0,0:0:0:0:
212,200,66923,2,0,L|203:152,1,40,2|0,0:0|0:0,0:0:0:0:
342,37,67336,37,4,3:1:0:0:
347,76,67440,1,0,0:0:0:0:
352,115,67543,1,0,0:0:0:0:
378,259,67750,1,0,0:0:0:0:
490,165,67957,1,0,0:0:0:0:
352,115,68164,5,2,0:0:0:0:
378,259,68371,1,0,0:0:0:0:
220,214,68578,1,0,0:0:0:0:
364,188,68785,2,0,P|428:207|423:315,1,176.000005371094,0|2,0:0|0:0,0:0:0:0:
293,276,69405,2,0,P|333:259|391:262,1,88.000002685547,0|0,3:0|0:0,0:0:0:0:
226,349,69819,37,2,0:0:0:0:
252,205,70026,1,0,3:0:0:0:
114,255,70233,2,0,L|25:261,1,88.000002685547,0|0,0:0|0:0,0:0:0:0:
252,205,70647,2,0,L|341:199,1,88.000002685547,0|0,3:0|0:0,0:0:0:0:
199,277,71061,5,0,0:0:0:0:
225,133,71268,1,0,0:0:0:0:
87,183,71475,1,2,0:0:0:0:
43,185,71578,1,0,0:0:0:0:
0,188,71681,1,0,0:0:0:0:
111,32,71888,37,0,0:0:0:0:
225,133,72095,2,0,P|237:176|225:226,1,88.000002685547,2|0,0:0|0:0,0:0:0:0:
118,383,72509,1,2,3:1:0:0:
4,282,72716,2,0,P|-8:239|4:189,1,88.000002685547,0|0,3:0|0:0,0:0:0:0:
111,32,73130,5,2,0:0:0:0:
137,176,73337,1,0,3:0:0:0:
249,82,73543,2,0,L|340:72,1,88.000002685547,0|2,0:0|0:0,0:0:0:0:
127,98,73957,37,4,3:1:0:0:
132,137,74061,1,0,0:0:0:0:
137,176,74164,1,0,0:0:0:0:
163,320,74371,1,0,0:0:0:0:
275,226,74578,1,0,0:0:0:0:
137,176,74785,5,2,0:0:0:0:
163,320,74992,1,0,0:0:0:0:
5,275,75198,1,0,0:0:0:0:
149,249,75405,2,0,B|232:268|242:202|323:228,1,176.000005371094,0|2,0:0|0:0,0:0:0:0:
448,316,76026,2,0,L|451:228,1,88.000002685547,0|0,3:0|0:0,0:0:0:0:
462,28,76440,37,2,0:0:0:0:
450,228,76647,1,0,3:0:0:0:
418,89,76854,1,0,0:0:0:0:
314,187,77061,1,0,0:0:0:0:
274,184,77164,1,0,0:0:0:0:
234,181,77267,2,0,L|217:95,1,88.000002685547,0|0,3:0|0:0,0:0:0:0:
27,61,77681,5,0,0:0:0:0:
165,29,77888,1,0,0:0:0:0:
124,165,78095,1,2,0:0:0:0:
121,205,78198,1,0,0:0:0:0:
118,245,78302,1,0,0:0:0:0:
253,342,78509,1,0,0:0:0:0:
118,245,78716,2,0,L|132:68,1,176.000005371094,2|2,0:0|0:0,0:0:0:0:
77,306,79336,38,0,P|117:318|164:303,1,88.000002685547,0|0,3:0|0:0,0:0:0:0:
312,191,79750,1,2,0:0:0:0:
257,358,79957,1,0,3:0:0:0:
118,245,80164,2,0,P|158:232|205:248,1,88.000002685547,0|2,0:0|0:0,0:0:0:0:
363,347,80578,37,4,3:1:0:0:
369,307,80681,1,0,0:0:0:0:
374,267,80784,1,0,0:0:0:0:
491,143,80992,2,0,L|502:226,1,80,0|0,0:0|0:0,0:0:0:0:
363,347,81405,5,2,0:0:0:0:
253,294,81612,1,0,0:0:0:0:
409,236,81819,1,0,0:0:0:0:
299,183,82026,2,0,L|294:89,1,80,0|0,0:0|0:0,0:0:0:0:
409,236,82440,37,2,0:0:0:0:
299,183,82647,2,0,L|294:89,1,80,0|0,3:0|0:0,0:0:0:0:
409,236,83061,1,2,0:0:0:0:
207,301,83268,1,0,3:0:0:0:
374,246,83474,1,0,0:0:0:0:
241,290,83681,1,0,0:0:0:0:
383,164,83888,6,0,P|390:122|380:85,1,80,0|0,3:0|0:0,0:0:0:0:
238,212,84302,2,0,P|231:254|241:291,1,80,0|0,0:0|0:0,0:0:0:0:
416,336,84716,1,2,0:0:0:0:
403,333,84819,1,0,0:0:0:0:
390,330,84923,2,0,L|311:316,1,80,0|0,0:0|0:0,0:0:0:0:
159,225,85337,2,0,L|238:211,1,80,2|0,0:0|0:0,0:0:0:0:
425,183,85750,37,2,3:1:0:0:
315,236,85957,2,0,L|310:330,1,80,0|0,3:0|0:0,0:0:0:0:
425,183,86371,1,2,0:0:0:0:
223,118,86578,1,0,3:0:0:0:
390,173,86784,1,0,0:0:0:0:
257,129,86991,1,2,0:0:0:0:
263,303,87199,5,4,3:1:0:0:
253,342,87302,1,0,0:0:0:0:
243,381,87405,1,0,0:0:0:0:
129,268,87612,2,0,L|109:190,1,80,0|0,0:0|0:0,0:0:0:0:
53,17,88026,37,2,0:0:0:0:
173,37,88233,1,0,0:0:0:0:
3,90,88440,1,0,0:0:0:0:
123,111,88647,2,0,L|106:207,1,80,0|0,0:0|0:0,0:0:0:0:
65,371,89061,5,2,0:0:0:0:
203,291,89268,2,0,P|236:280|290:286,1,80,0|0,3:0|0:0,0:0:0:0:
431,381,89682,1,2,0:0:0:0:
382,174,89889,1,0,3:0:0:0:
422,345,90095,1,0,0:0:0:0:
389,209,90302,1,0,0:0:0:0:
246,321,90509,38,0,P|201:328|163:319,1,80,0|0,3:0|0:0,0:0:0:0:
30,232,90923,2,0,P|74:225|113:234,1,80,0|0,0:0|0:0,0:0:0:0:
246,321,91337,1,2,0:0:0:0:
247,307,91440,1,0,0:0:0:0:
247,294,91544,2,0,L|252:213,1,80,0|0,0:0|0:0,0:0:0:0:
384,51,91957,2,0,L|379:130,1,80,2|0,0:0|0:0,0:0:0:0:
251,214,92371,5,2,0:0:0:0:
379,130,92578,2,0,P|418:121|464:125,1,80,0|0,3:0|0:0,0:0:0:0:
335,265,92992,1,2,0:0:0:0:
286,58,93199,1,0,3:0:0:0:
326,229,93405,1,0,0:0:0:0:
293,93,93612,1,2,0:0:0:0:
192,190,93819,37,2,0:2:0:0:
214,284,94026,1,2,0:2:0:0:
107,258,94233,1,2,0:2:0:0:
129,352,94440,1,2,0:2:0:0:
214,284,94647,2,0,P|250:277|295:285,1,71.9999978027344,2|0,0:2|0:2,0:0:0:0:
422,318,95061,2,0,P|386:325|341:317,1,71.9999978027344,2|0,0:0|0:0,0:0:0:0:
214,284,95474,21,2,0:2:0:0:
192,190,95681,1,2,0:2:0:0:
94,261,95888,1,2,0:2:0:0:
72,167,96095,1,2,0:2:0:0:
192,190,96302,2,0,L|290:185,1,71.9999978027344,2|0,0:2|0:2,0:0:0:0:
72,167,96716,2,0,L|-26:172,1,71.9999978027344,2|0,0:0|0:0,0:0:0:0:
192,190,97130,21,2,0:2:0:0:
214,284,97337,1,2,0:0:0:0:
308,206,97543,1,2,0:0:0:0:
330,300,97750,1,2,0:0:0:0:
214,284,97958,2,0,P|182:277|128:292,1,71.9999978027344,2|2,0:0|0:2,0:0:0:0:
15,339,98371,2,0,P|47:346|101:331,1,71.9999978027344,2|0,0:0|0:0,0:0:0:0:
214,284,98785,22,0,B|245:280|285:298|285:298|304:270|340:254|340:254|367:259|405:283|405:283|436:260|486:253,1,287.999991210938,2|2,0:2|0:0,0:0:0:0:
469,118,99819,2,0,P|451:175|473:260,1,143.999995605469,2|2,0:2|0:0,0:0:0:0:
328,349,100440,21,2,0:2:0:0:
226,297,100647,1,2,0:0:0:0:
322,234,100854,1,2,0:0:0:0:
226,297,101061,1,2,0:0:0:0:
219,182,101267,2,0,P|212:146|215:111,1,71.9999978027344,2|2,0:0|0:2,0:0:0:0:
322,234,101681,2,0,P|329:270|326:305,1,71.9999978027344,2|0,0:0|0:0,0:0:0:0:
160,378,102095,21,2,0:2:0:0:
58,326,102302,1,2,0:0:0:0:
154,263,102509,1,2,0:0:0:0:
51,211,102716,1,2,0:0:0:0:
154,263,102923,2,0,P|189:268|240:258,1,71.9999978027344,2|0,0:0|0:2,0:0:0:0:
365,219,103336,2,0,P|330:214|279:224,1,71.9999978027344,2|0,0:0|0:0,0:0:0:0:
154,263,103750,21,2,0:2:0:0:
148,148,103957,1,0,0:0:0:0:
52,211,104164,1,2,0:0:0:0:
148,148,104371,1,2,0:0:0:0:
154,263,104578,2,0,L|159:360,1,71.9999978027344,2|0,0:0|0:2,0:0:0:0:
148,148,104992,2,0,L|143:51,1,71.9999978027344,2|0,0:0|0:0,0:0:0:0:
14,206,105405,22,0,B|45:210|85:192|85:192|104:220|140:236|140:236|167:231|205:207|205:207|236:230|286:237,1,287.999991210938,2|0,0:2|0:0,0:0:0:0:
407,233,106440,2,0,P|350:215|265:237,1,143.999995605469,0|0,0:0|0:0,0:0:0:0:
72,343,107061,37,6,3:1:0:0:
172,251,107267,2,0,L|172:162,1,80,0|0,0:0|0:0,0:0:0:0:
172,251,107681,21,0,0:0:0:0:
72,343,107888,1,2,0:0:0:0:
42,210,108095,1,0,0:0:0:0:
172,251,108302,2,0,L|265:244,1,80,0|2,0:0|0:0,0:0:0:0:
423,107,108716,21,0,0:0:0:0:
423,107,108923,1,2,0:0:0:0:
393,240,109130,1,0,3:0:0:0:
293,148,109336,21,0,0:0:0:0:
393,240,109543,1,2,0:0:0:0:
423,107,109750,1,0,3:0:0:0:
293,148,109957,2,0,L|200:141,1,80,0|2,0:0|0:0,0:0:0:0:
49,126,110371,21,6,3:1:0:0:
225,65,110578,2,0,L|200:225,1,160,0|0,0:0|0:0,0:0:0:0:
49,126,111198,2,0,L|64:33,1,80,2|0,0:0|0:0,0:0:0:0:
88,195,111612,21,0,0:0:0:0:
200,223,111819,2,0,P|240:229|292:218,1,80,2|0,0:0|0:0,0:0:0:0:
88,195,112233,1,2,3:1:0:0:
169,78,112440,22,0,L|162:160,1,80,2|0,3:1|0:0,0:0:0:0:
141,305,112854,1,0,0:0:0:0:
162,157,113061,1,2,3:1:0:0:
279,249,113267,37,0,0:0:0:0:
141,305,113474,1,0,0:0:0:0:
279,249,113681,2,0,L|374:257,1,71.9999978027344,8|0,3:1|0:0,0:0:0:0:
469,379,114095,2,0,L|475:307,1,71.9999978027344,8|0,0:0|0:0,0:0:0:0:
512,142,114509,2,0,L|417:134,1,71.9999978027344,8|0,0:0|0:0,0:0:0:0:
322,12,114923,2,0,L|315:83,1,71.9999978027344,8|0,0:0|0:0,0:0:0:0:
292,256,115336,38,0,P|256:264|217:248,1,71.9999978027344,8|0,0:0|0:0,0:0:0:0:
61,184,115750,2,0,P|95:176|129:188,1,71.9999978027344,8|0,3:2|0:0,0:0:0:0:
292,256,116164,1,8,0:0:0:0:
262,102,116371,1,0,3:0:0:0:
129,188,116578,2,0,P|94:196|60:184,1,71.9999978027344,8|0,0:0|0:0,0:0:0:0:
0,27,116992,6,0,L|10:100,1,71.9999978027344,8|0,3:2|0:0,0:0:0:0:
70,256,117405,2,0,L|60:183,1,71.9999978027344,8|0,0:0|0:0,0:0:0:0:
145,40,117819,2,0,L|155:113,1,71.9999978027344,8|0,0:0|0:0,0:0:0:0:
215,269,118233,2,0,L|205:196,1,71.9999978027344,8|0,0:0|0:0,0:0:0:0:
215,269,118647,37,0,0:0:0:0:
243,265,118854,1,0,0:0:0:0:
271,262,119061,1,0,0:0:0:0:
299,258,119267,1,0,0:0:0:0:
389,127,119474,5,0,3:0:0:0:
458,270,119681,1,0,3:0:0:0:
299,258,119888,1,0,3:0:0:0:
389,127,120095,1,0,3:0:0:0:
389,127,120302,38,0,B|296:180|289:80|202:136|202:136,1,192,4|0,0:1|0:0,0:0:0:0:
143,184,121130,2,0,P|112:203|132:156,1,128,2|0,0:0|0:0,0:0:0:0:
204,134,121750,2,0,B|250:134|280:149|311:180|311:210|265:226|219:210|219:180|250:149|280:134|327:134|327:134,1,256,2|0,0:0|0:0,0:0:0:0:
405,209,122785,38,0,P|415:238|411:270,1,64,2|0,0:0|0:0,0:0:0:0:
345,343,123198,2,0,P|334:313|338:281,1,64,2|0,0:0|0:0,0:0:0:0:
405,209,123612,6,0,B|312:156|305:256|218:200|218:200,1,192,2|0,0:0|0:0,0:0:0:0:
159,152,124440,2,0,P|128:133|148:180,1,128,2|0,0:0|0:0,0:0:0:0:
220,202,125060,2,0,B|266:202|296:187|327:156|327:126|281:110|235:126|235:156|266:187|296:202|343:202|343:202,1,256,2|0,0:0|0:0,0:0:0:0:
473,251,126095,38,0,P|483:280|479:312,1,64,2|0,0:0|0:0,0:0:0:0:
412,384,126509,2,0,P|401:354|405:322,1,64,2|0,0:0|0:0,0:0:0:0:
430,176,126923,2,0,B|383:224|318:221|297:195|300:174|326:151|356:162|355:198,1,192,8|0,0:0|0:0,0:0:0:0:
303,276,127750,6,0,P|235:293|172:271,1,128,8|0,0:0|0:0,0:0:0:0:
81,256,128371,2,0,L|89:319,1,64,0|8,0:0|0:0,0:0:0:0:
181,276,128785,2,0,B|228:228|293:231|314:257|311:278|285:301|255:290|256:254,1,192,0|8,0:0|0:0,0:0:0:0:
256,264,129819,2,0,L|263:187,1,64,0|0,0:0|0:0,0:0:0:0:
407,62,130233,37,8,0:0:0:0:
261,200,130440,1,0,0:0:0:0:
452,139,130647,1,8,0:0:0:0:
261,200,130854,1,0,0:0:0:0:
459,228,131061,1,8,0:0:0:0:
261,200,131268,1,0,0:0:0:0:
426,311,131474,1,2,0:0:0:0:
261,200,131681,1,0,0:0:0:0:
261,200,131888,5,2,0:0:0:0:
261,200,132716,38,0,L|252:248,1,40,2|0,0:0|0:0,0:0:0:0:
183,196,133130,2,0,L|174:244,1,40,2|0,0:0|0:0,0:0:0:0:
125,384,133543,37,4,3:1:0:0:
164,379,133647,1,0,0:0:0:0:
203,374,133750,1,0,0:0:0:0:
347,348,133957,1,0,0:0:0:0:
253,236,134164,1,0,0:0:0:0:
119,343,134371,5,2,0:0:0:0:
263,317,134578,1,0,0:0:0:0:
169,205,134785,1,0,0:0:0:0:
119,343,134992,2,0,P|176:291|267:320,1,176.000005371094,0|2,0:0|0:0,0:0:0:0:
119,343,135612,2,0,L|91:257,1,88.000002685547,0|0,3:0|0:0,0:0:0:0:
32,91,136026,37,2,0:0:0:0:
91,259,136233,1,0,3:0:0:0:
109,79,136440,2,0,P|139:66|196:73,1,88.000002685547,0|0,0:0|0:0,0:0:0:0:
91,259,136854,2,0,P|60:271|3:264,1,88.000002685547,0|0,3:0|0:0,0:0:0:0:
158,151,137268,5,0,0:0:0:0:
185,294,137475,1,0,0:0:0:0:
296,198,137682,1,2,0:0:0:0:
339,192,137785,1,0,0:0:0:0:
382,186,137888,1,0,0:0:0:0:
494,296,138095,37,0,0:0:0:0:
382,186,138302,2,0,L|391:96,1,88.000002685547,2|0,0:0|0:0,0:0:0:0:
415,275,138716,1,2,3:1:0:0:
303,165,138923,2,0,L|312:75,1,88.000002685547,0|0,3:0|0:0,0:0:0:0:
337,252,139336,5,2,0:0:0:0:
225,142,139543,1,0,3:0:0:0:
337,252,139750,2,0,L|328:342,1,88.000002685547,0|2,0:0|0:0,0:0:0:0:
149,384,140164,37,4,3:1:0:0:
144,345,140268,1,0,0:0:0:0:
139,306,140371,1,0,0:0:0:0:
1,256,140578,1,0,0:0:0:0:
113,162,140785,1,0,0:0:0:0:
227,295,140992,5,2,0:0:0:0:
89,245,141199,1,0,0:0:0:0:
201,151,141406,1,0,0:0:0:0:
227,295,141612,2,0,P|311:265|389:294,1,176.000005371094,0|2,0:0|0:0,0:0:0:0:
227,295,142233,2,0,P|184:305|135:291,1,88.000002685547,0|0,3:0|0:0,0:0:0:0:
0,192,142647,37,2,0:0:0:0:
142,294,142854,2,0,L|132:394,1,88.000002685547,0|0,3:0|0:0,0:0:0:0:
0,275,143268,1,0,0:0:0:0:
0,233,143371,1,0,0:0:0:0:
0,192,143474,2,0,L|10:92,1,88.000002685547,0|0,3:0|0:0,0:0:0:0:
91,253,143888,5,0,0:0:0:0:
188,149,144095,1,0,0:0:0:0:
229,285,144302,1,2,0:0:0:0:
236,328,144405,1,0,0:0:0:0:
245,371,144509,1,0,0:0:0:0:
358,253,144716,1,0,0:0:0:0:
358,253,144923,2,0,B|395:179|325:151|359:83,1,176.000005371094,2|2,0:0|0:0,0:0:0:0:
401,316,145543,38,0,P|361:328|314:313,1,88.000002685547,0|0,3:0|0:0,0:0:0:0:
179,175,145957,1,2,0:0:0:0:
358,253,146164,1,0,3:0:0:0:
179,175,146371,2,0,P|220:162|261:175,1,88.000002685547,0|2,0:0|0:0,0:0:0:0:
437,235,146785,37,4,3:1:0:0:
397,243,146888,1,0,0:0:0:0:
358,253,146991,1,0,0:0:0:0:
261,175,147199,2,0,P|252:133|262:99,1,80,0|0,0:0|0:0,0:0:0:0:
442,85,147612,5,2,0:0:0:0:
332,138,147819,1,0,0:0:0:0:
442,85,148026,1,0,0:0:0:0:
332,138,148233,2,0,L|338:220,1,80,0|0,0:0|0:0,0:0:0:0:
354,384,148647,37,2,0:0:0:0:
464,331,148854,2,0,L|458:249,1,80,0|0,3:0|0:0,0:0:0:0:
500,84,149268,1,2,0:0:0:0:
298,149,149475,1,0,3:0:0:0:
361,0,149681,1,0,0:0:0:0:
405,133,149888,1,0,0:0:0:0:
213,72,150095,6,0,P|171:65|134:75,1,80,0|0,3:0|0:0,0:0:0:0:
261,217,150509,2,0,P|303:224|340:214,1,80,0|0,0:0|0:0,0:0:0:0:
499,115,150923,1,2,0:0:0:0:
496,128,151026,1,0,0:0:0:0:
493,141,151130,2,0,L|479:220,1,80,0|0,0:0|0:0,0:0:0:0:
364,116,151544,2,0,L|350:37,1,80,2|0,0:0|0:0,0:0:0:0:
493,141,151957,37,2,3:1:0:0:
364,230,152164,2,0,L|359:324,1,80,0|0,3:0|0:0,0:0:0:0:
493,141,152578,1,2,0:0:0:0:
291,206,152785,1,0,3:0:0:0:
430,89,152991,1,0,0:0:0:0:
474,222,153198,1,2,0:0:0:0:
291,206,153406,5,4,3:1:0:0:
251,210,153509,1,0,0:0:0:0:
211,216,153612,1,0,0:0:0:0:
72,234,153819,2,0,P|59:195|62:155,1,80,0|0,0:0|0:0,0:0:0:0:
263,134,154233,37,2,0:0:0:0:
145,183,154440,1,0,0:0:0:0:
263,134,154647,1,0,0:0:0:0:
145,183,154854,2,0,L|139:280,1,80,0|0,0:0|0:0,0:0:0:0:
280,384,155267,5,2,0:0:0:0:
398,335,155474,2,0,L|404:238,1,80,0|0,3:0|0:0,0:0:0:0:
337,53,155888,1,2,0:0:0:0:
402,255,156095,1,0,3:0:0:0:
285,116,156301,1,0,0:0:0:0:
418,72,156508,1,0,0:0:0:0:
326,247,156716,38,0,P|281:254|243:245,1,80,0|0,3:0|0:0,0:0:0:0:
110,158,157130,2,0,P|154:151|193:160,1,80,0|0,0:0|0:0,0:0:0:0:
326,247,157544,1,2,0:0:0:0:
327,233,157647,1,0,0:0:0:0:
327,220,157751,2,0,L|332:139,1,80,0|0,0:0|0:0,0:0:0:0:
193,78,158164,2,0,L|188:157,1,80,2|0,0:0|0:0,0:0:0:0:
174,331,158578,5,2,0:0:0:0:
78,221,158785,2,0,P|39:212|-7:219,1,80,0|0,3:0|0:0,0:0:0:0:
174,331,159199,1,2,0:0:0:0:
223,124,159406,1,0,3:0:0:0:
174,331,159612,1,0,0:0:0:0:
223,124,159819,1,2,0:0:0:0:
377,269,160026,6,0,L|452:261,1,64,4|0,0:1|0:0,0:0:0:0:
330,333,160440,1,2,0:0:0:0:
330,333,160647,1,0,0:0:0:0:
377,269,160854,2,0,L|452:261,1,64,2|0,0:0|0:0,0:0:0:0:
330,333,161267,2,0,L|255:341,1,64,2|0,0:0|0:0,0:0:0:0:
133,344,161681,6,0,L|150:282,1,64,2|0,0:0|0:0,0:0:0:0:
68,293,162095,2,0,L|85:231,1,64,2|0,0:0|0:0,0:0:0:0:
3,239,162509,2,0,L|20:177,1,64,2|0,0:0|0:0,0:0:0:0:
57,51,162923,37,2,0:0:0:0:
57,51,163130,1,2,0:0:0:0:
57,51,163336,6,0,B|90:51|107:67|157:84|123:117|157:117|157:117|190:117|157:84|207:67|224:51|257:51,1,256,2|0,0:0|0:0,0:0:0:0:
331,75,164371,1,0,0:0:0:0:
404,97,164578,2,0,L|398:165,1,64,0|0,0:0|0:0,0:0:0:0:
375,319,164992,38,0,P|316:339|260:313,1,128,2|0,0:0|0:0,0:0:0:0:
321,255,165612,2,0,L|329:173,1,64,2|0,0:0|0:0,0:0:0:0:
389,129,166026,2,0,P|332:102|273:122,1,128,2|0,0:0|0:0,0:0:0:0:
176,218,166647,6,0,L|162:297,1,64,2|0,0:0|0:0,0:0:0:0:
91,244,167061,2,0,L|77:323,1,64,2|0,0:0|0:0,0:0:0:0:
176,218,167474,2,0,L|190:139,1,64,10|0,0:0|0:0,0:0:0:0:
261,192,167888,2,0,L|275:113,1,64,2|0,0:0|0:0,0:0:0:0:
380,197,168302,38,0,P|410:207|442:206,1,64,2|0,0:0|0:0,0:0:0:0:
346,135,168716,2,0,P|340:104|324:77,1,64,2|0,0:0|0:0,0:0:0:0:
309,194,169129,2,0,P|286:216|271:244,1,64,10|0,0:0|0:0,0:0:0:0:
202,377,169543,5,2,0:0:0:0:
202,377,169750,1,2,0:0:0:0:
202,377,169957,2,0,L|181:242,1,128,2|0,0:0|0:0,0:0:0:0:
78,169,170578,1,0,0:0:0:0:
78,169,170785,2,0,L|99:304,1,128,8|0,0:0|0:0,0:0:0:0:
97,295,171612,38,0,P|133:286|177:288,1,80,4|0,0:0|0:0,0:0:0:0:
251,306,172233,2,0,L|254:266,1,40,2|0,0:0|0:0,0:0:0:0:
328,300,172647,1,2,0:0:0:0:
328,300,172854,2,0,L|331:260,1,40,0|0,0:0|0:0,0:0:0:0:
337,154,173267,6,0,L|315:157,1,16,2|2,0:0|0:0,0:0:0:0:
175,230,173681,2,0,L|197:227,1,16,2|2,0:0|0:0,0:0:0:0:
337,154,174095,38,0,L|346:202,1,40,2|0,0:0|0:0,0:0:0:0:
415,150,174509,2,0,L|424:198,1,40,2|0,0:0|0:0,0:0:0:0:
472,341,174922,37,4,3:1:0:0:
433,336,175026,1,0,0:0:0:0:
394,331,175129,1,0,0:0:0:0:
250,305,175336,1,0,0:0:0:0:
344,193,175543,1,0,0:0:0:0:
313,366,175750,5,2,0:0:0:0:
169,340,175957,1,0,0:0:0:0:
263,228,176164,1,0,0:0:0:0:
119,202,176371,2,0,L|103:22,1,176.000005371094,0|2,0:0|0:0,0:0:0:0:
119,202,176991,2,0,P|159:185|217:188,1,88.000002685547,0|0,3:0|0:0,0:0:0:0:
349,302,177405,37,2,0:0:0:0:
186,261,177612,1,0,3:0:0:0:
343,152,177819,2,0,L|319:253,1,88.000002685547,0|0,0:0|0:0,0:0:0:0:
225,384,178233,2,0,L|249:283,1,88.000002685547,0|0,3:0|0:0,0:0:0:0:
296,93,178647,5,0,0:0:0:0:
322,237,178854,1,0,0:0:0:0:
184,187,179061,1,2,0:0:0:0:
140,185,179164,1,0,0:0:0:0:
97,182,179267,1,0,0:0:0:0:
0,55,179474,37,0,0:0:0:0:
97,182,179681,2,0,P|109:225|97:275,1,88.000002685547,2|0,0:0|0:0,0:0:0:0:
0,384,180095,1,2,3:1:0:0:
156,312,180302,2,0,P|199:300|249:312,1,88.000002685547,0|0,3:0|0:0,0:0:0:0:
378,357,180716,5,2,0:0:0:0:
352,213,180923,1,0,3:0:0:0:
240,307,181130,2,0,P|197:300|156:312,1,88.000002685547,0|2,0:0|0:0,0:0:0:0:
0,365,181543,37,4,3:1:0:0:
5,326,181647,1,0,0:0:0:0:
10,287,181750,1,0,0:0:0:0:
148,237,181957,1,0,0:0:0:0:
36,143,182164,1,0,0:0:0:0:
98,311,182371,5,2,0:0:0:0:
236,261,182578,1,0,0:0:0:0:
124,167,182785,1,0,0:0:0:0:
98,311,182991,2,0,P|181:325|238:248,1,176.000005371094,0|2,0:0|0:0,0:0:0:0:
124,167,183612,2,0,P|130:212|161:258,1,88.000002685547,0|0,3:0|0:0,0:0:0:0:
329,354,184026,37,2,0:0:0:0:
151,248,184233,1,0,3:0:0:0:
340,281,184440,1,0,0:0:0:0:
160,320,184647,1,0,0:0:0:0:
120,317,184750,1,0,0:0:0:0:
80,314,184854,2,0,P|65:273|69:228,1,88.000002685547,0|0,3:0|0:0,0:0:0:0:
119,97,185267,5,0,0:0:0:0:
68,229,185474,1,0,0:0:0:0:
208,207,185681,1,2,0:0:0:0:
251,201,185784,1,0,0:0:0:0:
294,195,185888,1,0,0:0:0:0:
412,299,186095,1,0,0:0:0:0:
294,195,186302,2,0,L|299:17,1,176.000005371094,2|2,0:0|0:0,0:0:0:0:
294,195,186923,38,0,P|255:187|208:202,1,88.000002685547,0|0,3:0|0:0,0:0:0:0:
53,323,187336,1,2,0:0:0:0:
256,268,187543,1,0,3:0:0:0:
70,175,187750,2,0,L|95:261,1,88.000002685547,0|2,0:0|0:0,0:0:0:0:
245,348,188164,37,4,3:1:0:0:
251,308,188267,1,0,0:0:0:0:
256,268,188370,1,0,0:0:0:0:
373,144,188578,2,0,L|384:227,1,80,0|0,0:0|0:0,0:0:0:0:
400,370,188991,5,2,0:0:0:0:
251,308,189198,1,0,0:0:0:0:
406,347,189405,1,0,0:0:0:0:
257,285,189612,2,0,L|263:195,1,80,0|0,0:0|0:0,0:0:0:0:
284,25,190026,37,2,0:0:0:0:
433,87,190233,2,0,L|427:177,1,80,0|0,3:0|0:0,0:0:0:0:
225,231,190647,1,2,0:0:0:0:
427,166,190854,1,0,3:0:0:0:
285,283,191060,1,0,0:0:0:0:
418,239,191267,1,0,0:0:0:0:
246,163,191474,6,0,L|243:84,1,80,0|0,3:0|0:0,0:0:0:0:
285,283,191888,2,0,P|278:325|288:362,1,80,0|0,0:0|0:0,0:0:0:0:
427,166,192302,1,2,0:0:0:0:
414,163,192405,1,0,0:0:0:0:
401,160,192509,2,0,L|322:146,1,80,0|0,0:0|0:0,0:0:0:0:
206,296,192923,2,0,L|285:282,1,80,2|0,0:0|0:0,0:0:0:0:
401,160,193336,37,0,0:0:0:0:
285,282,193543,2,0,L|206:296,1,80,0|0,3:0|0:0,0:0:0:0:
65,370,193957,1,2,0:0:0:0:
0,168,194164,1,0,3:0:0:0:
117,310,194370,1,0,0:0:0:0:
73,177,194577,1,0,0:0:0:0:
194,343,194785,5,4,3:1:0:0:
233,333,194888,1,0,0:0:0:0:
272,323,194991,1,0,0:0:0:0:
386,224,195198,2,0,P|387:186|369:145,1,80,0|0,0:0|0:0,0:0:0:0:
215,51,195612,37,2,0:0:0:0:
66,113,195819,1,0,0:0:0:0:
221,74,196026,1,0,0:0:0:0:
72,136,196233,2,0,L|78:226,1,80,0|0,0:0|0:0,0:0:0:0:
93,384,196647,5,2,0:0:0:0:
231,304,196854,2,0,P|264:293|318:299,1,80,0|0,3:0|0:0,0:0:0:0:
460,374,197267,1,2,0:0:0:0:
395,172,197474,1,0,3:0:0:0:
512,314,197680,1,0,0:0:0:0:
468,181,197887,1,0,0:0:0:0:
308,295,198095,38,0,L|218:288,1,80,0|0,3:0|0:0,0:0:0:0:
72,191,198509,2,0,L|162:183,1,80,0|0,0:0|0:0,0:0:0:0:
335,296,198923,1,2,0:0:0:0:
321,295,199026,1,0,0:0:0:0:
308,295,199130,2,0,L|227:290,1,80,0|0,0:0|0:0,0:0:0:0:
72,191,199543,2,0,L|162:183,1,80,2|0,0:0|0:0,0:0:0:0:
364,161,199957,5,2,0:0:0:0:
213,80,200164,2,0,L|226:167,1,80,0|0,3:0|0:0,0:0:0:0:
386,282,200578,37,2,0:0:0:0:
184,347,200785,1,0,3:0:0:0:
326,230,200991,1,0,0:0:0:0:
228,288,201198,5,2,0:0:0:0:
