osu file format v14

[General]
AudioFilename: audio.mp3
AudioLeadIn: 0
PreviewTime: 173164
Countdown: 0
SampleSet: Soft
StackLeniency: 0.3
Mode: 0
LetterboxInBreaks: 0
WidescreenStoryboard: 1
SamplesMatchPlaybackRate: 1

[Editor]
Bookmarks: 40854,80578,107061,120302,146785,174923,194785,201405,204716,205130
DistanceSpacing: 1.1
BeatDivisor: 4
GridSize: 8
TimelineZoom: 1.5

[Metadata]
Title:XOXO
TitleUnicode:XOXO
Artist:JEON SOMI
ArtistUnicode:전소미
Creator:Sani_
Version:Collab Hard
Source:
Tags:THEBLACKLABEL Natsu Skymin Nabori tadahitotsu rap Xandit [Im Nayeon] [Im_Nayeon] nemidnight XOXO_album The Black Label kpop k-pop korean pop english
BeatmapID:3400134
BeatmapSetID:1642211

[Difficulty]
HPDrainRate:5
CircleSize:3.4
OverallDifficulty:5.5
ApproachRate:6.5
SliderMultiplier:1.6
SliderTickRate:1

[Events]
//Background and Video events
0,0,"collab hard.jpeg",0,0
//Break Periods
//Storyboard Layer 0 (Background)
//Storyboard Layer 1 (Fail)
//Storyboard Layer 2 (Pass)
//Storyboard Layer 3 (Foreground)
//Storyboard Layer 4 (Overlay)
//Storyboard Sound Samples

[TimingPoints]
1130,413.793103448276,4,2,10,80,1,0
1130,-125,4,2,10,80,0,0
2681,-125,4,2,10,40,0,0
3509,-125,4,2,10,80,0,0
5992,-125,4,2,10,40,0,0
6819,-125,4,2,10,80,0,0
9302,-125,4,2,10,40,0,0
10130,-125,4,2,10,80,0,0
10957,-125,4,2,10,40,0,0
11371,-125,4,2,10,80,0,0
12612,-125,4,2,10,40,0,0
13026,-125,4,2,10,80,0,0
14371,-100,4,1,1,80,0,0
27612,-100,4,2,10,50,0,0
40440,-100,4,2,11,95,0,0
40647,-100,4,1,1,80,0,0
50888,-100,4,1,1,30,0,0
51509,-100,4,1,1,80,0,0
52336,-100,4,1,1,30,0,0
52750,-100,4,1,1,80,0,0
54198,-100,4,2,10,30,0,0
54819,-100,4,2,10,80,0,0
54923,-133.333333333333,4,2,10,80,0,0
55026,-133.333333333333,4,2,10,30,0,0
55440,-133.333333333333,4,2,10,80,0,0
55647,-133.333333333333,4,2,10,30,0,0
56474,-133.333333333333,4,2,10,80,0,0
57509,-133.333333333333,4,2,10,30,0,0
58130,-133.333333333333,4,2,10,80,0,0
58336,-133.333333333333,4,2,10,30,0,0
58750,-133.333333333333,4,2,10,80,0,0
58957,-133.333333333333,4,2,10,30,0,0
59785,-133.333333333333,4,2,10,80,0,0
60716,-133.333333333333,4,1,2,80,0,0
61130,-133.333333333333,4,1,2,30,0,0
61543,-133.333333333333,4,1,2,80,0,0
61957,-133.333333333333,4,1,2,30,0,0
62371,-133.333333333333,4,1,2,80,0,0
62785,-133.333333333333,4,1,2,30,0,0
63198,-100,4,1,2,80,0,0
63612,-100,4,1,2,30,0,0
64026,-100,4,1,2,80,0,0
65267,-100,4,2,31,95,0,0
65371,-100,4,1,1,95,0,0
65681,-100,4,2,23,30,0,0
65785,-100,4,1,1,30,0,0
66509,-133.333333333333,4,2,10,80,0,0
67336,-83.3333333333333,4,1,2,80,0,1
67440,-83.3333333333333,4,1,1,80,0,1
79336,-83.3333333333333,4,1,1,80,0,0
80578,-90.9090909090909,4,1,1,80,0,1
93819,-100,4,2,1,95,0,0
93923,-100,4,2,1,80,0,0
94854,-100,4,2,1,80,0,0
94957,-100,4,2,1,80,0,0
95474,-100,4,2,1,80,0,0
95578,-100,4,2,1,80,0,0
96509,-100,4,2,1,80,0,0
96612,-100,4,2,1,80,0,0
97130,-100,4,2,1,80,0,0
97233,-100,4,2,1,80,0,0
98164,-100,4,2,1,80,0,0
98267,-100,4,2,1,80,0,0
98785,-100,4,2,1,80,0,0
98888,-100,4,2,1,80,0,0
99819,-100,4,2,1,80,0,0
99923,-100,4,2,1,80,0,0
100440,-100,4,2,1,80,0,0
100543,-100,4,2,1,80,0,0
101474,-100,4,2,1,80,0,0
101578,-100,4,2,1,80,0,0
102095,-100,4,2,1,80,0,0
102198,-100,4,2,1,80,0,0
103130,-100,4,2,1,80,0,0
103233,-100,4,2,1,80,0,0
103750,-100,4,2,1,80,0,0
103854,-100,4,2,1,80,0,0
104785,-100,4,2,1,80,0,0
104888,-100,4,2,1,80,0,0
105405,-100,4,2,22,95,0,0
105474,-100,4,2,22,30,0,0
107061,-100,4,1,1,80,0,0
110785,-100,4,1,1,30,0,0
111198,-100,4,1,1,80,0,0
113681,-100,4,1,2,60,0,0
118647,-100,4,1,2,30,0,0
119474,-100,4,1,3,95,0,0
120302,-133.333333333333,4,1,1,80,0,0
120405,-133.333333333333,4,2,10,30,0,0
121026,-133.333333333333,4,2,10,80,0,0
121233,-133.333333333333,4,2,10,30,0,0
121647,-133.333333333333,4,2,10,80,0,0
121957,-133.333333333333,4,2,10,30,0,0
122785,-133.333333333333,4,2,10,80,0,0
123716,-133.333333333333,4,2,10,30,0,0
124336,-133.333333333333,4,2,10,80,0,0
124543,-133.333333333333,4,2,10,30,0,0
124957,-133.333333333333,4,2,10,80,0,0
125267,-133.333333333333,4,2,10,30,0,0
126095,-133.333333333333,4,2,10,80,0,0
126923,-133.333333333333,4,1,2,80,0,0
127336,-133.333333333333,4,1,2,30,0,0
127750,-133.333333333333,4,1,2,80,0,0
128164,-133.333333333333,4,1,2,30,0,0
128578,-133.333333333333,4,1,2,80,0,0
128992,-133.333333333333,4,1,2,30,0,0
129405,-100,4,1,2,80,0,0
129819,-100,4,1,2,30,0,0
130233,-100,4,1,2,80,0,0
131474,-100,4,2,31,95,0,0
131578,-100,4,1,2,80,0,0
131888,-100,4,2,23,30,0,0
131992,-100,4,1,1,30,0,0
132716,-133.333333333333,4,2,10,80,0,0
133543,-83.3333333333333,4,1,2,80,0,1
133647,-83.3333333333333,4,1,1,80,0,1
144923,-111.111111111111,4,1,1,80,0,1
145543,-83.3333333333333,4,1,1,80,0,0
146785,-90.9090909090909,4,1,1,80,0,1
160026,-111.111111111111,4,1,1,80,0,0
160130,-111.111111111111,4,2,10,60,0,0
163750,-111.111111111111,4,2,10,30,0,0
164992,-111.111111111111,4,2,10,60,0,0
165405,-111.111111111111,4,2,10,30,0,0
165612,-111.111111111111,4,2,10,60,0,0
170371,-111.111111111111,4,2,10,30,0,0
170785,-111.111111111111,4,2,10,60,0,0
171612,-111.111111111111,4,2,33,80,0,0
171716,-111.111111111111,4,2,10,80,0,0
172854,-111.111111111111,4,2,10,30,0,0
173267,-111.111111111111,4,2,11,80,0,0
173992,-111.111111111111,4,1,1,80,0,0
174095,-111.111111111111,4,2,10,80,0,0
174923,-83.3333333333333,4,1,2,80,0,1
175026,-83.3333333333333,4,1,1,80,0,1
186923,-83.3333333333333,4,1,1,80,0,0
188164,-83.3333333333333,4,1,1,80,0,1
201198,-83.3333333333333,4,1,1,80,0,0

[Colours]
Combo1 : 245,71,75
Combo2 : 239,135,248
Combo3 : 239,167,86
Combo4 : 174,221,66
Combo5 : 106,106,232

[HitObjects]
31,309,1130,6,0,P|61:313|87:295,1,64,2|2,0:0|0:0,0:0:0:0:
142,226,1543,1,2,0:0:0:0:
142,226,1750,1,2,0:0:0:0:
215,277,1957,2,0,B|282:284|253:220|330:224,1,128,2|2,0:0|0:0,0:0:0:0:
379,293,2578,2,0,B|430:254|430:254|401:153,1,128,2|0,0:0|0:0,0:0:0:0:
278,24,3612,6,0,P|308:27|323:54,1,64,2|0,0:0|0:0,0:0:0:0:
278,133,4026,2,0,P|248:130|233:103,1,64,2|0,0:0|0:0,0:0:0:0:
191,25,4440,1,2,0:0:0:0:
70,129,4854,2,0,P|38:122|4:115,1,64,2|2,0:0|0:0,0:0:0:0:
22,204,5267,2,0,B|84:215|84:215|90:223|90:223|155:234,1,128,2|2,0:0|0:0,0:0:0:0:
209,172,5888,2,0,P|231:233|208:292,1,128,2|0,0:0|0:0,0:0:0:0:
385,373,6923,6,0,P|376:346|365:312,1,64,2|0,0:0|0:0,0:0:0:0:
460,345,7336,2,0,P|451:318|440:284,1,64,2|0,0:0|0:0,0:0:0:0:
373,223,7750,6,0,P|352:204|317:201,2,64,2|2|2,0:0|0:0|0:0,0:0:0:0:
439,162,8371,1,2,0:0:0:0:
439,162,8578,2,0,B|443:108|443:108|453:96|453:96|457:35,1,128,2|2,0:0|0:0,0:0:0:0:
375,4,9198,2,0,P|328:13|318:88,1,128,2|0,0:0|0:0,0:0:0:0:
179,255,10233,5,2,0:0:0:0:
233,326,10440,2,0,P|256:304|265:272,1,64,2|0,0:0|0:0,0:0:0:0:
317,200,10854,2,0,L|333:326,1,128,2|0,0:0|0:0,0:0:0:0:
414,368,11474,2,0,P|450:361|485:359,1,64,2|0,0:0|0:0,0:0:0:0:
501,271,11888,2,0,B|428:260|473:206|400:192,1,128,2|2,0:0|0:0,0:0:0:0:
317,200,12509,1,2,0:0:0:0:
158,281,13130,6,0,L|122:226,1,64,2|0,0:0|0:0,0:0:0:0:
38,205,13543,2,0,L|74:150,1,64,2|0,0:0|0:0,0:0:0:0:
153,111,13957,2,0,P|189:83|179:123,1,96,2|0,0:0|0:0,0:0:0:0:
268,110,14371,6,0,P|226:123|188:108,1,80,4|0,3:1|0:0,0:0:0:0:
352,78,14785,2,0,P|360:118|348:158,1,80,0|0,0:0|0:0,0:0:0:0:
274,16,15198,5,2,0:0:0:0:
274,16,15405,1,0,0:0:0:0:
268,110,15612,1,0,0:0:0:0:
352,78,15819,2,0,P|418:66|479:127,1,160,0|2,0:0|0:0,0:0:0:0:
388,224,16440,2,0,L|399:144,1,80,0|0,3:0|0:0,0:0:0:0:
465,280,16854,1,2,0:0:0:0:
465,280,17061,1,0,3:0:0:0:
388,224,17267,2,0,P|328:222|290:266,1,120,0|0,0:0|0:0,0:0:0:0:
245,326,17681,6,0,L|259:157,1,160,0|0,3:0|0:0,0:0:0:0:
191,104,18302,1,0,0:0:0:0:
191,104,18509,2,0,P|153:91|112:100,1,80,2|0,0:0|0:0,0:0:0:0:
64,182,18923,2,0,P|102:195|143:186,1,80,0|2,0:0|0:0,0:0:0:0:
24,101,19336,1,0,0:0:0:0:
24,101,19543,1,2,3:1:0:0:
64,182,19750,6,0,L|93:299,1,120,0|0,3:0|0:0,0:0:0:0:
74,343,20164,2,0,P|72:369|51:341,1,80,2|0,0:0|3:0,0:0:0:0:
179,285,20578,2,0,L|160:369,1,80,0|2,0:0|0:0,0:0:0:0:
259,333,20992,6,0,P|296:357|279:310,1,120,4|0,3:1|0:0,0:0:0:0:
270,230,21405,2,0,L|284:312,1,80
356,200,21819,5,2,0:0:0:0:
356,200,22026,1,0,0:0:0:0:
270,230,22233,1,0,0:0:0:0:
192,176,22440,2,0,P|221:98|192:26,1,160,0|2,0:0|0:0,0:0:0:0:
102,16,23061,2,0,P|103:55|127:87,1,80,0|0,3:0|0:0,0:0:0:0:
49,145,23474,2,0,P|34:108|-3:91,1,80,2|0,0:0|3:0,0:0:0:0:
106,222,23888,1,0,0:0:0:0:
106,222,24095,1,0,0:0:0:0:
47,291,24302,6,0,P|34:334|27:371,1,80,0|0,3:0|0:0,0:0:0:0:
139,300,24716,2,0,P|126:343|119:380,1,80,0|0,0:0|0:0,0:0:0:0:
219,352,25130,2,0,B|310:354|260:289|364:288,1,160,2|0,0:0|0:0,0:0:0:0:
397,374,25750,2,0,P|420:343|454:312,1,80,2|0,0:0|0:0,0:0:0:0:
357,288,26164,1,2,0:0:0:0:
418,217,26371,6,0,P|403:150|392:108,1,80,0|0,3:0|0:0,0:0:0:0:
350,60,26785,2,0,P|334:96|315:140,1,80,2|0,0:0|3:0,0:0:0:0:
450,59,27198,2,0,P|461:27|428:33,1,80,0|2,0:0|0:0,0:0:0:0:
400,139,27612,6,0,P|409:177|418:217,1,80,2|2,0:2|0:2,0:0:0:0:
481,286,28026,1,2,0:2:0:0:
481,286,28233,1,2,0:2:0:0:
427,358,28440,2,0,B|347:349|388:288|297:277,1,160,10|2,0:2|0:0,0:0:0:0:
297,277,29267,6,0,P|287:233|279:198,1,80,2|2,0:0|0:0,0:0:0:0:
217,291,29681,2,0,P|207:247|199:212,1,80,2|2,0:0|0:0,0:0:0:0:
223,124,30095,2,0,B|197:169|197:169|83:184,1,160,10|2,0:0|0:0,0:0:0:0:
28,119,30716,1,2,0:0:0:0:
92,57,30923,6,0,L|173:50,1,80,2|2,0:0|0:0,0:0:0:0:
223,124,31336,2,0,L|304:117,1,80,2|2,0:0|0:0,0:0:0:0:
359,46,31750,2,0,P|386:17|432:14,2,80,10|2|2,0:0|0:0|0:0,0:0:0:0:
302,117,32371,1,2,0:0:0:0:
378,172,32578,2,0,P|417:170|440:204,1,80,2|0,0:0|0:0,0:0:0:0:
506,141,32992,2,0,P|480:179|512:293,1,160,2|10,0:0|0:0,0:0:0:0:
455,360,33612,1,0,0:0:0:0:
374,320,33819,2,0,P|380:282|355:251,1,80,0|0,0:0|0:0,0:0:0:0:
219,324,34233,6,0,P|259:326|289:303,1,80,2|2,0:0|0:0,0:0:0:0:
258,218,34647,2,0,P|218:216|188:239,1,80,2|2,0:0|0:0,0:0:0:0:
127,311,35061,2,0,L|159:121,1,160,10|2,0:0|0:0,0:0:0:0:
153,153,35888,6,0,P|195:151|220:124,1,80,2|2,0:0|0:0,0:0:0:0:
182,41,36302,2,0,P|140:43|115:70,1,80,2|2,0:0|0:0,0:0:0:0:
48,6,36716,2,0,L|74:171,1,160,10|2,0:0|0:0,0:0:0:0:
182,41,37543,6,0,P|234:35|274:32,1,80,2|0,0:0|0:0,0:0:0:0:
328,96,37957,2,0,P|350:62|350:22,1,80,2|2,0:0|0:0,0:0:0:0:
441,42,38371,2,0,P|467:71|508:71,1,80,10|2,0:0|0:0,0:0:0:0:
402,144,38785,2,0,P|441:153|468:182,1,80,2|2,0:0|0:0,0:0:0:0:
467,275,39198,2,0,B|389:270|425:353|333:347,2,160,2|2|10,0:0|0:0|0:0,0:0:0:0:
281,282,40440,6,0,L|289:237,1,40,2|2,0:0|0:0,0:0:0:0:
192,350,40854,5,4,3:1:0:0:
51,199,41267,2,0,L|11:194,2,40,0|0|0,0:0|0:0|0:0,0:0:0:0:
133,145,41681,1,8,0:0:0:0:
195,212,41888,1,0,0:0:0:0:
294,168,42095,2,0,L|274:303,1,120,0|0,0:0|0:0,0:0:0:0:
314,312,42509,2,0,B|343:336|343:336|387:331,1,80
440,252,42923,1,0,3:0:0:0:
390,91,43336,2,0,P|445:11|512:0,2,160,8|0|4,0:0|0:0|3:1,0:0:0:0:
427,327,44578,6,0,L|466:334,2,40
352,250,44992,1,8,0:0:0:0:
260,297,45198,1,0,0:0:0:0:
183,235,45405,2,0,P|129:212|69:237,1,120,0|0,0:0|0:0,0:0:0:0:
47,210,45819,2,0,L|39:130,1,80,0|0,0:0|3:0,0:0:0:0:
137,13,46233,2,0,L|144:92,1,80,0|0,3:0|0:0,0:0:0:0:
258,130,46647,2,0,B|286:137|286:137|364:118|349:41,2,160,8|0|4,0:0|0:0|3:1,0:0:0:0:
258,130,48095,5,0,0:0:0:0:
185,195,48302,2,0,P|174:236|188:281,1,80,8|0,0:0|0:0,0:0:0:0:
255,322,48716,2,0,L|338:315,1,80,0|0,0:0|0:0,0:0:0:0:
440,380,49130,6,0,B|426:289|497:327|488:232,2,160,0|0|8,0:0|3:0|0:0,0:0:0:0:
334,315,50164,1,0,3:0:0:0:
255,322,50371,2,0,P|211:314|174:307,1,80,0|0,0:0|0:0,0:0:0:0:
86,264,50785,6,0,P|41:194|75:100,1,160,4|0,3:1|0:0,0:0:0:0:
120,69,51405,1,0,0:0:0:0:
186,137,51612,2,0,L|166:188,2,40,8|0|0,0:0|0:0|0:0,0:0:0:0:
270,104,52026,1,0,0:0:0:0:
270,104,52233,6,0,P|326:121|416:68,1,160,0|0,0:0|0:0,0:0:0:0:
491,154,52854,2,0,L|493:74,1,80,0|0,3:0|0:0,0:0:0:0:
402,234,53267,2,0,L|391:154,1,80,8|0,0:0|3:0,0:0:0:0:
496,317,53681,2,0,L|498:237,1,80,0|0,0:0|0:0,0:0:0:0:
420,358,54095,5,4,0:1:0:0:
420,358,54923,2,0,P|339:327|270:380,1,180.000006866455,2|2,0:0|0:0,0:0:0:0:
270,379,56578,2,0,P|287:323|273:265,1,120.000004577637,2|2,0:0|0:0,0:0:0:0:
254,63,57405,5,2,0:0:0:0:
254,63,58233,2,0,P|172:93|96:49,1,180.000006866455,2|2,0:0|0:0,0:0:0:0:
96,49,59888,2,0,P|104:79|104:109,1,60.0000022888184,2|0,0:0|0:0,0:0:0:0:
41,166,60302,2,0,P|33:195|33:225,1,60.0000022888184,2|0,0:0|0:0,0:0:0:0:
48,306,60716,6,0,L|232:295,1,180.000006866455,8|0,0:0|0:0,0:0:0:0:
231,215,61543,2,0,L|367:206,1,120.000004577637,8|0,0:0|0:0,0:0:0:0:
430,205,62164,2,0,L|419:270,1,60.0000022888184,0|8,0:0|0:0,0:0:0:0:
492,308,62578,2,0,L|512:189,1,120.000004577637,0|0,0:0|0:0,0:0:0:0:
454,126,63198,2,0,P|446:97|456:46,1,80,8|0,0:0|0:0,0:0:0:0:
358,0,63612,2,0,P|365:28|356:80,1,80,0|0,0:0|0:0,0:0:0:0:
302,137,64026,5,8,0:0:0:0:
209,148,64233,1,0,0:0:0:0:
139,82,64440,2,0,L|54:89,1,80,8|0,0:0|0:0,0:0:0:0:
2,173,64854,5,8,0:0:0:0:
10,263,65061,1,0,0:0:0:0:
85,311,65267,6,0,L|90:355,2,40,2|0|0,0:0|0:0|0:0,0:0:0:0:
10,381,65681,1,2,0:0:0:0:
180,312,66509,6,0,B|239:295|238:348|294:332,1,120.000004577637,2|2,0:0|0:0,0:0:0:0:
429,278,67336,5,4,3:1:0:0:
369,200,67543,1,0,0:0:0:0:
450,83,67750,2,0,P|465:133|450:175,1,95.9999970703126,0|0,0:0|0:0,0:0:0:0:
369,200,68164,2,0,L|222:192,1,143.999995605469,2|0,0:0|0:0,0:0:0:0:
202,190,68578,1,0,0:0:0:0:
130,57,68785,6,0,B|112:87|112:87|120:154,1,95.9999970703126,0|0,0:0|0:0,0:0:0:0:
17,202,69198,1,2,0:0:0:0:
17,202,69405,2,0,P|81:231|104:302,1,143.999995605469,0|0,3:0|0:0,0:0:0:0:
115,312,69819,2,0,P|159:326|207:313,1,95.9999970703126,2|0,0:0|3:0,0:0:0:0:
332,244,70233,2,0,P|287:229|239:242,1,95.9999970703126,0|0,0:0|0:0,0:0:0:0:
371,330,70647,6,0,B|381:268|381:268|387:261|387:261|399:190,1,143.999995605469,0|0,3:0|0:0,0:0:0:0:
404,169,71061,1,0,0:0:0:0:
417,77,71267,1,0,0:0:0:0:
317,104,71474,2,0,L|302:57,2,47.9999985351563,2|0|0,0:0|0:0|0:0,0:0:0:0:
210,141,71888,2,0,L|111:125,1,95.9999970703126,0|2,0:0|0:0,0:0:0:0:
18,180,72302,5,0,0:0:0:0:
76,276,72509,1,2,3:1:0:0:
185,240,72716,2,0,L|351:266,1,143.999995605469,0|0,3:0|0:0,0:0:0:0:
348,262,73130,2,0,B|365:311|365:311|351:354,1,95.9999970703126,2|0,0:0|3:0,0:0:0:0:
441,269,73543,2,0,B|424:220|424:220|438:177,1,95.9999970703126,0|2,0:0|0:0,0:0:0:0:
418,51,73957,5,4,3:1:0:0:
418,51,74164,1,0,0:0:0:0:
332,108,74371,1,0,0:0:0:0:
272,39,74578,1,0,0:0:0:0:
193,91,74785,2,0,P|128:71|41:65,1,143.999995605469,2|0,0:0|0:0,0:0:0:0:
23,71,75198,1,0,0:0:0:0:
9,200,75405,6,0,P|53:208|102:185,1,95.9999970703126,0|0,0:0|0:0,0:0:0:0:
193,91,75819,1,2,0:0:0:0:
193,91,76026,2,0,P|184:162|186:234,1,143.999995605469,0|0,3:0|0:0,0:0:0:0:
206,271,76440,2,0,L|196:319,2,47.9999985351563,2|0|0,0:0|0:0|3:0,0:0:0:0:
309,249,76854,1,0,0:0:0:0:
381,315,77061,6,0,P|340:340|293:345,2,95.9999970703126,0|0|0,0:0|0:0|0:0,0:0:0:0:
477,274,77681,1,0,0:0:0:0:
477,274,77888,1,0,0:0:0:0:
391,219,78095,2,0,L|401:72,1,143.999995605469,2|0,0:0|0:0,0:0:0:0:
399,34,78509,1,0,0:0:0:0:
305,60,78716,2,0,L|209:52,1,95.9999970703126,2|0,0:0|0:0,0:0:0:0:
195,181,79130,1,2,0:0:0:0:
143,112,79336,6,0,B|111:147|111:147|111:195,1,95.9999970703126,0|0,3:0|0:0,0:0:0:0:
1,209,79750,2,0,B|33:174|33:174|33:125,1,95.9999970703126,2|0,0:0|3:0,0:0:0:0:
118,34,80164,2,0,P|187:36|225:94,1,143.999995605469,0|0,0:0|0:0,0:0:0:0:
239,131,80578,6,0,P|270:101|313:97,1,88.000002685547,4|0,3:1|0:0,0:0:0:0:
333,11,80992,2,0,P|374:23|399:58,1,88.000002685547,0|0,0:0|0:0,0:0:0:0:
390,154,81405,5,2,0:0:0:0:
390,154,81612,1,0,0:0:0:0:
470,207,81819,1,0,0:0:0:0:
395,279,82026,2,0,P|306:262|213:250,1,176.000005371094,0|2,0:0|0:0,0:0:0:0:
126,288,82647,2,0,P|135:330|138:374,1,88.000002685547,0|0,3:0|0:0,0:0:0:0:
42,242,83061,1,2,0:0:0:0:
42,242,83267,1,0,3:0:0:0:
89,157,83474,6,0,P|134:150|177:168,1,88.000002685547
221,250,83888,2,0,P|266:205|250:97,1,176.000005371094,0|0,3:0|0:0,0:0:0:0:
210,12,84509,1,0,0:0:0:0:
318,0,84716,6,0,P|361:8|404:16,1,88.000002685547,2|0,0:0|0:0,0:0:0:0:
478,89,85130,2,0,P|435:97|392:105,1,88.000002685547,0|2,0:0|0:0,0:0:0:0:
334,194,85543,1,0,0:0:0:0:
334,194,85750,1,2,3:1:0:0:
253,100,85957,6,0,P|241:171|228:239,1,132.00000402832,0|0,3:0|0:0,0:0:0:0:
223,281,86371,2,0,P|257:288|237:256,1,88.000002685547,2|0,0:0|3:0,0:0:0:0:
135,325,86785,2,0,P|83:339|18:288,1,132.00000402832,0|0,0:0|0:0,0:0:0:0:
24,247,87198,6,0,P|58:240|38:272,1,88.000002685547,4|0,3:1|0:0,0:0:0:0:
0,160,87612,2,0,P|42:148|87:157,1,88.000002685547,0|0,0:0|0:0,0:0:0:0:
167,207,88026,5,2,0:0:0:0:
167,207,88233,1,0,0:0:0:0:
208,119,88440,1,0,0:0:0:0:
286,202,88647,2,0,B|297:311|223:240|235:387,1,176.000005371094,0|2,0:0|0:0,0:0:0:0:
329,345,89267,2,0,P|374:338|417:356,1,88.000002685547,0|0,3:0|0:0,0:0:0:0:
453,263,89681,1,2,0:0:0:0:
453,263,89888,1,0,3:0:0:0:
369,194,90095,6,0,P|328:209|285:201,1,88.000002685547
214,114,90509,2,0,B|106:125|174:166|51:181,1,176.000005371094,0|0,3:0|0:0,0:0:0:0:
0,98,91130,1,0,0:0:0:0:
83,29,91336,6,0,P|126:33|170:36,1,88.000002685547,2|0,0:0|0:0,0:0:0:0:
233,124,91750,2,0,P|276:119|320:116,1,88.000002685547,0|2,0:0|0:0,0:0:0:0:
388,42,92164,1,0,0:0:0:0:
388,42,92371,1,2,0:0:0:0:
450,124,92578,6,0,P|442:166|414:200,1,88.000002685547,0|0,3:0|0:0,0:0:0:0:
462,278,92992,2,0,P|421:293|378:285,1,88.000002685547,2|0,0:0|3:0,0:0:0:0:
333,364,93405,2,0,P|299:336|284:295,1,88.000002685547,0|2,0:0|0:0,0:0:0:0:
317,213,93819,6,0,L|237:219,1,80,2|2,0:2|0:2,0:0:0:0:
178,286,94233,1,2,0:2:0:0:
178,286,94440,1,2,0:2:0:0:
104,227,94647,2,0,L|97:147,1,80,2|0,0:2|0:2,0:0:0:0:
8,152,95061,2,0,L|14:231,1,80,2|0,0:0|0:0,0:0:0:0:
97,147,95474,6,0,P|139:139|176:155,1,80,2|2,0:2|0:2,0:0:0:0:
237,218,95888,1,2,0:2:0:0:
237,218,96095,1,2,0:2:0:0:
295,145,96302,2,0,L|288:65,1,80,2|0,0:2|0:2,0:0:0:0:
376,56,96716,2,0,L|383:136,1,80,2|0,0:0|0:0,0:0:0:0:
451,195,97130,6,0,L|444:275,1,80,2|2,0:2|0:0,0:0:0:0:
388,343,97543,1,2,0:0:0:0:
388,343,97750,1,2,0:0:0:0:
326,270,97957,2,0,P|287:261|250:275,1,80,2|2,0:0|0:2,0:0:0:0:
215,356,98371,2,0,P|253:364|290:351,1,80,2|0,0:0|0:0,0:0:0:0:
164,283,98785,6,0,B|62:303|134:336|16:359,1,160,2|2,0:2|0:0,0:0:0:0:
0,271,99405,2,0,L|7:191,1,80,2|2,0:0|0:0,0:0:0:0:
2,102,99819,1,2,0:2:0:0:
81,139,100026,2,0,P|119:147|156:134,1,80,0|2,0:0|0:0,0:0:0:0:
221,74,100440,6,0,L|301:81,1,80,2|2,0:2|0:0,0:0:0:0:
369,136,100854,1,2,0:0:0:0:
369,136,101061,1,2,0:0:0:0:
451,106,101267,2,0,P|459:144|446:181,1,80,2|2,0:0|0:2,0:0:0:0:
497,254,101681,2,0,P|483:291|492:329,1,80,2|0,0:0|0:0,0:0:0:0:
417,375,102095,6,0,L|337:368,1,80,2|2,0:2|0:0,0:0:0:0:
267,314,102509,1,2,0:0:0:0:
267,314,102716,1,2,0:0:0:0:
188,254,102923,2,0,L|181:334,1,80,2|0,0:0|0:2,0:0:0:0:
100,246,103336,2,0,L|93:326,1,80,2|0,0:0|0:0,0:0:0:0:
19,206,103750,6,0,L|12:126,1,80,2|0,0:2|0:0,0:0:0:0:
0,36,104164,1,2,0:0:0:0:
0,36,104371,1,2,0:0:0:0:
92,14,104578,2,0,L|172:7,1,80,2|0,0:0|0:2,0:0:0:0:
113,99,104992,2,0,L|193:92,1,80,2|0,0:0|0:0,0:0:0:0:
268,146,105405,5,2,0:2:0:0:
437,352,107061,5,6,3:1:0:0:
355,309,107267,2,0,P|313:281|369:294,1,160,0|0,0:0|0:0,0:0:0:0:
285,372,107888,2,0,P|252:342|239:308,1,80,2|0,0:0|0:0,0:0:0:0:
182,234,108302,2,0,P|169:272|139:298,1,80,0|2,0:0|0:0,0:0:0:0:
45,328,108716,5,0,0:0:0:0:
4,246,108923,2,0,B|-10:203|-10:203|105:230,1,160,2|0,0:0|0:0,0:0:0:0:
148,138,109543,2,0,B|121:154|121:154|46:134,1,80,2|0,0:0|3:0,0:0:0:0:
52,48,109957,2,0,B|79:32|79:32|154:52,1,80,0|2,0:0|0:0,0:0:0:0:
148,138,110371,5,6,3:1:0:0:
221,70,110578,2,0,B|241:89|246:110|246:110|292:81|345:99|345:99|344:70|358:43,1,200,0|0,0:0|0:0,0:0:0:0:
369,42,111198,6,0,P|420:20|428:99,1,160,2|0,0:0|0:0,0:0:0:0:
441,177,111819,2,0,L|427:90,1,80,2|0,0:0|0:0,0:0:0:0:
385,252,112233,1,2,3:1:0:0:
305,284,112440,2,0,B|397:292|350:357|455:356,1,160,2|0,3:1|0:0,0:0:0:0:
291,275,113267,6,0,L|206:285,1,80,0|0,0:0|0:0,0:0:0:0:
137,342,113681,1,8,3:1:0:0:
137,342,113888,1,0,0:0:0:0:
73,273,114095,6,0,P|35:257|15:223,1,80,8|0,0:0|0:0,0:0:0:0:
127,131,114509,2,0,P|118:172|86:197,1,80,8|0,0:0|0:0,0:0:0:0:
17,134,114923,1,8,0:0:0:0:
194,79,115336,6,0,P|160:52|120:47,2,80,8|0|8,0:0|0:0|3:2,0:0:0:0:
255,6,115957,1,0,0:0:0:0:
255,143,116164,2,0,P|274:106|307:88,1,80,8|0,0:0|3:0,0:0:0:0:
416,192,116578,6,0,L|338:174,1,80,8|0,0:0|0:0,0:0:0:0:
266,236,116992,1,8,3:2:0:0:
266,236,117198,1,0,0:0:0:0:
250,331,117405,6,0,L|328:313,1,80,8|0,0:0|0:0,0:0:0:0:
400,375,117819,1,8,0:0:0:0:
400,375,118025,1,0,0:0:0:0:
457,294,118233,1,8,0:0:0:0:
385,16,119474,5,0,3:0:0:0:
385,16,119681,1,0,3:0:0:0:
306,88,119888,2,0,P|256:77|217:70,1,80,0|0,3:0|3:0,0:0:0:0:
151,13,120302,5,4,0:1:0:0:
151,13,121130,2,0,P|100:83|133:163,1,180.000006866455,2|2,0:0|0:0,0:0:0:0:
132,162,122785,2,0,P|100:108|109:54,1,120.000004577637,2|2,0:0|0:0,0:0:0:0:
293,0,123612,5,2,0:0:0:0:
293,0,124440,2,0,P|363:53|445:23,1,180.000006866455,2|2,0:0|0:0,0:0:0:0:
443,25,126095,2,0,P|436:52|444:84,1,60.0000022888184,2|0,0:0|0:0,0:0:0:0:
349,111,126509,2,0,P|363:135|391:152,1,60.0000022888184,2|0,0:0|0:0,0:0:0:0:
443,25,126923,6,0,B|419:66|456:110|463:105|486:154|456:197,1,180.000006866455,8|0,0:0|0:0,0:0:0:0:
387,260,127750,2,0,P|446:253|491:294,1,120.000004577637,8|0,0:0|0:0,0:0:0:0:
408,343,128371,2,0,P|379:347|343:332,1,60.0000022888184,0|8,0:0|0:0,0:0:0:0:
268,286,128785,2,0,B|220:263|185:302|191:311|150:356|103:332,1,180.000006866455,0|8,0:0|0:0,0:0:0:0:
108,342,129819,2,0,P|148:343|183:319,1,80
268,286,130233,5,8,0:0:0:0:
350,336,130440,1,0,0:0:0:0:
433,287,130647,2,0,P|438:249|447:202,1,80,8|0,0:0|0:0,0:0:0:0:
275,293,131061,5,8,0:0:0:0:
357,343,131268,1,0,0:0:0:0:
440,294,131475,6,0,P|445:256|454:209,1,80,2|0,0:0|0:0,0:0:0:0:
491,127,131888,1,2,0:0:0:0:
491,127,132716,6,0,P|430:119|380:153,1,120.000004577637,2|2,0:0|0:0,0:0:0:0:
428,366,133543,5,4,3:1:0:0:
501,288,133750,1,0,0:0:0:0:
449,196,133957,1,0,0:0:0:0:
346,216,134164,1,0,0:0:0:0:
326,320,134371,2,0,B|277:341|245:291|253:282|218:228|163:254,1,191.999994140625,2|0,0:0|0:0,0:0:0:0:
72,306,134992,2,0,P|122:226|88:142,1,191.999994140625,0|2,0:0|0:0,0:0:0:0:
6,75,135612,1,0,3:0:0:0:
6,75,136026,6,0,P|38:45|89:40,1,95.9999970703126,2|0,0:0|3:0,0:0:0:0:
185,83,136440,2,0,P|231:94|277:76,1,95.9999970703126,0|0,0:0|0:0,0:0:0:0:
397,19,136854,6,0,B|364:41|364:41|345:154|345:154|367:186,1,191.999994140625,0|0,3:0|0:0,0:0:0:0:
442,260,137474,1,0,0:0:0:0:
457,71,137681,2,0,B|440:82|440:82|429:141|429:141|441:157,1,95.9999970703126,2|0,0:0|0:0,0:0:0:0:
446,268,138095,1,0,0:0:0:0:
368,185,138302,2,0,B|345:153|345:153|365:41|365:41|402:15,1,191.999994140625,2|2,0:0|3:1,0:0:0:0:
502,0,138923,1,0,3:0:0:0:
502,0,139337,6,0,P|478:41|483:90,1,95.9999970703126,2|0,0:0|3:0,0:0:0:0:
503,192,139750,2,0,P|519:237|506:284,1,95.9999970703126,0|2,0:0|0:0,0:0:0:0:
409,341,140164,5,4,3:1:0:0:
409,341,140371,1,0,0:0:0:0:
435,238,140578,1,0,0:0:0:0:
332,213,140785,1,0,0:0:0:0:
307,315,140992,2,0,B|217:342|217:342|127:299,1,191.999994140625,2|0,0:0|0:0,0:0:0:0:
137,194,141612,2,0,B|226:166|226:166|316:209,1,191.999994140625,0|2,0:0|0:0,0:0:0:0:
222,255,142233,1,0,3:0:0:0:
15,300,142647,5,2,0:0:0:0:
56,205,142854,2,0,L|30:60,1,143.999995605469,0|0,3:0|0:0,0:0:0:0:
1,51,143268,6,0,L|18:148,2,95.9999970703126
99,8,143888,1,0,0:0:0:0:
99,8,144095,1,0,0:0:0:0:
202,104,144302,2,0,P|270:119|330:82,1,143.999995605469,2|0,0:0|0:0,0:0:0:0:
342,62,144716,1,0,0:0:0:0:
202,113,144923,2,0,P|270:128|334:91,1,143.999995605469,2|2,0:0|0:0,0:0:0:0:
435,71,145543,6,0,P|419:112|407:167,1,95.9999970703126,0|0,3:0|0:0,0:0:0:0:
511,278,145957,2,0,P|500:231|484:186,1,95.9999970703126,2|0,0:0|3:0,0:0:0:0:
435,71,146371,2,0,P|417:122|403:210,1,143.999995605469,0|0,0:0|0:0,0:0:0:0:
412,258,146785,6,0,P|345:296|308:294,1,88.000002685547,4|0,3:1|0:0,0:0:0:0:
261,234,147198,2,0,P|276:181|288:124,1,88.000002685547,0|0,0:0|0:0,0:0:0:0:
218,75,147612,5,2,0:0:0:0:
218,75,147819,1,0,0:0:0:0:
132,30,148026,1,0,0:0:0:0:
54,87,148233,2,0,P|68:157|89:271,1,176.000005371094,0|2,0:0|0:0,0:0:0:0:
41,345,148854,2,0,P|82:369|124:359,1,88.000002685547,0|0,3:0|0:0,0:0:0:0:
203,312,149267,2,0,L|298:295,1,88.000002685547,2|0,0:0|3:0,0:0:0:0:
366,356,149681,6,0,L|461:339,1,88.000002685547
289,296,150095,2,0,P|291:243|400:212,1,176.000005371094,0|0,3:0|0:0,0:0:0:0:
478,254,150716,1,0,0:0:0:0:
492,158,150923,6,0,L|483:111,2,44.0000013427735,2|0|0,0:0|0:0|0:0,0:0:0:0:
400,189,151336,1,0,0:0:0:0:
400,189,151543,2,0,L|303:169,1,88.000002685547,2|0,0:0|0:0,0:0:0:0:
227,216,151957,1,2,3:1:0:0:
162,143,152164,6,0,P|135:90|168:20,1,132.00000402832,0|0,3:0|0:0,0:0:0:0:
208,32,152578,2,0,P|263:42|299:48,1,88.000002685547,2|0,0:0|3:0,0:0:0:0:
162,143,152992,2,0,P|97:161|28:187,1,132.00000402832,0|0,0:0|0:0,0:0:0:0:
22,229,153405,6,0,P|33:286|60:324,1,88.000002685547,4|0,3:1|0:0,0:0:0:0:
137,349,153819,2,0,P|170:309|193:258,1,88.000002685547,0|0,0:0|0:0,0:0:0:0:
254,207,154233,5,2,0:0:0:0:
254,207,154440,1,0,0:0:0:0:
297,120,154647,1,0,0:0:0:0:
249,36,154854,2,0,B|340:4|342:72|428:27,1,176.000005371094,0|2,0:0|0:0,0:0:0:0:
500,75,155474,2,0,P|505:131|482:162,1,88.000002685547,0|0,3:0|0:0,0:0:0:0:
406,205,155888,2,0,L|423:302,1,88.000002685547,2|0,0:0|3:0,0:0:0:0:
324,285,156302,6,0,L|313:375,1,88.000002685547
268,200,156716,2,0,P|197:160|105:178,1,176.000005371094,0|0,3:0|0:0,0:0:0:0:
72,266,157336,1,0,0:0:0:0:
128,344,157543,6,0,L|178:357,2,44.0000013427735,2|0|0,0:0|0:0|0:0,0:0:0:0:
169,255,157957,1,0,0:0:0:0:
169,255,158164,2,0,P|163:206|154:143,1,88.000002685547,2|0,0:0|0:0,0:0:0:0:
70,125,158578,2,0,P|80:76|95:31,1,88.000002685547,2|0,0:0|3:0,0:0:0:0:
185,13,158992,1,0,0:0:0:0:
263,69,159198,5,2,0:0:0:0:
263,69,159405,2,0,P|311:49|346:25,2,88.000002685547,0|0|2,3:0|0:0|0:0,0:0:0:0:
229,147,160026,5,4,0:1:0:0:
229,147,160440,2,0,P|170:161|145:241,2,143.999995605469,2|2|2,0:0|0:0|0:0,0:0:0:0:
376,205,161681,2,0,P|447:209|522:223,2,143.999995605469,2|2|2,0:0|0:0|0:0,0:0:0:0:
268,322,162923,1,2,0:0:0:0:
268,322,163130,1,2,0:0:0:0:
268,322,163336,6,0,P|190:311|101:291,2,143.999995605469,2|0|0,0:0|0:0|0:0,0:0:0:0:
376,205,164578,1,0,0:0:0:0:
289,71,164992,2,0,P|189:52|139:69,1,143.999995605469,2|0,0:0|0:0,0:0:0:0:
78,97,165612,2,0,P|91:144|93:238,1,143.999995605469,2|2,0:0|0:0,0:0:0:0:
304,347,166647,6,0,P|361:358|468:326,1,143.999995605469,2|2,0:0|0:0,0:0:0:0:
493,189,167474,1,10,0:0:0:0:
493,189,167888,1,2,0:0:0:0:
358,105,168302,2,0,P|353:174|358:255,1,143.999995605469,2|2,0:0|0:0,0:0:0:0:
203,288,169130,1,10,0:0:0:0:
203,288,169543,1,2,0:0:0:0:
146,343,169750,1,2,0:0:0:0:
80,298,169957,6,0,L|61:149,1,143.999995605469,2|0,0:0|0:0,0:0:0:0:
168,37,170785,2,0,L|187:184,1,143.999995605469,8|0,0:0|0:0,0:0:0:0:
306,282,171612,1,4,0:0:0:0:
306,282,173267,6,0,L|318:221,1,35.9999989013672,2|2,0:0|0:0,0:0:0:0:
420,194,173681,2,0,L|408:140,1,35.9999989013672,2|2,0:0|0:0,0:0:0:0:
333,69,174095,6,0,B|255:51|274:120|191:100,1,143.999995605469,2|2,0:0|0:0,0:0:0:0:
87,37,174923,5,4,3:1:0:0:
20,107,175130,1,0,0:0:0:0:
80,178,175336,2,0,P|68:226|58:287,1,95.9999970703126,0|0,0:0|0:0,0:0:0:0:
122,342,175750,2,0,P|178:307|256:318,1,143.999995605469,2|0,0:0|0:0,0:0:0:0:
264,332,176164,1,0,0:0:0:0:
318,237,176371,6,0,P|325:191|335:142,1,95.9999970703126,0|0,0:0|0:0,0:0:0:0:
399,76,176785,1,2,0:0:0:0:
334,13,176992,2,0,B|267:26|267:26|257:37|257:37|176:54,1,143.999995605469,0|0,3:0|0:0,0:0:0:0:
180,38,177405,1,2,0:0:0:0:
94,0,177612,2,0,B|50:11|43:69|43:69|107:182,1,191.999994140625,0|0,3:0|0:0,0:0:0:0:
182,211,178233,6,0,P|168:276|152:364,1,143.999995605469,0|0,3:0|0:0,0:0:0:0:
165,366,178647,1,0,0:0:0:0:
248,325,178854,1,0,0:0:0:0:
331,362,179061,2,0,P|360:367|392:374,2,47.9999985351563,2|0|0,0:0|0:0|0:0,0:0:0:0:
376,280,179474,1,0,0:0:0:0:
476,296,179681,6,0,P|466:251|458:201,1,95.9999970703126,2|0,0:0|0:0,0:0:0:0:
499,105,180095,1,2,3:1:0:0:
425,38,180302,2,0,P|367:29|299:89,1,143.999995605469,0|0,3:0|0:0,0:0:0:0:
300,97,180716,1,2,0:0:0:0:
220,38,180923,2,0,B|100:4|143:113|30:67,1,191.999994140625,0|2,3:0|0:0,0:0:0:0:
31,177,181543,6,0,P|92:165|148:155,1,95.9999970703126,4|0,3:1|0:0,0:0:0:0:
203,217,181957,1,0,0:0:0:0:
203,217,182163,1,0,0:0:0:0:
272,147,182371,2,0,P|302:207|275:285,1,143.999995605469,2|0,0:0|0:0,0:0:0:0:
270,294,182785,1,0,0:0:0:0:
188,348,182992,6,0,P|124:334|72:329,1,95.9999970703126,0|0,0:0|0:0,0:0:0:0:
23,262,183405,1,2,0:0:0:0:
92,188,183612,2,0,B|112:145|112:145|90:86,1,95.9999970703126,0|0,3:0|0:0,0:0:0:0:
168,28,184026,1,2,0:0:0:0:
168,28,184233,2,0,P|226:60|299:34,1,143.999995605469,0|0,3:0|0:0,0:0:0:0:
314,24,184647,6,0,B|410:-13|387:101|486:71,1,191.999994140625,0|0,0:0|0:0,0:0:0:0:
438,156,185267,1,0,0:0:0:0:
503,220,185474,1,0,0:0:0:0:
443,281,185681,2,0,P|376:267|312:260,1,95.9999970703126,2|0,0:0|0:0,0:0:0:0:
313,169,186095,1,0,0:0:0:0:
211,202,186302,6,0,P|269:250|234:376,1,191.999994140625,2|2,0:0|0:0,0:0:0:0:
174,378,186923,2,0,P|102:366|47:364,1,95.9999970703126,0|0,3:0|0:0,0:0:0:0:
20,292,187336,1,2,0:0:0:0:
20,292,187543,1,0,3:0:0:0:
81,218,187750,2,0,P|74:154|56:69,1,143.999995605469,0|0,0:0|0:0,0:0:0:0:
67,53,188164,6,0,B|163:7|146:133|253:89,1,191.999994140625,4|0,3:1|0:0,0:0:0:0:
321,29,188785,1,0,0:0:0:0:
405,83,188992,6,0,P|464:69|519:56,2,95.9999970703126,2|0|0,0:0|0:0|0:0,0:0:0:0:
348,155,189612,2,0,B|367:239|367:239|381:252|381:252|400:338,1,191.999994140625,0|2,0:0|0:0,0:0:0:0:
329,384,190233,2,0,P|241:367|114:351,1,191.999994140625,0|2,3:0|0:0,0:0:0:0:
50,384,190854,2,0,P|37:288|19:194,1,191.999994140625,0|0,3:0|0:0,0:0:0:0:
74,117,191474,6,0,B|128:114|157:74|157:74|164:125|214:161,1,191.999994140625,0|0,3:0|0:0,0:0:0:0:
302,141,192095,1,0,0:0:0:0:
302,141,192302,6,0,P|290:207|280:272,1,95.9999970703126,2|0,0:0|0:0,0:0:0:0:
349,299,192716,2,0,P|415:287|480:277,1,95.9999970703126,0|2,0:0|0:0,0:0:0:0:
508,212,193130,1,0,0:0:0:0:
508,212,193336,1,2,0:0:0:0:
434,149,193543,6,0,P|425:70|466:20,1,143.999995605469,0|0,3:0|0:0,0:0:0:0:
472,32,193957,2,0,P|404:27|376:6,1,95.9999970703126,2|0,0:0|3:0,0:0:0:0:
285,75,194371,2,0,P|297:130|307:189,1,95.9999970703126,0|2,0:0|0:0,0:0:0:0:
222,254,194785,5,4,3:1:0:0:
145,317,194992,1,0,0:0:0:0:
61,274,195198,2,0,P|70:209|80:173,1,95.9999970703126,0|0,0:0|0:0,0:0:0:0:
151,71,195612,6,0,P|166:122|172:169,2,95.9999970703126,2|0|0,0:0|0:0|0:0,0:0:0:0:
58,5,196233,2,0,B|78:47|44:80|35:67|-1:107|21:154,1,143.999995605469,0|0,0:0|0:0,0:0:0:0:
77,179,196647,1,2,0:0:0:0:
151,71,196854,6,0,P|225:55|281:53,1,95.9999970703126,0|0,3:0|0:0,0:0:0:0:
334,9,197267,2,0,P|342:58|335:116,1,95.9999970703126,2|0,0:0|3:0,0:0:0:0:
270,170,197681,2,0,P|323:138|348:242,1,191.999994140625,0|0,0:0|3:0,0:0:0:0:
274,265,198302,1,0,0:0:0:0:
345,336,198509,2,0,P|401:323|445:317,1,95.9999970703126,0|0,0:0|0:0,0:0:0:0:
262,380,198923,2,0,P|204:368|165:361,1,95.9999970703126,2|0,0:0|0:0,0:0:0:0:
125,275,199336,5,0,0:0:0:0:
35,364,199543,2,0,P|25:310|3:254,1,95.9999970703126,2|0,0:0|0:0,0:0:0:0:
117,281,199957,1,2,0:0:0:0:
36,183,200164,2,0,P|45:135|67:88,1,95.9999970703126,0|0,3:0|0:0,0:0:0:0:
21,6,200578,5,2,0:0:0:0:
121,12,200785,1,0,3:0:0:0:
162,102,200992,1,0,0:0:0:0:
156,113,201198,5,2,0:0:0:0:
