osu file format v14

[General]
AudioFilename: audio.mp3
AudioLeadIn: 0
PreviewTime: 32996
Countdown: 1
SampleSet: Soft
StackLeniency: 0.7
Mode: 3
LetterboxInBreaks: 0
SpecialStyle: 0
WidescreenStoryboard: 0

[Editor]
DistanceSpacing: 0.15
BeatDivisor: 4
GridSize: 16
TimelineZoom: 2.6

[Metadata]
Title:WWW.BLONDE GIRL (Momo Mix)
TitleUnicode:WWW.BLONDE GIRL (Momo Mix)
Artist:JENNY ROM
ArtistUnicode:JENNY ROM
Creator:Blaster
Version:Lovely
Source:
Tags:
BeatmapID:1969829
BeatmapSetID:943231

[Difficulty]
HPDrainRate:8.5
CircleSize:4
OverallDifficulty:8.5
ApproachRate:5
SliderMultiplier:1.4
SliderTickRate:1

[Events]
//Background and Video events
0,0,"ez.jpg",0,0
//Break Periods
//Storyboard Layer 0 (Background)
//Storyboard Layer 1 (Fail)
//Storyboard Layer 2 (Pass)
//Storyboard Layer 3 (Foreground)
//Storyboard Sound Samples

[TimingPoints]
349,352.941176470588,4,2,0,5,1,0

[HitObjects]
64,192,349,5,0,0:0:0:0:
192,192,349,1,0,0:0:0:0:
320,192,437,1,0,0:0:0:0:
192,192,525,1,0,0:0:0:0:
448,192,525,1,0,0:0:0:0:
64,192,569,1,0,0:0:0:0:
320,192,613,1,0,0:0:0:0:
64,192,701,1,0,0:0:0:0:
192,192,701,1,0,0:0:0:0:
320,192,790,1,0,0:0:0:0:
192,192,834,1,0,0:0:0:0:
64,192,878,1,0,0:0:0:0:
448,192,922,1,0,0:0:0:0:
320,192,966,1,0,0:0:0:0:
192,192,1010,1,0,0:0:0:0:
448,192,1054,1,0,0:0:0:0:
64,192,1098,1,0,0:0:0:0:
192,192,1143,1,0,0:0:0:0:
320,192,1231,1,0,0:0:0:0:
448,192,1231,1,0,0:0:0:0:
192,192,1319,1,0,0:0:0:0:
64,192,1407,1,0,0:0:0:0:
64,192,1496,1,0,0:0:0:0:
192,192,1584,1,0,0:0:0:0:
192,192,1672,1,0,0:0:0:0:
320,192,1760,1,0,0:0:0:0:
448,192,1760,1,0,0:0:0:0:
192,192,1804,1,0,0:0:0:0:
320,192,1848,1,0,0:0:0:0:
448,192,1878,1,0,0:0:0:0:
64,192,1937,1,0,0:0:0:0:
192,192,1937,1,0,0:0:0:0:
192,192,2025,1,0,0:0:0:0:
448,192,2113,1,0,0:0:0:0:
320,192,2113,1,0,0:0:0:0:
192,192,2157,1,0,0:0:0:0:
64,192,2201,1,0,0:0:0:0:
320,192,2246,1,0,0:0:0:0:
448,192,2290,1,0,0:0:0:0:
64,192,2334,1,0,0:0:0:0:
192,192,2378,1,0,0:0:0:0:
320,192,2422,1,0,0:0:0:0:
64,192,2466,1,0,0:0:0:0:
192,192,2510,1,0,0:0:0:0:
448,192,2525,1,0,0:0:0:0:
320,192,2584,1,0,0:0:0:0:
64,192,2643,1,0,0:0:0:0:
448,192,2672,1,0,0:0:0:0:
320,192,2701,1,0,0:0:0:0:
192,192,2731,1,0,0:0:0:0:
448,192,2819,1,0,0:0:0:0:
320,192,2819,1,0,0:0:0:0:
64,192,2907,1,0,0:0:0:0:
448,192,2937,1,0,0:0:0:0:
192,192,2996,1,0,0:0:0:0:
320,192,2996,1,0,0:0:0:0:
64,192,3040,1,0,0:0:0:0:
448,192,3084,1,0,0:0:0:0:
320,192,3172,1,0,0:0:0:0:
64,192,3172,1,0,0:0:0:0:
192,192,3260,1,0,0:0:0:0:
64,192,3348,1,0,0:0:0:0:
320,192,3348,1,0,0:0:0:0:
448,192,3393,1,0,0:0:0:0:
192,192,3437,1,0,0:0:0:0:
320,192,3525,1,0,0:0:0:0:
448,192,3525,1,0,0:0:0:0:
192,192,3613,1,0,0:0:0:0:
320,192,3657,1,0,0:0:0:0:
448,192,3701,1,0,0:0:0:0:
64,192,3746,1,0,0:0:0:0:
192,192,3790,1,0,0:0:0:0:
320,192,3834,1,0,0:0:0:0:
64,192,3878,1,0,0:0:0:0:
448,192,3922,1,0,0:0:0:0:
320,192,3966,1,0,0:0:0:0:
64,192,4054,1,0,0:0:0:0:
192,192,4054,1,0,0:0:0:0:
320,192,4143,1,0,0:0:0:0:
320,192,4231,1,0,0:0:0:0:
448,192,4319,1,0,0:0:0:0:
448,192,4407,1,0,0:0:0:0:
320,192,4496,1,0,0:0:0:0:
64,192,4584,1,0,0:0:0:0:
192,192,4628,1,0,0:0:0:0:
448,192,4643,1,0,0:0:0:0:
320,192,4672,1,0,0:0:0:0:
64,192,4701,1,0,0:0:0:0:
192,192,4760,1,0,0:0:0:0:
448,192,4760,1,0,0:0:0:0:
320,192,4819,1,0,0:0:0:0:
448,192,4937,1,0,0:0:0:0:
320,192,4981,1,0,0:0:0:0:
64,192,4996,1,0,0:0:0:0:
192,192,5025,1,0,0:0:0:0:
448,192,5054,1,0,0:0:0:0:
64,192,5113,1,0,0:0:0:0:
320,192,5113,1,0,0:0:0:0:
192,192,5172,1,0,0:0:0:0:
320,192,5290,1,0,0:0:0:0:
448,192,5290,1,0,0:0:0:0:
192,192,5334,1,0,0:0:0:0:
320,192,5378,1,0,0:0:0:0:
448,192,5422,1,0,0:0:0:0:
192,192,5466,1,0,0:0:0:0:
64,192,5466,1,0,0:0:0:0:
320,192,5510,1,0,0:0:0:0:
192,192,5554,1,0,0:0:0:0:
448,192,5598,1,0,0:0:0:0:
64,192,5643,1,0,0:0:0:0:
320,192,5701,1,0,0:0:0:0:
64,192,5819,1,0,0:0:0:0:
192,192,5878,1,0,0:0:0:0:
320,192,5937,1,0,0:0:0:0:
64,192,5996,1,0,0:0:0:0:
192,192,5996,1,0,0:0:0:0:
320,192,6084,1,0,0:0:0:0:
192,192,6172,1,0,0:0:0:0:
448,192,6172,1,0,0:0:0:0:
64,192,6216,1,0,0:0:0:0:
192,192,6290,1,0,0:0:0:0:
320,192,6348,1,0,0:0:0:0:
448,192,6348,1,0,0:0:0:0:
192,192,6437,1,0,0:0:0:0:
448,192,6525,1,0,0:0:0:0:
320,192,6569,1,0,0:0:0:0:
192,192,6613,1,0,0:0:0:0:
64,192,6657,1,0,0:0:0:0:
448,192,6701,1,0,0:0:0:0:
320,192,6746,1,0,0:0:0:0:
64,192,6790,1,0,0:0:0:0:
192,192,6834,1,0,0:0:0:0:
320,192,6878,1,0,0:0:0:0:
448,192,6878,1,0,0:0:0:0:
192,192,6966,1,0,0:0:0:0:
192,192,7054,1,0,0:0:0:0:
64,192,7143,1,0,0:0:0:0:
64,192,7231,1,0,0:0:0:0:
448,192,7290,1,0,0:0:0:0:
320,192,7319,1,0,0:0:0:0:
192,192,7407,1,0,0:0:0:0:
64,192,7407,1,0,0:0:0:0:
320,192,7451,1,0,0:0:0:0:
192,192,7496,1,0,0:0:0:0:
448,192,7540,1,0,0:0:0:0:
320,192,7584,1,0,0:0:0:0:
64,192,7584,1,0,0:0:0:0:
192,192,7628,1,0,0:0:0:0:
448,192,7672,1,0,0:0:0:0:
320,192,7716,1,0,0:0:0:0:
64,192,7760,1,0,0:0:0:0:
192,192,7760,1,0,0:0:0:0:
448,192,7804,1,0,0:0:0:0:
320,192,7848,1,0,0:0:0:0:
64,192,7893,1,0,0:0:0:0:
192,192,7937,1,0,0:0:0:0:
320,192,7937,1,0,0:0:0:0:
448,192,7981,1,0,0:0:0:0:
64,192,8025,1,0,0:0:0:0:
192,192,8069,1,0,0:0:0:0:
320,192,8113,1,0,0:0:0:0:
448,192,8157,1,0,0:0:0:0:
64,192,8201,1,0,0:0:0:0:
192,192,8246,1,0,0:0:0:0:
320,192,8290,1,0,0:0:0:0:
64,192,8334,1,0,0:0:0:0:
448,192,8378,1,0,0:0:0:0:
320,192,8422,1,0,0:0:0:0:
192,192,8466,1,0,0:0:0:0:
64,192,8510,1,0,0:0:0:0:
320,192,8554,1,0,0:0:0:0:
192,192,8598,1,0,0:0:0:0:
320,192,8643,1,0,0:0:0:0:
448,192,8643,1,0,0:0:0:0:
64,192,8687,1,0,0:0:0:0:
192,192,8731,1,0,0:0:0:0:
320,192,8819,1,0,0:0:0:0:
192,192,8819,1,0,0:0:0:0:
64,192,8819,1,0,0:0:0:0:
448,192,8819,1,0,0:0:0:0:
320,192,8907,1,0,0:0:0:0:
448,192,8996,1,0,0:0:0:0:
192,192,8996,1,0,0:0:0:0:
64,192,8996,1,0,0:0:0:0:
320,192,9084,1,0,0:0:0:0:
64,192,9172,1,0,0:0:0:0:
448,192,9172,1,0,0:0:0:0:
192,192,9260,1,0,0:0:0:0:
320,192,9348,1,0,0:0:0:0:
448,192,9348,1,0,0:0:0:0:
64,192,9437,1,0,0:0:0:0:
64,192,9525,1,0,0:0:0:0:
192,192,9525,1,0,0:0:0:0:
320,192,9525,1,0,0:0:0:0:
448,192,9525,1,0,0:0:0:0:
192,192,9613,1,0,0:0:0:0:
64,192,9701,1,0,0:0:0:0:
320,192,9701,1,0,0:0:0:0:
448,192,9790,1,0,0:0:0:0:
64,192,9878,1,0,0:0:0:0:
448,192,9878,1,0,0:0:0:0:
320,192,9878,1,0,0:0:0:0:
192,192,9966,1,0,0:0:0:0:
320,192,10054,1,0,0:0:0:0:
64,192,10054,1,0,0:0:0:0:
448,192,10143,1,0,0:0:0:0:
64,192,10231,1,0,0:0:0:0:
192,192,10231,1,0,0:0:0:0:
320,192,10231,1,0,0:0:0:0:
448,192,10231,1,0,0:0:0:0:
64,192,10319,1,0,0:0:0:0:
192,192,10407,1,0,0:0:0:0:
320,192,10496,1,0,0:0:0:0:
448,192,10496,1,0,0:0:0:0:
192,192,10584,1,0,0:0:0:0:
64,192,10584,1,0,0:0:0:0:
320,192,10584,1,0,0:0:0:0:
448,192,10584,1,0,0:0:0:0:
64,192,10672,1,0,0:0:0:0:
192,192,10760,1,0,0:0:0:0:
320,192,10760,1,0,0:0:0:0:
448,192,10848,1,0,0:0:0:0:
64,192,10937,1,0,0:0:0:0:
192,192,10937,1,0,0:0:0:0:
320,192,10937,1,0,0:0:0:0:
448,192,10937,1,0,0:0:0:0:
192,192,11025,1,0,0:0:0:0:
64,192,11025,1,0,0:0:0:0:
320,192,11069,1,0,0:0:0:0:
448,192,11113,1,0,0:0:0:0:
64,192,11157,1,0,0:0:0:0:
192,192,11201,1,0,0:0:0:0:
320,192,11246,1,0,0:0:0:0:
448,192,11290,1,0,0:0:0:0:
64,192,11334,1,0,0:0:0:0:
192,192,11378,1,0,0:0:0:0:
320,192,11422,1,0,0:0:0:0:
448,192,11466,1,0,0:0:0:0:
64,192,11510,1,0,0:0:0:0:
192,192,11554,1,0,0:0:0:0:
320,192,11598,1,0,0:0:0:0:
448,192,11643,1,0,0:0:0:0:
64,192,11643,1,0,0:0:0:0:
320,192,11731,1,0,0:0:0:0:
448,192,11819,1,0,0:0:0:0:
192,192,11819,1,0,0:0:0:0:
320,192,11863,1,0,0:0:0:0:
64,192,11996,1,0,0:0:0:0:
448,192,11996,1,0,0:0:0:0:
192,192,12040,1,0,0:0:0:0:
448,192,12172,1,0,0:0:0:0:
320,192,12216,1,0,0:0:0:0:
192,192,12260,1,0,0:0:0:0:
448,192,12304,1,0,0:0:0:0:
64,192,12348,1,0,0:0:0:0:
320,192,12393,1,0,0:0:0:0:
192,192,12437,1,0,0:0:0:0:
448,192,12481,1,0,0:0:0:0:
320,192,12525,1,0,0:0:0:0:
192,192,12569,1,0,0:0:0:0:
448,192,12613,1,0,0:0:0:0:
64,192,12701,1,0,0:0:0:0:
192,192,12701,1,0,0:0:0:0:
320,192,12790,1,0,0:0:0:0:
448,192,12878,1,0,0:0:0:0:
320,192,12878,1,0,0:0:0:0:
192,192,12937,1,0,0:0:0:0:
64,192,12966,1,0,0:0:0:0:
448,192,13054,1,0,0:0:0:0:
192,192,13143,1,0,0:0:0:0:
448,192,13231,1,0,0:0:0:0:
320,192,13275,1,0,0:0:0:0:
192,192,13319,1,0,0:0:0:0:
64,192,13407,1,0,0:0:0:0:
448,192,13451,1,0,0:0:0:0:
320,192,13466,1,0,0:0:0:0:
192,192,13496,1,0,0:0:0:0:
64,192,13540,1,0,0:0:0:0:
448,192,13584,1,0,0:0:0:0:
320,192,13628,1,0,0:0:0:0:
192,192,13672,1,0,0:0:0:0:
64,192,13716,1,0,0:0:0:0:
320,192,13760,1,0,0:0:0:0:
448,192,13760,1,0,0:0:0:0:
192,192,13819,1,0,0:0:0:0:
64,192,13878,1,0,0:0:0:0:
320,192,13878,1,0,0:0:0:0:
448,192,13937,1,0,0:0:0:0:
64,192,13996,1,0,0:0:0:0:
192,192,13996,1,0,0:0:0:0:
320,192,14054,1,0,0:0:0:0:
448,192,14113,1,0,0:0:0:0:
64,192,14113,1,0,0:0:0:0:
192,192,14172,1,0,0:0:0:0:
448,192,14231,1,0,0:0:0:0:
320,192,14231,1,0,0:0:0:0:
64,192,14290,1,0,0:0:0:0:
192,192,14348,1,0,0:0:0:0:
320,192,14348,1,0,0:0:0:0:
448,192,14407,1,0,0:0:0:0:
64,192,14466,1,0,0:0:0:0:
64,192,14554,1,0,0:0:0:0:
192,192,14643,1,0,0:0:0:0:
192,192,14731,1,0,0:0:0:0:
320,192,14819,1,0,0:0:0:0:
448,192,14819,1,0,0:0:0:0:
192,192,14878,1,0,0:0:0:0:
64,192,14907,1,0,0:0:0:0:
448,192,14996,1,0,0:0:0:0:
320,192,15040,1,0,0:0:0:0:
192,192,15084,1,0,0:0:0:0:
448,192,15128,1,0,0:0:0:0:
64,192,15172,1,0,0:0:0:0:
192,192,15216,1,0,0:0:0:0:
320,192,15260,1,0,0:0:0:0:
64,192,15304,1,0,0:0:0:0:
448,192,15348,1,0,0:0:0:0:
320,192,15393,1,0,0:0:0:0:
192,192,15437,1,0,0:0:0:0:
448,192,15525,1,0,0:0:0:0:
320,192,15525,1,0,0:0:0:0:
192,192,15613,1,0,0:0:0:0:
64,192,15701,1,0,0:0:0:0:
448,192,15701,1,0,0:0:0:0:
192,192,15746,1,0,0:0:0:0:
320,192,15790,1,0,0:0:0:0:
448,192,15878,1,0,0:0:0:0:
64,192,15922,1,0,0:0:0:0:
320,192,15966,1,0,0:0:0:0:
192,192,15966,1,0,0:0:0:0:
448,192,16054,1,0,0:0:0:0:
320,192,16098,1,0,0:0:0:0:
64,192,16187,1,0,0:0:0:0:
192,192,16231,1,0,0:0:0:0:
320,192,16231,1,0,0:0:0:0:
448,192,16275,1,0,0:0:0:0:
64,192,16319,1,0,0:0:0:0:
320,192,16363,1,0,0:0:0:0:
192,192,16407,1,0,0:0:0:0:
448,192,16451,1,0,0:0:0:0:
64,192,16496,1,0,0:0:0:0:
320,192,16496,1,0,0:0:0:0:
64,192,16584,1,0,0:0:0:0:
192,192,16584,1,0,0:0:0:0:
320,192,16584,1,0,0:0:0:0:
448,192,16584,1,0,0:0:0:0:
448,192,16672,1,0,0:0:0:0:
192,192,16672,1,0,0:0:0:0:
320,192,16760,1,0,0:0:0:0:
448,192,16848,1,0,0:0:0:0:
192,192,16848,1,0,0:0:0:0:
64,192,16937,1,0,0:0:0:0:
448,192,16937,1,0,0:0:0:0:
320,192,16937,1,0,0:0:0:0:
192,192,16937,1,0,0:0:0:0:
64,192,17025,1,0,0:0:0:0:
320,192,17025,1,0,0:0:0:0:
192,192,17113,1,0,0:0:0:0:
320,192,17201,1,0,0:0:0:0:
448,192,17201,1,0,0:0:0:0:
192,192,17290,1,0,0:0:0:0:
320,192,17348,1,0,0:0:0:0:
192,192,17407,1,0,0:0:0:0:
64,192,17407,1,0,0:0:0:0:
320,192,17466,1,0,0:0:0:0:
448,192,17525,1,0,0:0:0:0:
192,192,17525,1,0,0:0:0:0:
64,192,17584,1,0,0:0:0:0:
320,192,17643,1,0,0:0:0:0:
448,192,17643,1,0,0:0:0:0:
192,192,17701,1,0,0:0:0:0:
64,192,17760,1,0,0:0:0:0:
320,192,17760,1,0,0:0:0:0:
448,192,17819,1,0,0:0:0:0:
64,192,17863,1,0,0:0:0:0:
320,192,17907,1,0,0:0:0:0:
192,192,17951,1,0,0:0:0:0:
320,192,17996,1,0,0:0:0:0:
64,192,18040,1,0,0:0:0:0:
448,192,18084,1,0,0:0:0:0:
192,192,18128,1,0,0:0:0:0:
64,192,18172,1,0,0:0:0:0:
320,192,18216,1,0,0:0:0:0:
192,192,18260,1,0,0:0:0:0:
320,192,18348,1,0,0:0:0:0:
448,192,18348,1,0,0:0:0:0:
192,192,18407,1,0,0:0:0:0:
64,192,18466,1,0,0:0:0:0:
320,192,18525,1,0,0:0:0:0:
448,192,18584,1,0,0:0:0:0:
192,192,18584,1,0,0:0:0:0:
320,192,18701,1,0,0:0:0:0:
192,192,18701,1,0,0:0:0:0:
448,192,18819,1,0,0:0:0:0:
64,192,18819,1,0,0:0:0:0:
320,192,18878,1,0,0:0:0:0:
448,192,18937,1,0,0:0:0:0:
192,192,18937,1,0,0:0:0:0:
64,192,18966,1,0,0:0:0:0:
448,192,19054,1,0,0:0:0:0:
320,192,19113,1,0,0:0:0:0:
192,192,19113,1,0,0:0:0:0:
64,192,19172,1,0,0:0:0:0:
448,192,19231,1,0,0:0:0:0:
320,192,19231,1,0,0:0:0:0:
192,192,19290,1,0,0:0:0:0:
64,192,19348,1,0,0:0:0:0:
448,192,19348,1,0,0:0:0:0:
320,192,19407,1,0,0:0:0:0:
192,192,19466,1,0,0:0:0:0:
64,192,19466,1,0,0:0:0:0:
320,192,19525,1,0,0:0:0:0:
448,192,19584,1,0,0:0:0:0:
192,192,19584,1,0,0:0:0:0:
64,192,19643,1,0,0:0:0:0:
320,192,19701,1,0,0:0:0:0:
448,192,19701,1,0,0:0:0:0:
192,192,19760,1,0,0:0:0:0:
64,192,19819,1,0,0:0:0:0:
320,192,19819,1,0,0:0:0:0:
448,192,19878,1,0,0:0:0:0:
64,192,19937,1,0,0:0:0:0:
192,192,19937,1,0,0:0:0:0:
320,192,19996,1,0,0:0:0:0:
448,192,20054,1,0,0:0:0:0:
64,192,20113,1,0,0:0:0:0:
192,192,20157,1,0,0:0:0:0:
320,192,20201,1,0,0:0:0:0:
448,192,20246,1,0,0:0:0:0:
64,192,20290,1,0,0:0:0:0:
320,192,20334,1,0,0:0:0:0:
192,192,20378,1,0,0:0:0:0:
448,192,20422,1,0,0:0:0:0:
320,192,20466,1,0,0:0:0:0:
192,192,20510,1,0,0:0:0:0:
448,192,20554,1,0,0:0:0:0:
320,192,20598,1,0,0:0:0:0:
64,192,20643,1,0,0:0:0:0:
192,192,20687,1,0,0:0:0:0:
320,192,20731,1,0,0:0:0:0:
448,192,20775,1,0,0:0:0:0:
64,192,20819,1,0,0:0:0:0:
192,192,20863,1,0,0:0:0:0:
320,192,20907,1,0,0:0:0:0:
448,192,20951,1,0,0:0:0:0:
64,192,20996,1,0,0:0:0:0:
320,192,21040,1,0,0:0:0:0:
192,192,21084,1,0,0:0:0:0:
448,192,21128,1,0,0:0:0:0:
64,192,21172,1,0,0:0:0:0:
320,192,21172,1,0,0:0:0:0:
448,192,21231,1,0,0:0:0:0:
192,192,21260,1,0,0:0:0:0:
448,192,21348,1,0,0:0:0:0:
64,192,21348,1,0,0:0:0:0:
320,192,21407,1,0,0:0:0:0:
64,192,21525,1,0,0:0:0:0:
192,192,21525,1,0,0:0:0:0:
320,192,21643,1,0,0:0:0:0:
448,192,21701,1,0,0:0:0:0:
192,192,21701,1,0,0:0:0:0:
64,192,21760,1,0,0:0:0:0:
192,192,21878,1,0,0:0:0:0:
448,192,21878,1,0,0:0:0:0:
64,192,21878,1,0,0:0:0:0:
320,192,21966,1,0,0:0:0:0:
192,192,22054,1,0,0:0:0:0:
448,192,22054,1,0,0:0:0:0:
64,192,22143,1,0,0:0:0:0:
320,192,22231,1,0,0:0:0:0:
64,192,22231,1,0,0:0:0:0:
192,192,22231,1,0,0:0:0:0:
448,192,22231,1,0,0:0:0:0:
192,192,22319,1,0,0:0:0:0:
448,192,22319,1,0,0:0:0:0:
320,192,22407,1,0,0:0:0:0:
192,192,22496,1,0,0:0:0:0:
448,192,22496,1,0,0:0:0:0:
64,192,22584,1,0,0:0:0:0:
192,192,22584,1,0,0:0:0:0:
320,192,22584,1,0,0:0:0:0:
448,192,22584,1,0,0:0:0:0:
64,192,22672,1,0,0:0:0:0:
448,192,22672,1,0,0:0:0:0:
320,192,22760,1,0,0:0:0:0:
448,192,22848,1,0,0:0:0:0:
192,192,22848,1,0,0:0:0:0:
64,192,22937,1,0,0:0:0:0:
192,192,22981,1,0,0:0:0:0:
320,192,23025,1,0,0:0:0:0:
448,192,23069,1,0,0:0:0:0:
192,192,23113,1,0,0:0:0:0:
320,192,23157,1,0,0:0:0:0:
64,192,23201,1,0,0:0:0:0:
192,192,23290,1,0,0:0:0:0:
448,192,23290,1,0,0:0:0:0:
320,192,23334,1,0,0:0:0:0:
448,192,23378,1,0,0:0:0:0:
64,192,23466,1,0,0:0:0:0:
192,192,23466,1,0,0:0:0:0:
320,192,23510,1,0,0:0:0:0:
448,192,23643,1,0,0:0:0:0:
320,192,23687,1,0,0:0:0:0:
64,192,23775,1,0,0:0:0:0:
320,192,23819,1,0,0:0:0:0:
192,192,23863,1,0,0:0:0:0:
64,192,23996,1,0,0:0:0:0:
320,192,23996,1,0,0:0:0:0:
192,192,24040,1,0,0:0:0:0:
320,192,24084,1,0,0:0:0:0:
448,192,24172,1,0,0:0:0:0:
320,192,24172,1,0,0:0:0:0:
192,192,24216,1,0,0:0:0:0:
64,192,24216,1,0,0:0:0:0:
320,192,24260,1,0,0:0:0:0:
448,192,24348,1,0,0:0:0:0:
320,192,24407,1,0,0:0:0:0:
192,192,24466,1,0,0:0:0:0:
64,192,24569,1,0,0:0:0:0:
448,192,24701,1,0,0:0:0:0:
64,192,24746,1,0,0:0:0:0:
192,192,24790,1,0,0:0:0:0:
320,192,24834,1,0,0:0:0:0:
448,192,24878,1,0,0:0:0:0:
64,192,24922,1,0,0:0:0:0:
192,192,24966,1,0,0:0:0:0:
320,192,25010,1,0,0:0:0:0:
64,192,25054,1,0,0:0:0:0:
448,192,25098,1,0,0:0:0:0:
320,192,25143,1,0,0:0:0:0:
192,192,25187,1,0,0:0:0:0:
64,192,25231,1,0,0:0:0:0:
448,192,25275,1,0,0:0:0:0:
320,192,25319,1,0,0:0:0:0:
192,192,25363,1,0,0:0:0:0:
64,192,25407,1,0,0:0:0:0:
320,192,25451,1,0,0:0:0:0:
448,192,25451,1,0,0:0:0:0:
192,192,25540,1,0,0:0:0:0:
64,192,25584,1,0,0:0:0:0:
192,192,25672,1,0,0:0:0:0:
448,192,25760,1,0,0:0:0:0:
320,192,25804,1,0,0:0:0:0:
192,192,25848,1,0,0:0:0:0:
64,192,25893,1,0,0:0:0:0:
320,192,25937,1,0,0:0:0:0:
192,192,25981,1,0,0:0:0:0:
448,192,26025,1,0,0:0:0:0:
320,192,26113,1,0,0:0:0:0:
64,192,26113,1,0,0:0:0:0:
192,192,26157,1,0,0:0:0:0:
64,192,26201,1,0,0:0:0:0:
448,192,26290,1,0,0:0:0:0:
320,192,26290,1,0,0:0:0:0:
192,192,26334,1,0,0:0:0:0:
64,192,26466,1,0,0:0:0:0:
192,192,26510,1,0,0:0:0:0:
320,192,26554,1,0,0:0:0:0:
448,192,26598,1,0,0:0:0:0:
192,192,26643,1,0,0:0:0:0:
320,192,26687,1,0,0:0:0:0:
64,192,26731,1,0,0:0:0:0:
448,192,26819,1,0,0:0:0:0:
192,192,26819,1,0,0:0:0:0:
320,192,26863,1,0,0:0:0:0:
192,192,26907,1,0,0:0:0:0:
320,192,26996,1,0,0:0:0:0:
448,192,26996,1,0,0:0:0:0:
192,192,27040,1,0,0:0:0:0:
64,192,27172,1,0,0:0:0:0:
320,192,27172,1,0,0:0:0:0:
448,192,27260,1,0,0:0:0:0:
64,192,27348,1,0,0:0:0:0:
192,192,27348,1,0,0:0:0:0:
320,192,27393,1,0,0:0:0:0:
448,192,27437,1,0,0:0:0:0:
64,192,27481,1,0,0:0:0:0:
192,192,27525,1,0,0:0:0:0:
448,192,27569,1,0,0:0:0:0:
64,192,27613,1,0,0:0:0:0:
320,192,27657,1,0,0:0:0:0:
192,192,27701,1,0,0:0:0:0:
64,192,27746,1,0,0:0:0:0:
448,192,27790,1,0,0:0:0:0:
320,192,27834,1,0,0:0:0:0:
64,192,27878,1,0,0:0:0:0:
192,192,27922,1,0,0:0:0:0:
320,192,27966,1,0,0:0:0:0:
64,192,28010,1,0,0:0:0:0:
448,192,28054,1,0,0:0:0:0:
192,192,28098,1,0,0:0:0:0:
320,192,28143,1,0,0:0:0:0:
448,192,28231,1,0,0:0:0:0:
192,192,28231,1,0,0:0:0:0:
320,192,28275,1,0,0:0:0:0:
192,192,28319,1,0,0:0:0:0:
64,192,28407,1,0,0:0:0:0:
320,192,28407,1,0,0:0:0:0:
192,192,28451,1,0,0:0:0:0:
320,192,28496,1,0,0:0:0:0:
64,192,28584,1,0,0:0:0:0:
192,192,28628,1,0,0:0:0:0:
320,192,28672,1,0,0:0:0:0:
448,192,28716,1,0,0:0:0:0:
192,192,28760,1,0,0:0:0:0:
320,192,28804,1,0,0:0:0:0:
64,192,28848,1,0,0:0:0:0:
192,192,28937,1,0,0:0:0:0:
448,192,28937,1,0,0:0:0:0:
320,192,28981,1,0,0:0:0:0:
448,192,29025,1,0,0:0:0:0:
64,192,29113,1,0,0:0:0:0:
192,192,29113,1,0,0:0:0:0:
320,192,29157,1,0,0:0:0:0:
448,192,29290,1,0,0:0:0:0:
320,192,29334,1,0,0:0:0:0:
192,192,29378,1,0,0:0:0:0:
64,192,29422,1,0,0:0:0:0:
320,192,29466,1,0,0:0:0:0:
192,192,29510,1,0,0:0:0:0:
448,192,29554,1,0,0:0:0:0:
64,192,29643,1,0,0:0:0:0:
320,192,29643,1,0,0:0:0:0:
192,192,29687,1,0,0:0:0:0:
320,192,29731,1,0,0:0:0:0:
64,192,29819,1,0,0:0:0:0:
192,192,29819,1,0,0:0:0:0:
320,192,29863,1,0,0:0:0:0:
192,192,29996,1,0,0:0:0:0:
448,192,29996,1,0,0:0:0:0:
64,192,30054,1,0,0:0:0:0:
192,192,30128,1,0,0:0:0:0:
448,192,30172,1,0,0:0:0:0:
64,192,30216,1,0,0:0:0:0:
192,192,30260,1,0,0:0:0:0:
448,192,30304,1,0,0:0:0:0:
64,192,30348,1,0,0:0:0:0:
320,192,30393,1,0,0:0:0:0:
192,192,30437,1,0,0:0:0:0:
448,192,30481,1,0,0:0:0:0:
320,192,30525,1,0,0:0:0:0:
64,192,30569,1,0,0:0:0:0:
192,192,30613,1,0,0:0:0:0:
320,192,30657,1,0,0:0:0:0:
64,192,30701,1,0,0:0:0:0:
448,192,30746,1,0,0:0:0:0:
192,192,30790,1,0,0:0:0:0:
320,192,30834,1,0,0:0:0:0:
64,192,30878,1,0,0:0:0:0:
192,192,30922,1,0,0:0:0:0:
320,192,30966,1,0,0:0:0:0:
448,192,31010,1,0,0:0:0:0:
64,192,31054,1,0,0:0:0:0:
192,192,31054,1,0,0:0:0:0:
320,192,31098,1,0,0:0:0:0:
448,192,31143,1,0,0:0:0:0:
64,192,31231,1,0,0:0:0:0:
320,192,31231,1,0,0:0:0:0:
192,192,31275,1,0,0:0:0:0:
320,192,31319,1,0,0:0:0:0:
64,192,31407,1,0,0:0:0:0:
192,192,31407,1,0,0:0:0:0:
448,192,31407,1,0,0:0:0:0:
320,192,31496,1,0,0:0:0:0:
192,192,31584,1,0,0:0:0:0:
448,192,31584,1,0,0:0:0:0:
64,192,31672,1,0,0:0:0:0:
448,192,31760,1,0,0:0:0:0:
320,192,31760,1,0,0:0:0:0:
64,192,31760,1,0,0:0:0:0:
192,192,31848,1,0,0:0:0:0:
448,192,31937,1,0,0:0:0:0:
64,192,31937,1,0,0:0:0:0:
192,192,32025,1,0,0:0:0:0:
64,192,32113,1,0,0:0:0:0:
192,192,32113,1,0,0:0:0:0:
448,192,32113,1,0,0:0:0:0:
320,192,32201,1,0,0:0:0:0:
192,192,32290,1,0,0:0:0:0:
448,192,32290,1,0,0:0:0:0:
64,192,32378,1,0,0:0:0:0:
64,192,32466,1,0,0:0:0:0:
192,192,32466,1,0,0:0:0:0:
320,192,32466,1,0,0:0:0:0:
448,192,32466,1,0,0:0:0:0:
448,192,32554,1,0,0:0:0:0:
320,192,32643,1,0,0:0:0:0:
192,192,32643,1,0,0:0:0:0:
64,192,32731,1,0,0:0:0:0:
64,192,32819,1,0,0:0:0:0:
192,192,32819,1,0,0:0:0:0:
448,192,32819,1,0,0:0:0:0:
320,192,32819,1,0,0:0:0:0:
320,192,32907,1,0,0:0:0:0:
64,192,32996,1,0,0:0:0:0:
192,192,32996,1,0,0:0:0:0:
320,192,33054,1,0,0:0:0:0:
448,192,33172,1,0,0:0:0:0:
192,192,33172,1,0,0:0:0:0:
320,192,33231,1,0,0:0:0:0:
64,192,33348,1,0,0:0:0:0:
320,192,33348,1,0,0:0:0:0:
192,192,33407,1,0,0:0:0:0:
320,192,33466,1,0,0:0:0:0:
448,192,33525,1,0,0:0:0:0:
64,192,33569,1,0,0:0:0:0:
320,192,33613,1,0,0:0:0:0:
192,192,33657,1,0,0:0:0:0:
64,192,33701,1,0,0:0:0:0:
448,192,33746,1,0,0:0:0:0:
320,192,33790,1,0,0:0:0:0:
192,192,33834,1,0,0:0:0:0:
64,192,33878,1,0,0:0:0:0:
448,192,33922,1,0,0:0:0:0:
320,192,33966,1,0,0:0:0:0:
192,192,34010,1,0,0:0:0:0:
64,192,34054,1,0,0:0:0:0:
448,192,34098,1,0,0:0:0:0:
320,192,34143,1,0,0:0:0:0:
192,192,34187,1,0,0:0:0:0:
448,192,34231,1,0,0:0:0:0:
64,192,34275,1,0,0:0:0:0:
320,192,34319,1,0,0:0:0:0:
192,192,34363,1,0,0:0:0:0:
448,192,34407,1,0,0:0:0:0:
64,192,34451,1,0,0:0:0:0:
192,192,34496,1,0,0:0:0:0:
448,192,34540,1,0,0:0:0:0:
64,192,34584,1,0,0:0:0:0:
320,192,34628,1,0,0:0:0:0:
192,192,34672,1,0,0:0:0:0:
448,192,34716,1,0,0:0:0:0:
320,192,34760,1,0,0:0:0:0:
64,192,34804,1,0,0:0:0:0:
192,192,34848,1,0,0:0:0:0:
320,192,34893,1,0,0:0:0:0:
64,192,34937,1,0,0:0:0:0:
448,192,34981,1,0,0:0:0:0:
320,192,35025,1,0,0:0:0:0:
192,192,35069,1,0,0:0:0:0:
64,192,35113,1,0,0:0:0:0:
320,192,35157,1,0,0:0:0:0:
192,192,35201,1,0,0:0:0:0:
448,192,35246,1,0,0:0:0:0:
64,192,35246,1,0,0:0:0:0:
320,192,35334,1,0,0:0:0:0:
192,192,35334,1,0,0:0:0:0:
448,192,35378,1,0,0:0:0:0:
64,192,35466,1,0,0:0:0:0:
448,192,35510,1,0,0:0:0:0:
192,192,35554,1,0,0:0:0:0:
320,192,35598,1,0,0:0:0:0:
448,192,35643,1,0,0:0:0:0:
64,192,35687,1,0,0:0:0:0:
192,192,35731,1,0,0:0:0:0:
320,192,35775,1,0,0:0:0:0:
64,192,35819,1,0,0:0:0:0:
448,192,35863,1,0,0:0:0:0:
192,192,35907,1,0,0:0:0:0:
320,192,35951,1,0,0:0:0:0:
64,192,35996,1,0,0:0:0:0:
192,192,36040,1,0,0:0:0:0:
448,192,36084,1,0,0:0:0:0:
320,192,36128,1,0,0:0:0:0:
192,192,36172,1,0,0:0:0:0:
448,192,36216,1,0,0:0:0:0:
320,192,36260,1,0,0:0:0:0:
64,192,36304,1,0,0:0:0:0:
192,192,36393,1,0,0:0:0:0:
320,192,36437,1,0,0:0:0:0:
448,192,36481,1,0,0:0:0:0:
64,192,36481,1,0,0:0:0:0:
192,192,36525,1,0,0:0:0:0:
448,192,36613,1,0,0:0:0:0:
320,192,36613,1,0,0:0:0:0:
64,192,36701,1,0,0:0:0:0:
192,192,36701,1,0,0:0:0:0:
448,192,36746,1,0,0:0:0:0:
320,192,36790,1,0,0:0:0:0:
64,192,36878,1,0,0:0:0:0:
320,192,36922,1,0,0:0:0:0:
192,192,36966,1,0,0:0:0:0:
448,192,37010,1,0,0:0:0:0:
320,192,37054,1,0,0:0:0:0:
64,192,37098,1,0,0:0:0:0:
192,192,37143,1,0,0:0:0:0:
320,192,37187,1,0,0:0:0:0:
448,192,37231,1,0,0:0:0:0:
192,192,37275,1,0,0:0:0:0:
320,192,37319,1,0,0:0:0:0:
64,192,37363,1,0,0:0:0:0:
192,192,37407,1,0,0:0:0:0:
448,192,37451,1,0,0:0:0:0:
320,192,37496,1,0,0:0:0:0:
192,192,37540,1,0,0:0:0:0:
64,192,37584,1,0,0:0:0:0:
448,192,37628,1,0,0:0:0:0:
192,192,37672,1,0,0:0:0:0:
320,192,37716,1,0,0:0:0:0:
64,192,37760,1,0,0:0:0:0:
448,192,37804,1,0,0:0:0:0:
192,192,37848,1,0,0:0:0:0:
320,192,37893,1,0,0:0:0:0:
64,192,37937,1,0,0:0:0:0:
192,192,37981,1,0,0:0:0:0:
320,192,38025,1,0,0:0:0:0:
448,192,38069,1,0,0:0:0:0:
64,192,38113,1,0,0:0:0:0:
192,192,38157,1,0,0:0:0:0:
320,192,38201,1,0,0:0:0:0:
320,192,38290,1,0,0:0:0:0:
192,192,38290,1,0,0:0:0:0:
64,192,38290,1,0,0:0:0:0:
448,192,38290,1,0,0:0:0:0:
192,192,38378,1,0,0:0:0:0:
64,192,38466,1,0,0:0:0:0:
320,192,38466,1,0,0:0:0:0:
448,192,38554,1,0,0:0:0:0:
64,192,38643,1,0,0:0:0:0:
192,192,38643,1,0,0:0:0:0:
320,192,38643,1,0,0:0:0:0:
448,192,38643,1,0,0:0:0:0:
320,192,38731,1,0,0:0:0:0:
192,192,38819,1,0,0:0:0:0:
448,192,38819,1,0,0:0:0:0:
64,192,38907,1,0,0:0:0:0:
64,192,38996,1,0,0:0:0:0:
320,192,38996,1,0,0:0:0:0:
192,192,38996,1,0,0:0:0:0:
448,192,38996,1,0,0:0:0:0:
192,192,39084,1,0,0:0:0:0:
64,192,39172,1,0,0:0:0:0:
320,192,39172,1,0,0:0:0:0:
448,192,39260,1,0,0:0:0:0:
448,192,39348,1,0,0:0:0:0:
192,192,39348,1,0,0:0:0:0:
64,192,39348,1,0,0:0:0:0:
320,192,39348,1,0,0:0:0:0:
192,192,39437,1,0,0:0:0:0:
64,192,39437,1,0,0:0:0:0:
320,192,39525,1,0,0:0:0:0:
448,192,39525,1,0,0:0:0:0:
192,192,39613,1,0,0:0:0:0:
320,192,39613,1,0,0:0:0:0:
64,192,39701,1,0,0:0:0:0:
320,192,39701,1,0,0:0:0:0:
192,192,39790,1,0,0:0:0:0:
448,192,39878,1,0,0:0:0:0:
320,192,39922,1,0,0:0:0:0:
192,192,39966,1,0,0:0:0:0:
64,192,40010,1,0,0:0:0:0:
448,192,40054,1,0,0:0:0:0:
192,192,40098,1,0,0:0:0:0:
320,192,40143,1,0,0:0:0:0:
64,192,40187,1,0,0:0:0:0:
192,192,40231,1,0,0:0:0:0:
320,192,40275,1,0,0:0:0:0:
448,192,40319,1,0,0:0:0:0:
64,192,40363,1,0,0:0:0:0:
192,192,40407,1,0,0:0:0:0:
320,192,40451,1,0,0:0:0:0:
448,192,40496,1,0,0:0:0:0:
192,192,40584,1,0,0:0:0:0:
320,192,40628,1,0,0:0:0:0:
64,192,40672,1,0,0:0:0:0:
192,192,40716,1,0,0:0:0:0:
320,192,40760,1,0,0:0:0:0:
448,192,40760,1,0,0:0:0:0:
64,192,40804,1,0,0:0:0:0:
320,192,40848,1,0,0:0:0:0:
192,192,40893,1,0,0:0:0:0:
448,192,40893,1,0,0:0:0:0:
64,192,40981,1,0,0:0:0:0:
448,192,41025,1,0,0:0:0:0:
64,192,41113,1,0,0:0:0:0:
320,192,41157,1,0,0:0:0:0:
192,192,41201,1,0,0:0:0:0:
448,192,41246,1,0,0:0:0:0:
320,192,41290,1,0,0:0:0:0:
64,192,41334,1,0,0:0:0:0:
192,192,41378,1,0,0:0:0:0:
320,192,41422,1,0,0:0:0:0:
448,192,41466,1,0,0:0:0:0:
64,192,41510,1,0,0:0:0:0:
320,192,41554,1,0,0:0:0:0:
192,192,41598,1,0,0:0:0:0:
448,192,41643,1,0,0:0:0:0:
320,192,41687,1,0,0:0:0:0:
192,192,41731,1,0,0:0:0:0:
64,192,41775,1,0,0:0:0:0:
320,192,41819,1,0,0:0:0:0:
192,192,41863,1,0,0:0:0:0:
448,192,41907,1,0,0:0:0:0:
64,192,41951,1,0,0:0:0:0:
192,192,41996,1,0,0:0:0:0:
320,192,42040,1,0,0:0:0:0:
448,192,42084,1,0,0:0:0:0:
192,192,42128,1,0,0:0:0:0:
320,192,42172,1,0,0:0:0:0:
64,192,42216,1,0,0:0:0:0:
192,192,42260,1,0,0:0:0:0:
320,192,42304,1,0,0:0:0:0:
448,192,42348,1,0,0:0:0:0:
64,192,42393,1,0,0:0:0:0:
192,192,42393,1,0,0:0:0:0:
320,192,42437,1,0,0:0:0:0:
192,192,42569,1,0,0:0:0:0:
320,192,42613,1,0,0:0:0:0:
64,192,42657,1,0,0:0:0:0:
192,192,42701,1,0,0:0:0:0:
448,192,42701,1,0,0:0:0:0:
320,192,42746,1,0,0:0:0:0:
64,192,42790,1,0,0:0:0:0:
192,192,42834,1,0,0:0:0:0:
320,192,42878,1,0,0:0:0:0:
64,192,42922,1,0,0:0:0:0:
448,192,42966,1,0,0:0:0:0:
320,192,43010,1,0,0:0:0:0:
192,192,43054,1,0,0:0:0:0:
64,192,43098,1,0,0:0:0:0:
448,192,43143,1,0,0:0:0:0:
320,192,43187,1,0,0:0:0:0:
64,192,43231,1,0,0:0:0:0:
192,192,43275,1,0,0:0:0:0:
320,192,43319,1,0,0:0:0:0:
64,192,43363,1,0,0:0:0:0:
448,192,43407,1,0,0:0:0:0:
192,192,43407,1,0,0:0:0:0:
320,192,43451,1,0,0:0:0:0:
64,192,43496,1,0,0:0:0:0:
192,192,43540,1,0,0:0:0:0:
320,192,43584,1,0,0:0:0:0:
448,192,43628,1,0,0:0:0:0:
192,192,43716,1,0,0:0:0:0:
320,192,43760,1,0,0:0:0:0:
64,192,43804,1,0,0:0:0:0:
192,192,43848,1,0,0:0:0:0:
320,192,43893,1,0,0:0:0:0:
64,192,43937,1,0,0:0:0:0:
448,192,43981,1,0,0:0:0:0:
192,192,44025,1,0,0:0:0:0:
64,192,44113,1,0,0:0:0:0:
192,192,44113,1,0,0:0:0:0:
320,192,44113,1,0,0:0:0:0:
448,192,44113,1,0,0:0:0:0:
320,192,44201,1,0,0:0:0:0:
192,192,44290,1,0,0:0:0:0:
448,192,44290,1,0,0:0:0:0:
64,192,44378,1,0,0:0:0:0:
64,192,44466,1,0,0:0:0:0:
192,192,44466,1,0,0:0:0:0:
320,192,44466,1,0,0:0:0:0:
448,192,44466,1,0,0:0:0:0:
192,192,44554,1,0,0:0:0:0:
64,192,44643,1,0,0:0:0:0:
320,192,44643,1,0,0:0:0:0:
448,192,44731,1,0,0:0:0:0:
64,192,44819,1,0,0:0:0:0:
192,192,44819,1,0,0:0:0:0:
320,192,44819,1,0,0:0:0:0:
448,192,44819,1,0,0:0:0:0:
320,192,44907,1,0,0:0:0:0:
192,192,44996,1,0,0:0:0:0:
448,192,44996,1,0,0:0:0:0:
64,192,45084,1,0,0:0:0:0:
64,192,45172,1,0,0:0:0:0:
320,192,45172,1,0,0:0:0:0:
448,192,45172,1,0,0:0:0:0:
192,192,45172,1,0,0:0:0:0:
192,192,45260,1,0,0:0:0:0:
64,192,45348,1,0,0:0:0:0:
320,192,45348,1,0,0:0:0:0:
448,192,45437,1,0,0:0:0:0:
64,192,45525,1,0,0:0:0:0:
448,192,45569,1,0,0:0:0:0:
192,192,45613,1,0,0:0:0:0:
320,192,45657,1,0,0:0:0:0:
64,192,45701,1,0,0:0:0:0:
448,192,45746,1,0,0:0:0:0:
320,192,45790,1,0,0:0:0:0:
64,192,45834,1,0,0:0:0:0:
448,192,45878,1,0,0:0:0:0:
192,192,45922,1,0,0:0:0:0:
320,192,45966,1,0,0:0:0:0:
64,192,46010,1,0,0:0:0:0:
192,192,46054,1,0,0:0:0:0:
448,192,46098,1,0,0:0:0:0:
320,192,46143,1,0,0:0:0:0:
192,192,46187,1,0,0:0:0:0:
448,192,46231,1,0,0:0:0:0:
64,192,46275,1,0,0:0:0:0:
192,192,46319,1,0,0:0:0:0:
320,192,46363,1,0,0:0:0:0:
448,192,46407,1,0,0:0:0:0:
192,192,46451,1,0,0:0:0:0:
320,192,46496,1,0,0:0:0:0:
64,192,46540,1,0,0:0:0:0:
448,192,46540,1,0,0:0:0:0:
192,192,46628,1,0,0:0:0:0:
320,192,46628,1,0,0:0:0:0:
64,192,46672,1,0,0:0:0:0:
448,192,46760,1,0,0:0:0:0:
64,192,46804,1,0,0:0:0:0:
320,192,46848,1,0,0:0:0:0:
192,192,46893,1,0,0:0:0:0:
64,192,46937,1,0,0:0:0:0:
448,192,46981,1,0,0:0:0:0:
320,192,47025,1,0,0:0:0:0:
192,192,47069,1,0,0:0:0:0:
448,192,47113,1,0,0:0:0:0:
64,192,47157,1,0,0:0:0:0:
320,192,47201,1,0,0:0:0:0:
192,192,47246,1,0,0:0:0:0:
448,192,47290,1,0,0:0:0:0:
320,192,47334,1,0,0:0:0:0:
64,192,47378,1,0,0:0:0:0:
192,192,47422,1,0,0:0:0:0:
320,192,47466,1,0,0:0:0:0:
64,192,47510,1,0,0:0:0:0:
192,192,47554,1,0,0:0:0:0:
448,192,47598,1,0,0:0:0:0:
320,192,47687,1,0,0:0:0:0:
192,192,47731,1,0,0:0:0:0:
64,192,47775,1,0,0:0:0:0:
448,192,47775,1,0,0:0:0:0:
320,192,47819,1,0,0:0:0:0:
64,192,47907,1,0,0:0:0:0:
192,192,47907,1,0,0:0:0:0:
448,192,47996,1,0,0:0:0:0:
320,192,47996,1,0,0:0:0:0:
64,192,48040,1,0,0:0:0:0:
192,192,48084,1,0,0:0:0:0:
448,192,48172,1,0,0:0:0:0:
192,192,48216,1,0,0:0:0:0:
320,192,48260,1,0,0:0:0:0:
64,192,48304,1,0,0:0:0:0:
192,192,48348,1,0,0:0:0:0:
448,192,48393,1,0,0:0:0:0:
320,192,48437,1,0,0:0:0:0:
192,192,48481,1,0,0:0:0:0:
64,192,48525,1,0,0:0:0:0:
320,192,48569,1,0,0:0:0:0:
192,192,48613,1,0,0:0:0:0:
448,192,48657,1,0,0:0:0:0:
320,192,48701,1,0,0:0:0:0:
64,192,48746,1,0,0:0:0:0:
192,192,48790,1,0,0:0:0:0:
320,192,48834,1,0,0:0:0:0:
448,192,48878,1,0,0:0:0:0:
64,192,48922,1,0,0:0:0:0:
320,192,48966,1,0,0:0:0:0:
192,192,49010,1,0,0:0:0:0:
448,192,49054,1,0,0:0:0:0:
64,192,49098,1,0,0:0:0:0:
320,192,49143,1,0,0:0:0:0:
192,192,49187,1,0,0:0:0:0:
448,192,49231,1,0,0:0:0:0:
320,192,49275,1,0,0:0:0:0:
192,192,49319,1,0,0:0:0:0:
64,192,49363,1,0,0:0:0:0:
448,192,49407,1,0,0:0:0:0:
320,192,49451,1,0,0:0:0:0:
192,192,49496,1,0,0:0:0:0:
192,192,49584,1,0,0:0:0:0:
320,192,49584,1,0,0:0:0:0:
448,192,49584,1,0,0:0:0:0:
64,192,49584,1,0,0:0:0:0:
320,192,49672,1,0,0:0:0:0:
448,192,49760,1,0,0:0:0:0:
192,192,49760,1,0,0:0:0:0:
64,192,49848,1,0,0:0:0:0:
448,192,49937,1,0,0:0:0:0:
320,192,49937,1,0,0:0:0:0:
192,192,49937,1,0,0:0:0:0:
64,192,49937,1,0,0:0:0:0:
192,192,50025,1,0,0:0:0:0:
320,192,50113,1,0,0:0:0:0:
64,192,50113,1,0,0:0:0:0:
448,192,50201,1,0,0:0:0:0:
448,192,50290,1,0,0:0:0:0:
192,192,50290,1,0,0:0:0:0:
320,192,50290,1,0,0:0:0:0:
64,192,50290,1,0,0:0:0:0:
320,192,50378,1,0,0:0:0:0:
448,192,50466,1,0,0:0:0:0:
192,192,50466,1,0,0:0:0:0:
64,192,50554,1,0,0:0:0:0:
64,192,50643,1,0,0:0:0:0:
320,192,50643,1,0,0:0:0:0:
448,192,50643,1,0,0:0:0:0:
192,192,50643,1,0,0:0:0:0:
320,192,50731,1,0,0:0:0:0:
448,192,50731,1,0,0:0:0:0:
192,192,50819,1,0,0:0:0:0:
64,192,50819,1,0,0:0:0:0:
320,192,50907,1,0,0:0:0:0:
192,192,50907,1,0,0:0:0:0:
448,192,50996,1,0,0:0:0:0:
192,192,50996,1,0,0:0:0:0:
320,192,51084,1,0,0:0:0:0:
64,192,51172,1,0,0:0:0:0:
192,192,51216,1,0,0:0:0:0:
320,192,51260,1,0,0:0:0:0:
448,192,51304,1,0,0:0:0:0:
64,192,51348,1,0,0:0:0:0:
320,192,51393,1,0,0:0:0:0:
192,192,51437,1,0,0:0:0:0:
448,192,51481,1,0,0:0:0:0:
320,192,51525,1,0,0:0:0:0:
192,192,51569,1,0,0:0:0:0:
64,192,51613,1,0,0:0:0:0:
448,192,51657,1,0,0:0:0:0:
320,192,51701,1,0,0:0:0:0:
192,192,51746,1,0,0:0:0:0:
64,192,51790,1,0,0:0:0:0:
320,192,51878,1,0,0:0:0:0:
192,192,51922,1,0,0:0:0:0:
448,192,51966,1,0,0:0:0:0:
320,192,52010,1,0,0:0:0:0:
192,192,52054,1,0,0:0:0:0:
64,192,52054,1,0,0:0:0:0:
448,192,52098,1,0,0:0:0:0:
192,192,52143,1,0,0:0:0:0:
320,192,52187,1,0,0:0:0:0:
64,192,52187,1,0,0:0:0:0:
448,192,52275,1,0,0:0:0:0:
64,192,52319,1,0,0:0:0:0:
448,192,52407,1,0,0:0:0:0:
192,192,52451,1,0,0:0:0:0:
320,192,52496,1,0,0:0:0:0:
64,192,52540,1,0,0:0:0:0:
192,192,52584,1,0,0:0:0:0:
448,192,52628,1,0,0:0:0:0:
320,192,52672,1,0,0:0:0:0:
192,192,52716,1,0,0:0:0:0:
64,192,52760,1,0,0:0:0:0:
448,192,52804,1,0,0:0:0:0:
192,192,52848,1,0,0:0:0:0:
320,192,52893,1,0,0:0:0:0:
64,192,52937,1,0,0:0:0:0:
192,192,52981,1,0,0:0:0:0:
320,192,53025,1,0,0:0:0:0:
448,192,53069,1,0,0:0:0:0:
192,192,53113,1,0,0:0:0:0:
320,192,53157,1,0,0:0:0:0:
64,192,53201,1,0,0:0:0:0:
448,192,53246,1,0,0:0:0:0:
320,192,53290,1,0,0:0:0:0:
192,192,53334,1,0,0:0:0:0:
64,192,53378,1,0,0:0:0:0:
320,192,53422,1,0,0:0:0:0:
192,192,53466,1,0,0:0:0:0:
448,192,53510,1,0,0:0:0:0:
320,192,53554,1,0,0:0:0:0:
192,192,53598,1,0,0:0:0:0:
64,192,53643,1,0,0:0:0:0:
448,192,53687,1,0,0:0:0:0:
320,192,53687,1,0,0:0:0:0:
192,192,53731,1,0,0:0:0:0:
320,192,53863,1,0,0:0:0:0:
192,192,53907,1,0,0:0:0:0:
448,192,53996,1,0,0:0:0:0:
320,192,53996,1,0,0:0:0:0:
192,192,53996,1,0,0:0:0:0:
64,192,53996,1,0,0:0:0:0:
448,192,54113,1,0,0:0:0:0:
192,192,54172,1,0,0:0:0:0:
320,192,54172,1,0,0:0:0:0:
64,192,54231,1,0,0:0:0:0:
448,192,54290,1,0,0:0:0:0:
320,192,54290,1,0,0:0:0:0:
192,192,54348,1,0,0:0:0:0:
64,192,54407,1,0,0:0:0:0:
320,192,54407,1,0,0:0:0:0:
448,192,54466,1,0,0:0:0:0:
192,192,54525,1,0,0:0:0:0:
64,192,54525,1,0,0:0:0:0:
320,192,54584,1,0,0:0:0:0:
64,192,54701,1,0,0:0:0:0:
448,192,54701,1,0,0:0:0:0:
320,192,54701,1,0,0:0:0:0:
192,192,54701,1,0,0:0:0:0:
64,192,54701,1,0,0:0:0:0:
448,192,54819,1,0,0:0:0:0:
320,192,54878,1,0,0:0:0:0:
192,192,54878,1,0,0:0:0:0:
64,192,54937,1,0,0:0:0:0:
448,192,54996,1,0,0:0:0:0:
320,192,54996,1,0,0:0:0:0:
192,192,55054,1,0,0:0:0:0:
64,192,55113,1,0,0:0:0:0:
448,192,55113,1,0,0:0:0:0:
320,192,55172,1,0,0:0:0:0:
64,192,55231,1,0,0:0:0:0:
192,192,55231,1,0,0:0:0:0:
320,192,55290,1,0,0:0:0:0:
448,192,55407,1,0,0:0:0:0:
320,192,55407,1,0,0:0:0:0:
192,192,55407,1,0,0:0:0:0:
64,192,55407,1,0,0:0:0:0:
192,192,55496,1,0,0:0:0:0:
320,192,55584,1,0,0:0:0:0:
64,192,55584,1,0,0:0:0:0:
448,192,55672,1,0,0:0:0:0:
448,192,55760,1,0,0:0:0:0:
320,192,55760,1,0,0:0:0:0:
192,192,55760,1,0,0:0:0:0:
64,192,55760,1,0,0:0:0:0:
320,192,55848,1,0,0:0:0:0:
448,192,55937,1,0,0:0:0:0:
192,192,55937,1,0,0:0:0:0:
64,192,56025,1,0,0:0:0:0:
448,192,56113,1,0,0:0:0:0:
320,192,56113,1,0,0:0:0:0:
192,192,56113,1,0,0:0:0:0:
64,192,56113,1,0,0:0:0:0:
192,192,56201,1,0,0:0:0:0:
320,192,56290,1,0,0:0:0:0:
64,192,56290,1,0,0:0:0:0:
448,192,56378,1,0,0:0:0:0:
448,192,56466,1,0,0:0:0:0:
192,192,56466,1,0,0:0:0:0:
64,192,56466,1,0,0:0:0:0:
320,192,56466,1,0,0:0:0:0:
320,192,56554,1,0,0:0:0:0:
448,192,56643,1,0,0:0:0:0:
192,192,56643,1,0,0:0:0:0:
64,192,56731,1,0,0:0:0:0:
448,192,56819,1,0,0:0:0:0:
64,192,56863,1,0,0:0:0:0:
320,192,56907,1,0,0:0:0:0:
192,192,56951,1,0,0:0:0:0:
448,192,56996,1,0,0:0:0:0:
64,192,57040,1,0,0:0:0:0:
192,192,57084,1,0,0:0:0:0:
448,192,57128,1,0,0:0:0:0:
64,192,57172,1,0,0:0:0:0:
320,192,57216,1,0,0:0:0:0:
192,192,57260,1,0,0:0:0:0:
448,192,57304,1,0,0:0:0:0:
320,192,57348,1,0,0:0:0:0:
64,192,57393,1,0,0:0:0:0:
192,192,57437,1,0,0:0:0:0:
320,192,57481,1,0,0:0:0:0:
64,192,57525,1,0,0:0:0:0:
448,192,57569,1,0,0:0:0:0:
320,192,57613,1,0,0:0:0:0:
192,192,57657,1,0,0:0:0:0:
64,192,57701,1,0,0:0:0:0:
320,192,57746,1,0,0:0:0:0:
192,192,57790,1,0,0:0:0:0:
64,192,57834,1,0,0:0:0:0:
448,192,57834,1,0,0:0:0:0:
192,192,57922,1,0,0:0:0:0:
320,192,57922,1,0,0:0:0:0:
448,192,57966,1,0,0:0:0:0:
64,192,58054,1,0,0:0:0:0:
448,192,58098,1,0,0:0:0:0:
192,192,58143,1,0,0:0:0:0:
320,192,58187,1,0,0:0:0:0:
448,192,58231,1,0,0:0:0:0:
64,192,58275,1,0,0:0:0:0:
192,192,58319,1,0,0:0:0:0:
320,192,58363,1,0,0:0:0:0:
64,192,58407,1,0,0:0:0:0:
448,192,58451,1,0,0:0:0:0:
192,192,58496,1,0,0:0:0:0:
320,192,58540,1,0,0:0:0:0:
64,192,58584,1,0,0:0:0:0:
192,192,58628,1,0,0:0:0:0:
448,192,58672,1,0,0:0:0:0:
320,192,58716,1,0,0:0:0:0:
192,192,58760,1,0,0:0:0:0:
448,192,58804,1,0,0:0:0:0:
320,192,58848,1,0,0:0:0:0:
64,192,58893,1,0,0:0:0:0:
192,192,58981,1,0,0:0:0:0:
320,192,59025,1,0,0:0:0:0:
64,192,59069,1,0,0:0:0:0:
448,192,59069,1,0,0:0:0:0:
192,192,59113,1,0,0:0:0:0:
320,192,59201,1,0,0:0:0:0:
448,192,59201,1,0,0:0:0:0:
192,192,59290,1,0,0:0:0:0:
64,192,59290,1,0,0:0:0:0:
448,192,59334,1,0,0:0:0:0:
320,192,59378,1,0,0:0:0:0:
64,192,59466,1,0,0:0:0:0:
320,192,59510,1,0,0:0:0:0:
192,192,59554,1,0,0:0:0:0:
448,192,59598,1,0,0:0:0:0:
320,192,59643,1,0,0:0:0:0:
64,192,59687,1,0,0:0:0:0:
192,192,59731,1,0,0:0:0:0:
320,192,59775,1,0,0:0:0:0:
448,192,59819,1,0,0:0:0:0:
192,192,59863,1,0,0:0:0:0:
320,192,59907,1,0,0:0:0:0:
64,192,59951,1,0,0:0:0:0:
192,192,59996,1,0,0:0:0:0:
448,192,60040,1,0,0:0:0:0:
320,192,60084,1,0,0:0:0:0:
192,192,60128,1,0,0:0:0:0:
64,192,60172,1,0,0:0:0:0:
448,192,60216,1,0,0:0:0:0:
192,192,60260,1,0,0:0:0:0:
320,192,60304,1,0,0:0:0:0:
64,192,60348,1,0,0:0:0:0:
448,192,60393,1,0,0:0:0:0:
192,192,60437,1,0,0:0:0:0:
320,192,60481,1,0,0:0:0:0:
64,192,60525,1,0,0:0:0:0:
192,192,60569,1,0,0:0:0:0:
320,192,60613,1,0,0:0:0:0:
448,192,60657,1,0,0:0:0:0:
64,192,60701,1,0,0:0:0:0:
192,192,60746,1,0,0:0:0:0:
320,192,60790,1,0,0:0:0:0:
64,192,60878,1,0,0:0:0:0:
448,192,60878,1,0,0:0:0:0:
320,192,60878,1,0,0:0:0:0:
192,192,60878,1,0,0:0:0:0:
192,192,60966,1,0,0:0:0:0:
320,192,61054,1,0,0:0:0:0:
64,192,61054,1,0,0:0:0:0:
448,192,61143,1,0,0:0:0:0:
320,192,61231,1,0,0:0:0:0:
448,192,61231,1,0,0:0:0:0:
64,192,61231,1,0,0:0:0:0:
192,192,61231,1,0,0:0:0:0:
320,192,61319,1,0,0:0:0:0:
448,192,61407,1,0,0:0:0:0:
192,192,61407,1,0,0:0:0:0:
64,192,61496,1,0,0:0:0:0:
192,192,61584,1,0,0:0:0:0:
448,192,61584,1,0,0:0:0:0:
64,192,61584,1,0,0:0:0:0:
320,192,61584,1,0,0:0:0:0:
192,192,61672,1,0,0:0:0:0:
320,192,61760,1,0,0:0:0:0:
64,192,61760,1,0,0:0:0:0:
448,192,61848,1,0,0:0:0:0:
64,192,61937,1,0,0:0:0:0:
320,192,61937,1,0,0:0:0:0:
448,192,61937,1,0,0:0:0:0:
192,192,61937,1,0,0:0:0:0:
64,192,62025,1,0,0:0:0:0:
192,192,62025,1,0,0:0:0:0:
448,192,62113,1,0,0:0:0:0:
320,192,62113,1,0,0:0:0:0:
320,192,62201,1,0,0:0:0:0:
192,192,62201,1,0,0:0:0:0:
448,192,62290,1,0,0:0:0:0:
192,192,62290,1,0,0:0:0:0:
64,192,62407,1,0,0:0:0:0:
448,192,62466,1,0,0:0:0:0:
320,192,62510,1,0,0:0:0:0:
192,192,62554,1,0,0:0:0:0:
64,192,62598,1,0,0:0:0:0:
448,192,62643,1,0,0:0:0:0:
192,192,62687,1,0,0:0:0:0:
320,192,62731,1,0,0:0:0:0:
64,192,62775,1,0,0:0:0:0:
192,192,62819,1,0,0:0:0:0:
320,192,62863,1,0,0:0:0:0:
448,192,62907,1,0,0:0:0:0:
64,192,62951,1,0,0:0:0:0:
192,192,62996,1,0,0:0:0:0:
320,192,63040,1,0,0:0:0:0:
448,192,63084,1,0,0:0:0:0:
192,192,63172,1,0,0:0:0:0:
320,192,63216,1,0,0:0:0:0:
64,192,63260,1,0,0:0:0:0:
192,192,63304,1,0,0:0:0:0:
448,192,63348,1,0,0:0:0:0:
320,192,63348,1,0,0:0:0:0:
64,192,63393,1,0,0:0:0:0:
320,192,63437,1,0,0:0:0:0:
448,192,63481,1,0,0:0:0:0:
192,192,63481,1,0,0:0:0:0:
64,192,63569,1,0,0:0:0:0:
448,192,63613,1,0,0:0:0:0:
64,192,63701,1,0,0:0:0:0:
320,192,63746,1,0,0:0:0:0:
192,192,63790,1,0,0:0:0:0:
448,192,63834,1,0,0:0:0:0:
320,192,63878,1,0,0:0:0:0:
64,192,63922,1,0,0:0:0:0:
192,192,63966,1,0,0:0:0:0:
320,192,64010,1,0,0:0:0:0:
448,192,64054,1,0,0:0:0:0:
64,192,64098,1,0,0:0:0:0:
320,192,64143,1,0,0:0:0:0:
192,192,64187,1,0,0:0:0:0:
448,192,64231,1,0,0:0:0:0:
320,192,64275,1,0,0:0:0:0:
192,192,64319,1,0,0:0:0:0:
64,192,64363,1,0,0:0:0:0:
320,192,64407,1,0,0:0:0:0:
192,192,64451,1,0,0:0:0:0:
448,192,64496,1,0,0:0:0:0:
64,192,64540,1,0,0:0:0:0:
192,192,64584,1,0,0:0:0:0:
320,192,64628,1,0,0:0:0:0:
448,192,64672,1,0,0:0:0:0:
192,192,64716,1,0,0:0:0:0:
320,192,64760,1,0,0:0:0:0:
64,192,64804,1,0,0:0:0:0:
192,192,64848,1,0,0:0:0:0:
320,192,64893,1,0,0:0:0:0:
448,192,64937,1,0,0:0:0:0:
192,192,64981,1,0,0:0:0:0:
64,192,64981,1,0,0:0:0:0:
320,192,65025,1,0,0:0:0:0:
192,192,65157,1,0,0:0:0:0:
320,192,65201,1,0,0:0:0:0:
64,192,65246,1,0,0:0:0:0:
448,192,65290,1,0,0:0:0:0:
192,192,65290,1,0,0:0:0:0:
320,192,65334,1,0,0:0:0:0:
64,192,65378,1,0,0:0:0:0:
192,192,65422,1,0,0:0:0:0:
320,192,65466,1,0,0:0:0:0:
64,192,65510,1,0,0:0:0:0:
448,192,65554,1,0,0:0:0:0:
320,192,65598,1,0,0:0:0:0:
192,192,65643,1,0,0:0:0:0:
64,192,65687,1,0,0:0:0:0:
448,192,65731,1,0,0:0:0:0:
320,192,65775,1,0,0:0:0:0:
64,192,65819,1,0,0:0:0:0:
192,192,65863,1,0,0:0:0:0:
320,192,65907,1,0,0:0:0:0:
64,192,65951,1,0,0:0:0:0:
192,192,65996,1,0,0:0:0:0:
448,192,65996,1,0,0:0:0:0:
320,192,66040,1,0,0:0:0:0:
64,192,66084,1,0,0:0:0:0:
192,192,66128,1,0,0:0:0:0:
320,192,66172,1,0,0:0:0:0:
448,192,66216,1,0,0:0:0:0:
192,192,66304,1,0,0:0:0:0:
320,192,66348,1,0,0:0:0:0:
64,192,66393,1,0,0:0:0:0:
192,192,66437,1,0,0:0:0:0:
320,192,66481,1,0,0:0:0:0:
64,192,66525,1,0,0:0:0:0:
448,192,66569,1,0,0:0:0:0:
192,192,66613,1,0,0:0:0:0:
320,192,66701,1,0,0:0:0:0:
448,192,66701,1,0,0:0:0:0:
64,192,66701,1,0,0:0:0:0:
192,192,66701,1,0,0:0:0:0:
320,192,66790,1,0,0:0:0:0:
448,192,66878,1,0,0:0:0:0:
192,192,66878,1,0,0:0:0:0:
64,192,66966,1,0,0:0:0:0:
320,192,67054,1,0,0:0:0:0:
448,192,67054,1,0,0:0:0:0:
64,192,67054,1,0,0:0:0:0:
192,192,67054,1,0,0:0:0:0:
192,192,67143,1,0,0:0:0:0:
320,192,67231,1,0,0:0:0:0:
64,192,67231,1,0,0:0:0:0:
448,192,67319,1,0,0:0:0:0:
320,192,67407,1,0,0:0:0:0:
448,192,67407,1,0,0:0:0:0:
64,192,67407,1,0,0:0:0:0:
192,192,67407,1,0,0:0:0:0:
320,192,67496,1,0,0:0:0:0:
448,192,67584,1,0,0:0:0:0:
192,192,67584,1,0,0:0:0:0:
64,192,67672,1,0,0:0:0:0:
448,192,67760,1,0,0:0:0:0:
192,192,67760,1,0,0:0:0:0:
64,192,67760,1,0,0:0:0:0:
320,192,67760,1,0,0:0:0:0:
192,192,67848,1,0,0:0:0:0:
320,192,67937,1,0,0:0:0:0:
64,192,67937,1,0,0:0:0:0:
448,192,68025,1,0,0:0:0:0:
192,192,68113,1,0,0:0:0:0:
64,192,68157,1,0,0:0:0:0:
320,192,68201,1,0,0:0:0:0:
192,192,68246,1,0,0:0:0:0:
448,192,68290,1,0,0:0:0:0:
64,192,68334,1,0,0:0:0:0:
192,192,68378,1,0,0:0:0:0:
448,192,68422,1,0,0:0:0:0:
64,192,68466,1,0,0:0:0:0:
320,192,68510,1,0,0:0:0:0:
192,192,68554,1,0,0:0:0:0:
448,192,68598,1,0,0:0:0:0:
320,192,68643,1,0,0:0:0:0:
64,192,68687,1,0,0:0:0:0:
192,192,68731,1,0,0:0:0:0:
320,192,68775,1,0,0:0:0:0:
64,192,68819,1,0,0:0:0:0:
448,192,68863,1,0,0:0:0:0:
320,192,68907,1,0,0:0:0:0:
192,192,68951,1,0,0:0:0:0:
64,192,68996,1,0,0:0:0:0:
320,192,69040,1,0,0:0:0:0:
192,192,69084,1,0,0:0:0:0:
448,192,69128,1,0,0:0:0:0:
64,192,69128,1,0,0:0:0:0:
320,192,69216,1,0,0:0:0:0:
192,192,69216,1,0,0:0:0:0:
448,192,69260,1,0,0:0:0:0:
64,192,69348,1,0,0:0:0:0:
448,192,69393,1,0,0:0:0:0:
192,192,69437,1,0,0:0:0:0:
320,192,69481,1,0,0:0:0:0:
448,192,69525,1,0,0:0:0:0:
64,192,69569,1,0,0:0:0:0:
192,192,69613,1,0,0:0:0:0:
320,192,69657,1,0,0:0:0:0:
64,192,69701,1,0,0:0:0:0:
448,192,69746,1,0,0:0:0:0:
192,192,69790,1,0,0:0:0:0:
320,192,69834,1,0,0:0:0:0:
64,192,69878,1,0,0:0:0:0:
192,192,69922,1,0,0:0:0:0:
448,192,69966,1,0,0:0:0:0:
320,192,70010,1,0,0:0:0:0:
192,192,70054,1,0,0:0:0:0:
448,192,70098,1,0,0:0:0:0:
320,192,70143,1,0,0:0:0:0:
64,192,70187,1,0,0:0:0:0:
192,192,70275,1,0,0:0:0:0:
320,192,70319,1,0,0:0:0:0:
448,192,70363,1,0,0:0:0:0:
64,192,70363,1,0,0:0:0:0:
192,192,70407,1,0,0:0:0:0:
448,192,70496,1,0,0:0:0:0:
320,192,70496,1,0,0:0:0:0:
64,192,70584,1,0,0:0:0:0:
192,192,70584,1,0,0:0:0:0:
448,192,70628,1,0,0:0:0:0:
320,192,70672,1,0,0:0:0:0:
64,192,70760,1,0,0:0:0:0:
320,192,70804,1,0,0:0:0:0:
192,192,70848,1,0,0:0:0:0:
448,192,70893,1,0,0:0:0:0:
320,192,70937,1,0,0:0:0:0:
64,192,70981,1,0,0:0:0:0:
192,192,71025,1,0,0:0:0:0:
320,192,71069,1,0,0:0:0:0:
448,192,71113,1,0,0:0:0:0:
192,192,71157,1,0,0:0:0:0:
320,192,71201,1,0,0:0:0:0:
64,192,71246,1,0,0:0:0:0:
192,192,71290,1,0,0:0:0:0:
448,192,71334,1,0,0:0:0:0:
320,192,71378,1,0,0:0:0:0:
192,192,71422,1,0,0:0:0:0:
64,192,71466,1,0,0:0:0:0:
448,192,71510,1,0,0:0:0:0:
192,192,71554,1,0,0:0:0:0:
320,192,71598,1,0,0:0:0:0:
64,192,71643,1,0,0:0:0:0:
448,192,71687,1,0,0:0:0:0:
192,192,71731,1,0,0:0:0:0:
320,192,71775,1,0,0:0:0:0:
64,192,71819,1,0,0:0:0:0:
192,192,71863,1,0,0:0:0:0:
320,192,71907,1,0,0:0:0:0:
448,192,71951,1,0,0:0:0:0:
64,192,71996,1,0,0:0:0:0:
192,192,72040,1,0,0:0:0:0:
320,192,72084,1,0,0:0:0:0:
320,192,72172,1,0,0:0:0:0:
192,192,72172,1,0,0:0:0:0:
64,192,72172,1,0,0:0:0:0:
448,192,72172,1,0,0:0:0:0:
192,192,72260,1,0,0:0:0:0:
64,192,72348,1,0,0:0:0:0:
320,192,72348,1,0,0:0:0:0:
448,192,72437,1,0,0:0:0:0:
64,192,72525,1,0,0:0:0:0:
192,192,72525,1,0,0:0:0:0:
320,192,72525,1,0,0:0:0:0:
448,192,72525,1,0,0:0:0:0:
320,192,72613,1,0,0:0:0:0:
192,192,72701,1,0,0:0:0:0:
448,192,72701,1,0,0:0:0:0:
64,192,72790,1,0,0:0:0:0:
64,192,72878,1,0,0:0:0:0:
320,192,72878,1,0,0:0:0:0:
192,192,72878,1,0,0:0:0:0:
448,192,72878,1,0,0:0:0:0:
192,192,72966,1,0,0:0:0:0:
64,192,73054,1,0,0:0:0:0:
320,192,73054,1,0,0:0:0:0:
448,192,73143,1,0,0:0:0:0:
448,192,73231,1,0,0:0:0:0:
192,192,73231,1,0,0:0:0:0:
64,192,73231,1,0,0:0:0:0:
320,192,73231,1,0,0:0:0:0:
192,192,73319,1,0,0:0:0:0:
64,192,73319,1,0,0:0:0:0:
320,192,73407,1,0,0:0:0:0:
448,192,73407,1,0,0:0:0:0:
192,192,73496,1,0,0:0:0:0:
320,192,73496,1,0,0:0:0:0:
64,192,73584,1,0,0:0:0:0:
320,192,73584,1,0,0:0:0:0:
192,192,73672,1,0,0:0:0:0:
448,192,73760,1,0,0:0:0:0:
320,192,73804,1,0,0:0:0:0:
192,192,73848,1,0,0:0:0:0:
64,192,73893,1,0,0:0:0:0:
448,192,73937,1,0,0:0:0:0:
192,192,73981,1,0,0:0:0:0:
320,192,74025,1,0,0:0:0:0:
64,192,74069,1,0,0:0:0:0:
192,192,74113,1,0,0:0:0:0:
320,192,74157,1,0,0:0:0:0:
448,192,74201,1,0,0:0:0:0:
64,192,74246,1,0,0:0:0:0:
192,192,74290,1,0,0:0:0:0:
320,192,74334,1,0,0:0:0:0:
448,192,74378,1,0,0:0:0:0:
192,192,74466,1,0,0:0:0:0:
320,192,74510,1,0,0:0:0:0:
64,192,74554,1,0,0:0:0:0:
192,192,74598,1,0,0:0:0:0:
320,192,74643,1,0,0:0:0:0:
448,192,74643,1,0,0:0:0:0:
64,192,74687,1,0,0:0:0:0:
320,192,74731,1,0,0:0:0:0:
192,192,74775,1,0,0:0:0:0:
448,192,74775,1,0,0:0:0:0:
64,192,74863,1,0,0:0:0:0:
448,192,74907,1,0,0:0:0:0:
64,192,74996,1,0,0:0:0:0:
320,192,75040,1,0,0:0:0:0:
192,192,75084,1,0,0:0:0:0:
448,192,75128,1,0,0:0:0:0:
320,192,75172,1,0,0:0:0:0:
64,192,75216,1,0,0:0:0:0:
192,192,75260,1,0,0:0:0:0:
320,192,75304,1,0,0:0:0:0:
448,192,75348,1,0,0:0:0:0:
64,192,75393,1,0,0:0:0:0:
320,192,75437,1,0,0:0:0:0:
192,192,75481,1,0,0:0:0:0:
448,192,75525,1,0,0:0:0:0:
320,192,75569,1,0,0:0:0:0:
192,192,75613,1,0,0:0:0:0:
64,192,75657,1,0,0:0:0:0:
320,192,75701,1,0,0:0:0:0:
192,192,75746,1,0,0:0:0:0:
448,192,75790,1,0,0:0:0:0:
64,192,75834,1,0,0:0:0:0:
192,192,75878,1,0,0:0:0:0:
320,192,75922,1,0,0:0:0:0:
448,192,75966,1,0,0:0:0:0:
192,192,76010,1,0,0:0:0:0:
320,192,76054,1,0,0:0:0:0:
64,192,76098,1,0,0:0:0:0:
192,192,76143,1,0,0:0:0:0:
320,192,76187,1,0,0:0:0:0:
448,192,76231,1,0,0:0:0:0:
64,192,76275,1,0,0:0:0:0:
192,192,76275,1,0,0:0:0:0:
320,192,76319,1,0,0:0:0:0:
320,192,76451,1,0,0:0:0:0:
192,192,76496,1,0,0:0:0:0:
192,192,76584,1,0,0:0:0:0:
64,192,76584,1,0,0:0:0:0:
448,192,76584,1,0,0:0:0:0:
320,192,76584,1,0,0:0:0:0:
448,192,76701,1,0,0:0:0:0:
320,192,76760,1,0,0:0:0:0:
192,192,76760,1,0,0:0:0:0:
64,192,76819,1,0,0:0:0:0:
320,192,76878,1,0,0:0:0:0:
448,192,76878,1,0,0:0:0:0:
192,192,76937,1,0,0:0:0:0:
320,192,76996,1,0,0:0:0:0:
64,192,76996,1,0,0:0:0:0:
448,192,77054,1,0,0:0:0:0:
64,192,77113,1,0,0:0:0:0:
192,192,77113,1,0,0:0:0:0:
320,192,77172,1,0,0:0:0:0:
192,192,77290,1,0,0:0:0:0:
320,192,77290,1,0,0:0:0:0:
64,192,77290,1,0,0:0:0:0:
448,192,77290,1,0,0:0:0:0:
448,192,77407,1,0,0:0:0:0:
192,192,77466,1,0,0:0:0:0:
320,192,77466,1,0,0:0:0:0:
64,192,77525,1,0,0:0:0:0:
320,192,77584,1,0,0:0:0:0:
448,192,77584,1,0,0:0:0:0:
192,192,77643,1,0,0:0:0:0:
448,192,77701,1,0,0:0:0:0:
64,192,77701,1,0,0:0:0:0:
320,192,77760,1,0,0:0:0:0:
192,192,77819,1,0,0:0:0:0:
64,192,77819,1,0,0:0:0:0:
320,192,77878,1,0,0:0:0:0:
192,192,77996,1,0,0:0:0:0:
64,192,77996,1,0,0:0:0:0:
448,192,77996,1,0,0:0:0:0:
320,192,77996,1,0,0:0:0:0:
64,192,78172,1,0,0:0:0:0:
192,192,78172,1,0,0:0:0:0:
320,192,78172,1,0,0:0:0:0:
448,192,78172,1,0,0:0:0:0:
448,192,78348,1,0,0:0:0:0:
320,192,78348,1,0,0:0:0:0:
192,192,78348,1,0,0:0:0:0:
64,192,78348,1,0,0:0:0:0:
64,192,78525,1,0,0:0:0:0:
192,192,78525,1,0,0:0:0:0:
320,192,78525,1,0,0:0:0:0:
448,192,78525,1,0,0:0:0:0:
