osu file format v14

[General]
AudioFilename: audio.mp3
AudioLeadIn: 0
PreviewTime: 33027
Countdown: 0
SampleSet: Soft
StackLeniency: 0.4
Mode: 0
LetterboxInBreaks: 0
WidescreenStoryboard: 1

[Editor]
Bookmarks: 372,6019,11666,17313,22960,28607,34254,39901,45195,51195,56842,62489,68136,73783,79342
DistanceSpacing: 1.6
BeatDivisor: 4
GridSize: 32
TimelineZoom: 3.999998

[Metadata]
Title:WWW.BLONDE GIRL (MOMO MIX)
TitleUnicode:WWW.BLONDE GIRL (MOMO MIX)
Artist:JENNY ROM
ArtistUnicode:JENNY ROM
Creator:Kaifin
Version:Sing's Insane ft. Kaifin
Source:DDRMAX -DanceDanceRevolution 6thMIX-
Tags:-_Yoshimaro_- Yoshimaro Doormat Underforest LowComboFC Sing blond cute ddr dance dance revolution dancemania
BeatmapID:1332025
BeatmapSetID:588799

[Difficulty]
HPDrainRate:6
CircleSize:4
OverallDifficulty:7
ApproachRate:8.2
SliderMultiplier:1.6
SliderTickRate:1

[Events]
//Background and Video events
0,0,"blondegirlsing.png",0,0
//Break Periods
//Storyboard Layer 0 (Background)
//Storyboard Layer 1 (Fail)
//Storyboard Layer 2 (Pass)
//Storyboard Layer 3 (Foreground)
//Storyboard Sound Samples

[TimingPoints]
372,352.941176470588,4,2,0,50,1,0
372,-100,4,2,0,50,0,0
11666,-100,4,2,0,40,0,0
22960,-133.333333333333,4,2,0,40,0,0
33548,-100,4,2,0,40,0,0
34254,-83.3333333333333,4,2,0,60,0,1
38313,-83.3333333333333,4,2,0,70,0,1
39371,-83.3333333333333,4,2,0,60,0,1
44136,-83.3333333333333,4,2,0,70,0,1
45548,-83.3333333333333,4,2,0,60,0,1
49607,-83.3333333333333,4,2,0,70,0,1
50666,-83.3333333333333,4,2,0,60,0,1
55430,-90.9090909090909,4,2,0,60,0,0
56842,-83.3333333333333,4,2,0,60,0,1
60901,-83.3333333333333,4,2,0,70,0,1
61960,-83.3333333333333,4,2,0,60,0,1
66724,-83.3333333333333,4,2,0,70,0,1
68136,-83.3333333333333,4,2,0,60,0,1
72195,-83.3333333333333,4,2,0,70,0,1
73254,-83.3333333333333,4,2,0,60,0,1
78019,-83.3333333333333,4,2,0,60,0,0

[Colours]
Combo1 : 128,0,64
Combo2 : 255,255,183
Combo3 : 255,168,255
Combo4 : 128,64,0

[HitObjects]
39,41,372,5,10,3:1:0:0:
103,84,548,2,0,P|151:80|198:45,1,80,0|8,0:0|3:0,0:0:0:0:
255,21,901,2,0,B|284:124|226:76|251:203,1,160,0|0,0:0|0:0,0:0:0:0:
246,177,1430,2,0,P|294:181|341:216,1,80,8|0,3:0|0:0,0:0:0:0:
384,278,1783,6,0,B|435:215|435:215|390:127,1,160,10|8,3:1|3:0,0:0:0:0:
261,283,2313,2,0,B|372:299|372:299|382:308|382:308|526:328,1,240,0|8,0:0|3:0,0:0:0:0:
121,363,3195,37,10,3:1:0:0:
182,312,3371,2,0,L|173:222,1,80,0|8,0:0|3:0,0:0:0:0:
0,216,3724,2,0,P|73:218|144:133,1,160,0|0,0:0|0:0,0:0:0:0:
135,162,4254,2,0,L|144:72,1,80,8|0,3:0|0:0,0:0:0:0:
255,21,4607,5,8,3:0:0:0:
33,123,4960,1,8,3:0:0:0:
246,177,5313,1,10,3:1:0:0:
193,108,5489,2,0,P|154:116|109:121,1,80,2|0,0:1|0:0,0:0:0:0:
300,252,5842,2,0,P|339:260|384:265,1,80,6|0,0:1|0:0,0:0:0:0:
246,177,6195,38,0,P|267:132|298:93,1,80,0|8,0:0|3:0,0:0:0:0:
376,91,6548,2,0,P|297:75|211:10,1,160,0|0,0:0|0:0,0:0:0:0:
231,32,7077,2,0,P|183:56|155:62,1,80,8|0,3:0|0:0,0:0:0:0:
0,216,7430,6,0,B|105:248|58:180|179:208,1,160,8|8,3:0|3:0,0:0:0:0:
246,177,7960,2,0,B|198:204|173:266|173:266|177:333|241:408,1,240,0|8,0:0|3:0,0:0:0:0:
495,323,8842,37,10,3:1:0:0:
129,283,9548,1,10,3:1:0:0:
445,213,10254,2,0,P|405:212|349:247,1,80,10|0,1:0|0:0,0:0:0:0:
285,92,10607,2,0,P|304:127|362:158,1,80,10|0,1:0|0:0,0:0:0:0:
261,292,10960,2,0,P|281:257|279:191,1,80,10|0,1:0|0:0,0:0:0:0:
374,73,11313,5,8,3:0:0:0:
358,152,11489,1,8,3:0:0:0:
318,9,11666,37,8,3:0:0:0:
374,73,11842,2,0,P|417:75|457:62,1,80,0|8,0:0|3:0,0:0:0:0:
358,152,12195,2,0,B|197:161|302:89|112:105,1,240,0|8,0:0|3:0,0:0:0:0:
83,165,12901,2,0,P|44:154|4:156,1,80,0|8,0:0|3:0,0:0:0:0:
130,103,13254,1,0,0:0:0:0:
28,241,13430,6,0,P|76:214|191:214,2,160,8|8|8,3:0|1:0|1:0,0:0:0:0:
249,157,14489,2,0,L|257:255,1,80,8|0,3:0|0:0,0:0:0:0:
195,288,14842,1,8,3:0:0:0:
349,111,15019,2,0,B|382:260|306:191|337:356,1,240,0|8,0:0|3:0,0:0:0:0:
335,345,15724,2,0,L|343:247,1,80,0|8,0:0|3:0,0:0:0:0:
424,313,16077,1,0,0:0:0:0:
244,376,16254,37,8,3:0:0:0:
244,376,16607,2,0,P|202:363|154:366,1,80,10|0,1:0|0:0,0:0:0:0:
424,313,16960,2,0,P|463:312|501:300,1,80,10|0,1:0|0:0,0:0:0:0:
255,236,17313,5,8,3:0:0:0:
192,284,17489,2,0,L|106:277,1,80,0|8,0:0|3:0,0:0:0:0:
4,156,17842,2,0,B|164:113|164:113|117:193,1,240,0|8,0:0|3:0,0:0:0:0:
126,177,18548,2,0,L|205:170,1,80,0|8,0:0|3:0,0:0:0:0:
253,105,18901,1,0,0:0:0:0:
323,181,19077,38,0,P|291:86|319:10,2,160,8|8|8,3:0|1:0|1:0,0:0:0:0:
457,9,20136,2,0,P|429:28|350:36,1,80,8|0,3:0|0:0,0:0:0:0:
305,31,20489,1,8,3:0:0:0:
484,140,20666,2,0,B|318:156|430:83|222:108,1,240,0|8,0:0|3:0,0:0:0:0:
252,104,21371,2,0,P|290:112|324:134,1,80,0|8,0:0|3:0,0:0:0:0:
398,216,21724,1,0,0:0:0:0:
484,140,21901,5,8,3:0:0:0:
484,140,22254,2,0,L|495:223,1,80,10|0,1:0|0:0,0:0:0:0:
292,351,22607,2,0,L|281:271,1,80,10|0,1:0|0:0,0:0:0:0:
324,134,22960,6,0,P|368:166|453:160,1,120.000004577637,12|8,3:0|3:0,0:0:0:0:
205,170,23666,2,0,P|161:202|76:196,1,120.000004577637,8|8,3:0|3:0,0:0:0:0:
97,204,24195,2,0,L|112:282,1,60.0000022888184,2|0,1:0|0:0,0:0:0:0:
195,346,24548,6,0,L|183:287,2,60.0000022888184,2|12|0,0:0|1:0|0:0,0:0:0:0:
275,365,25077,1,8,0:3:0:0:
284,243,25254,2,0,P|341:245|401:305,1,120.000004577637
389,282,25783,38,0,L|408:155,1,120.000004577637,8|8,3:0|3:0,0:0:0:0:
341,15,26489,2,0,L|323:133,1,120.000004577637,8|8,3:0|3:0,0:0:0:0:
323,133,27019,2,0,L|258:126,1,60.0000022888184,2|0,1:0|0:0,0:0:0:0:
148,58,27371,6,0,P|140:30|138:-9,1,60.0000022888184,0|12,0:0|1:0,0:0:0:0:
122,138,27724,1,0,0:0:0:0:
205,120,27901,2,0,P|232:126|268:144,1,60.0000022888184,8|0,3:0|0:0,0:0:0:0:
122,138,28254,2,0,P|102:158|68:180,1,60.0000022888184,10|2,3:0|0:0,0:0:0:0:
0,303,28607,38,0,P|54:269|130:266,1,120.000004577637,8|8,3:0|3:0,0:0:0:0:
186,201,29313,2,0,P|240:235|316:238,1,120.000004577637,8|8,3:0|3:0,0:0:0:0:
294,241,29842,2,0,L|284:304,1,60.0000022888184,2|0,1:0|0:0,0:0:0:0:
284,300,30195,6,0,P|325:306|358:322,1,60.0000022888184,0|12,0:0|1:0,0:0:0:0:
431,204,30548,2,0,P|405:236|374:257,1,60.0000022888184,0|8,0:0|0:3,0:0:0:0:
440,379,30901,2,0,P|424:340|422:303,1,60.0000022888184,0|8,0:0|0:3,0:0:0:0:
447,195,31254,1,0,0:0:0:0:
380,125,31430,38,0,L|241:142,1,120.000004577637,8|8,3:0|3:0,0:0:0:0:
136,41,32136,2,0,L|255:55,1,120.000004577637,8|8,3:0|3:0,0:0:0:0:
265,223,32842,5,2,0:0:0:0:
385,209,33019,1,2,0:0:0:0:
265,223,33195,1,2,0:0:0:0:
385,209,33372,1,2,0:0:0:0:
380,125,33548,37,2,1:0:0:0:
342,312,33724,1,2,1:0:0:0:
177,267,33901,5,2,1:0:0:0:
196,360,34077,1,2,1:0:0:0:
196,360,34254,6,0,P|135:289|42:278,2,191.999994140625,12|8|2,1:0|3:0|1:0,0:0:0:0:
263,323,35048,2,0,P|315:327|357:300,1,95.9999970703126,0|2,0:0|1:0,0:0:0:0:
405,263,35313,2,0,P|438:272|471:295,1,47.9999985351563,8|0,3:0|0:0,0:0:0:0:
450,278,35489,6,0,L|467:164,2,95.9999970703126,2|8|2,1:0|3:0|0:0,0:0:0:0:
321,219,36019,1,8,3:0:0:0:
396,376,36195,1,0,0:0:0:0:
464,183,36371,37,2,1:0:0:0:
464,183,36460,2,0,P|384:150|348:77,1,143.999995605469,0|8,0:0|3:0,0:0:0:0:
285,3,36901,2,0,L|271:114,1,95.9999970703126,2|8,1:0|3:0,0:0:0:0:
100,158,37254,1,2,0:0:0:0:
52,95,37430,2,0,L|64:0,1,95.9999970703126,8|0,3:0|0:0,0:0:0:0:
202,44,37783,5,8,1:0:0:0:
173,118,37960,1,8,1:0:0:0:
173,118,38048,1,0,0:0:0:0:
173,118,38136,1,8,1:0:0:0:
256,192,38313,38,0,P|308:164|374:157,1,95.9999970703126,6|8,1:0|3:0,0:0:0:0:
90,260,38666,2,0,P|38:232|-28:225,1,95.9999970703126,2|8,1:0|3:0,0:0:0:0:
263,340,39019,2,0,P|315:312|381:305,1,95.9999970703126,2|8,1:0|3:0,0:0:0:0:
170,384,39371,6,0,B|150:344|150:344|171:281,1,95.9999970703126,2|2,0:0|3:0,0:0:0:0:
241,247,39724,1,2,0:0:0:0:
288,156,39901,38,0,P|221:216|116:209,2,191.999994140625,12|8|2,1:0|3:0|1:0,0:0:0:0:
243,93,40695,2,0,P|192:86|149:48,1,95.9999970703126,0|2,0:0|1:0,0:0:0:0:
304,35,40960,2,0,P|279:12|273:-5,1,47.9999985351563,0|0,0:0|0:0,0:0:0:0:
274,0,41136,6,0,L|259:108,2,95.9999970703126,2|8|2,1:0|3:0|0:0,0:0:0:0:
503,94,41666,1,8,3:0:0:0:
488,0,41842,1,0,0:0:0:0:
355,107,42019,37,2,1:0:0:0:
355,107,42107,2,0,P|426:132|474:195,1,143.999995605469,0|0,0:0|0:0,0:0:0:0:
498,364,42548,2,0,L|513:256,1,95.9999970703126,2|14,1:0|1:0,0:0:0:0:
241,247,42901,1,2,0:0:0:0:
256,332,43077,1,8,3:0:0:0:
341,317,43254,1,0,0:0:0:0:
326,231,43430,5,14,1:0:0:0:
266,288,43607,2,0,P|201:279|172:265,1,95.9999970703126,2|8,0:0|3:0,0:0:0:0:
84,131,43960,37,0,0:0:0:0:
25,186,44136,2,0,L|44:305,1,95.9999970703126,14|2,1:0|0:0,0:0:0:0:
169,117,44489,2,0,L|188:-2,1,95.9999970703126,14|0,1:0|0:0,0:0:0:0:
240,237,44842,2,0,L|259:356,1,95.9999970703126,10|10,1:0|1:0,0:0:0:0:
355,107,45195,6,0,L|295:116,1,47.9999985351563,10|0,1:0|0:0,0:0:0:0:
309,190,45371,2,0,L|356:182,1,47.9999985351563,10|0,1:0|0:0,0:0:0:0:
456,84,45548,38,0,P|386:87|295:-15,2,191.999994140625,12|8|2,1:0|3:0|1:0,0:0:0:0:
447,167,46342,2,0,P|400:186|343:177,1,95.9999970703126,0|2,0:0|1:0,0:0:0:0:
506,225,46607,2,0,P|494:256|473:273,1,47.9999985351563,8|0,3:0|0:0,0:0:0:0:
483,266,46783,6,0,L|501:381,2,95.9999970703126,2|8|2,1:0|3:0|0:0,0:0:0:0:
254,372,47313,1,8,3:0:0:0:
265,287,47489,1,0,0:0:0:0:
410,329,47666,37,2,1:0:0:0:
410,329,47754,2,0,P|324:318|273:269,1,143.999995605469,0|8,0:0|3:0,0:0:0:0:
197,158,48195,2,0,P|160:190|99:208,1,95.9999970703126,2|8,1:0|3:0,0:0:0:0:
0,320,48548,1,2,0:0:0:0:
70,282,48724,2,0,P|114:298|150:330,1,95.9999970703126,8|0,3:0|0:0,0:0:0:0:
254,372,49077,5,10,3:0:0:0:
239,243,49254,1,0,0:0:0:0:
239,243,49342,1,0,0:0:0:0:
239,243,49430,1,8,3:0:0:0:
399,284,49607,38,0,L|289:300,1,95.9999970703126,2|8,1:0|3:0,0:0:0:0:
68,195,49960,2,0,L|178:211,1,95.9999970703126,2|8,1:0|3:0,0:0:0:0:
399,118,50313,2,0,L|289:134,1,95.9999970703126,2|8,1:0|3:0,0:0:0:0:
150,51,50666,5,0,0:0:0:0:
150,51,50754,1,0,0:0:0:0:
150,51,50842,1,8,3:0:0:0:
244,0,51019,1,2,0:0:0:0:
182,134,51195,38,0,B|52:148|131:85|-12:98,2,191.999994140625,12|8|2,1:0|3:0|1:0,0:0:0:0:
253,84,51989,2,0,P|270:131|275:190,1,95.9999970703126,0|2,0:0|1:0,0:0:0:0:
313,27,52254,2,0,P|343:28|379:43,1,47.9999985351563,8|0,3:0|0:0,0:0:0:0:
360,33,52430,6,0,L|476:13,1,95.9999970703126,2|8,1:0|3:0,0:0:0:0:
328,122,52783,2,0,L|429:181,1,95.9999970703126,0|8,0:0|3:0,0:0:0:0:
246,169,53136,2,0,L|285:279,1,95.9999970703126,0|2,0:0|1:0,0:0:0:0:
278,259,53401,38,0,P|234:278|163:268,1,95.9999970703126,2|2,0:0|0:0,0:0:0:0:
121,221,53666,1,0,0:0:0:0:
287,357,53842,1,0,0:0:0:0:
115,329,54019,6,0,L|105:223,1,95.9999970703126,14|0,1:0|0:0,0:0:0:0:
369,294,54371,2,0,L|378:198,1,95.9999970703126,8|0,3:0|0:0,0:0:0:0:
236,104,54724,38,0,P|280:123|351:113,1,95.9999970703126,14|2,1:0|0:0,0:0:0:0:
386,182,55076,1,8,3:0:0:0:
386,182,55253,1,0,0:0:0:0:
256,0,55430,5,14,1:0:0:0:
146,50,55607,1,0,0:0:0:0:
146,50,55695,1,0,0:0:0:0:
146,50,55783,1,14,1:0:0:0:
327,121,55960,1,0,0:0:0:0:
327,121,56048,1,0,0:0:0:0:
327,121,56136,38,0,L|320:187,1,44.0000013427735,10|0,1:0|0:0,0:0:0:0:
156,156,56313,2,0,L|163:222,1,44.0000013427735,10|0,1:0|0:0,0:0:0:0:
278,259,56489,2,0,L|271:325,1,44.0000013427735,10|0,1:0|0:0,0:0:0:0:
207,341,56666,2,0,L|214:407,1,44.0000013427735,10|0,1:0|0:0,0:0:0:0:
324,357,56842,6,0,P|417:346|478:275,2,191.999994140625,12|8|2,1:0|3:0|1:0,0:0:0:0:
273,302,57636,2,0,P|226:290|182:306,1,95.9999970703126,0|2,0:0|1:0,0:0:0:0:
126,353,57901,2,0,P|102:352|82:339,1,47.9999985351563,8|0,3:0|0:0,0:0:0:0:
82,339,58077,38,0,L|99:225,2,95.9999970703126,2|8|2,1:0|3:0|0:0,0:0:0:0:
182,306,58607,1,8,3:0:0:0:
0,268,58783,1,0,0:0:0:0:
211,186,58960,5,2,1:0:0:0:
211,186,59048,2,0,P|264:231|272:301,1,143.999995605469,0|8,0:0|3:0,0:0:0:0:
292,136,59489,2,0,L|275:22,1,95.9999970703126,2|8,1:0|3:0,0:0:0:0:
110,161,59842,1,2,0:0:0:0:
96,244,60019,2,0,L|81:338,1,95.9999970703126,8|0,3:0|0:0,0:0:0:0:
272,301,60371,37,8,1:0:0:0:
182,306,60548,1,8,1:0:0:0:
183,317,60636,1,0,0:0:0:0:
184,328,60724,1,8,1:0:0:0:
352,348,60901,6,0,P|398:336|439:312,1,95.9999970703126,6|8,1:0|3:0,0:0:0:0:
265,217,61254,2,0,P|305:242|351:254,1,95.9999970703126,6|8,1:0|3:0,0:0:0:0:
296,62,61607,2,0,P|307:108|331:149,1,95.9999970703126,6|8,1:0|3:0,0:0:0:0:
436,350,61960,38,0,B|394:326|394:326|351:348,1,95.9999970703126,2|2,0:0|3:0,0:0:0:0:
277,380,62313,1,2,0:0:0:0:
182,306,62489,6,0,P|88:301|17:362,2,191.999994140625,12|8|2,1:0|3:0|1:0,0:0:0:0:
217,239,63283,2,0,L|200:125,1,95.9999970703126,0|2,0:0|1:0,0:0:0:0:
123,226,63548,2,0,L|114:283,1,47.9999985351563,8|0,3:0|0:0,0:0:0:0:
277,380,63724,38,0,P|324:382|359:352,2,95.9999970703126,2|8|2,1:0|3:0|0:0,0:0:0:0:
115,273,64254,1,8,3:0:0:0:
217,239,64430,1,0,0:0:0:0:
93,130,64607,5,2,1:0:0:0:
93,130,64695,2,0,L|114:272,1,143.999995605469,0|8,0:0|3:0,0:0:0:0:
297,158,65136,2,0,L|190:142,1,95.9999970703126,2|14,1:0|1:0,0:0:0:0:
319,273,65489,1,2,0:0:0:0:
401,298,65666,1,8,3:0:0:0:
478,260,65842,1,0,0:0:0:0:
503,177,66019,37,14,1:0:0:0:
319,273,66195,2,0,L|303:380,1,95.9999970703126,2|8,0:0|3:0,0:0:0:0:
512,384,66548,5,0,0:0:0:0:
437,354,66724,2,0,P|440:306|458:262,1,95.9999970703126,14|0,1:0|0:0,0:0:0:0:
340,181,67077,2,0,P|336:228|318:272,1,95.9999970703126,14|0,1:0|0:0,0:0:0:0:
235,105,67430,2,0,L|342:89,1,95.9999970703126,10|10,1:0|1:0,0:0:0:0:
475,174,67783,38,0,L|421:166,1,47.9999985351563,10|0,1:0|0:0,0:0:0:0:
340,181,67960,2,0,L|286:173,1,47.9999985351563,10|0,1:0|0:0,0:0:0:0:
205,188,68136,6,0,P|135:191|44:89,2,191.999994140625,12|8|2,1:0|3:0|1:0,0:0:0:0:
264,236,68930,2,0,P|283:283|274:340,1,95.9999970703126,0|2,0:0|1:0,0:0:0:0:
203,365,69195,2,0,P|193:341|198:313,1,47.9999985351563,8|0,3:0|0:0,0:0:0:0:
353,365,69371,38,0,L|468:347,2,95.9999970703126,2|8|2,1:0|3:0|0:0,0:0:0:0:
101,334,69901,1,8,3:0:0:0:
195,319,70077,1,0,0:0:0:0:
27,210,70254,5,2,1:0:0:0:
27,210,70342,2,0,P|-1:280|12:366,1,143.999995605469,0|8,0:0|3:0,0:0:0:0:
195,319,70783,2,0,P|198:271|179:227,1,95.9999970703126,2|8,1:0|3:0,0:0:0:0:
107,46,71136,1,2,0:0:0:0:
67,128,71313,2,0,L|161:113,1,95.9999970703126,8|0,3:0|0:0,0:0:0:0:
349,83,71666,37,10,3:0:0:0:
389,165,71842,1,0,0:0:0:0:
389,165,71930,1,0,0:0:0:0:
389,165,72018,1,8,3:0:0:0:
291,24,72195,6,0,P|334:5|382:8,1,95.9999970703126,6|8,1:0|3:0,0:0:0:0:
480,149,72548,2,0,P|436:167|388:164,1,95.9999970703126,6|8,1:0|3:0,0:0:0:0:
218,178,72901,2,0,L|203:272,1,95.9999970703126,6|8,1:0|3:0,0:0:0:0:
440,338,73254,38,0,L|425:243,1,95.9999970703126,2|2,0:0|3:0,0:0:0:0:
351,304,73607,1,2,0:0:0:0:
480,149,73783,6,0,P|427:169|323:98,2,191.999994140625,12|8|2,0:0|3:0|1:0,0:0:0:0:
418,74,74577,2,0,L|403:168,1,95.9999970703126,0|2,0:0|1:0,0:0:0:0:
337,226,74842,2,0,L|344:273,1,47.9999985351563,8|0,3:0|0:0,0:0:0:0:
440,338,75019,38,0,P|396:357|325:347,1,95.9999970703126,2|8,1:0|3:0,0:0:0:0:
245,243,75371,2,0,P|289:224|360:234,1,95.9999970703126,0|8,0:0|3:0,0:0:0:0:
169,384,75724,2,0,L|183:289,1,95.9999970703126,0|2,0:0|1:0,0:0:0:0:
320,138,76077,1,0,0:0:0:0:
320,138,76166,1,2,1:0:0:0:
320,138,76254,1,0,0:0:0:0:
336,225,76430,1,2,1:0:0:0:
131,167,76607,6,0,L|225:152,1,95.9999970703126,14|2,1:0|0:0,0:0:0:0:
414,123,76960,1,8,3:0:0:0:
414,123,77136,1,0,0:0:0:0:
466,333,77313,38,0,L|371:318,1,95.9999970703126,14|2,1:0|0:0,0:0:0:0:
183,289,77666,1,8,3:0:0:0:
183,289,77842,1,0,0:0:0:0:
320,138,78019,5,10,1:0:0:0:
266,344,78195,1,10,1:0:0:0:
445,246,78371,37,10,1:0:0:0:
466,333,78548,1,10,1:0:0:0:
474,342,78901,5,2,0:0:0:0:
474,342,78989,1,2,0:0:0:0:
474,342,79077,1,2,0:0:0:0:
371,318,79254,1,2,0:0:0:0:
371,318,79342,1,2,0:0:0:0:
