osu file format v14

[General]
AudioFilename: audio.mp3
AudioLeadIn: 0
PreviewTime: 33027
Countdown: 0
SampleSet: Soft
StackLeniency: 0.2
Mode: 0
LetterboxInBreaks: 0
WidescreenStoryboard: 0

[Editor]
DistanceSpacing: 1.7
BeatDivisor: 4
GridSize: 8
TimelineZoom: 4.499998

[Metadata]
Title:WWW.BLONDE GIRL (MOMO MIX)
TitleUnicode:WWW.BLONDE GIRL (MOMO MIX)
Artist:JENNY ROM
ArtistUnicode:JENNY ROM
Creator:Kaifin
Version:Another
Source:DDRMAX -DanceDanceRevolution 6thMIX-
Tags:-_Yoshimaro_- Yoshimaro Doormat Underforest LowComboFC Sing blond cute ddr dance dance revolution dancemania
BeatmapID:1246449
BeatmapSetID:588799

[Difficulty]
HPDrainRate:6
CircleSize:5
OverallDifficulty:8
ApproachRate:8.6
SliderMultiplier:1.6
SliderTickRate:1

[Events]
//Background and Video events
0,0,"blondegirlbg.png",0,0
//Break Periods
//Storyboard Layer 0 (Background)
//Storyboard Layer 1 (Fail)
//Storyboard Layer 2 (Pass)
//Storyboard Layer 3 (Foreground)
//Storyboard Sound Samples

[TimingPoints]
372,352.941176470588,4,2,0,50,1,0
372,-200,4,2,0,50,0,0
5489,-100,4,2,0,50,0,0
5842,-66.6666666666667,4,2,0,50,0,0
7430,-200,4,2,0,50,0,0
10960,-100,4,2,0,50,0,0
11666,-100,4,2,0,40,0,0
22960,-133.333333333333,4,2,0,40,0,0
33548,-80,4,2,0,40,0,0
34254,-66.6666666666667,4,2,0,60,0,1
37960,-100,4,2,0,60,0,1
38136,-200,4,2,0,60,0,1
38666,-100,4,2,0,70,0,1
39019,-66.6666666666667,4,2,0,80,0,1
39371,-66.6666666666667,4,2,0,70,0,1
39901,-66.6666666666667,4,2,0,60,0,1
49607,-200,4,2,0,60,0,1
49960,-100,4,2,0,70,0,1
50313,-66.6666666666667,4,2,0,80,0,1
50666,-66.6666666666667,4,2,0,70,0,1
51195,-66.6666666666667,4,2,0,60,0,1
55430,-66.6666666666667,4,2,0,60,0,0
56842,-66.6666666666667,4,2,0,60,0,1
60548,-100,4,2,0,60,0,1
60724,-200,4,2,0,60,0,1
61254,-100,4,2,0,70,0,1
61607,-66.6666666666667,4,2,0,80,0,1
61960,-66.6666666666667,4,2,0,70,0,1
62489,-66.6666666666667,4,2,0,60,0,1
72195,-200,4,2,0,60,0,1
72548,-100,4,2,0,70,0,1
72901,-66.6666666666667,4,2,0,80,0,1
73254,-66.6666666666667,4,2,0,70,0,1
73783,-66.6666666666667,4,2,0,60,0,1
78019,-66.6666666666667,4,2,0,60,0,0

[Colours]
Combo1 : 128,0,64
Combo2 : 255,255,183
Combo3 : 255,168,255
Combo4 : 128,64,0

[HitObjects]
28,336,372,6,0,L|25:362,1,20,10|0,3:1|0:0,0:0:0:0:
114,323,548,1,0,0:0:0:0:
200,310,724,1,8,3:0:0:0:
201,320,813,1,0,0:0:0:0:
202,330,901,1,0,0:0:0:0:
27,346,1077,5,8,3:0:0:0:
28,336,1166,1,0,0:0:0:0:
114,323,1342,1,0,0:0:0:0:
200,310,1519,1,0,0:0:0:0:
201,320,1607,1,0,0:0:0:0:
27,346,1783,102,0,L|30:320,1,20,10|0,3:1|0:0,0:0:0:0:
106,252,1960,1,0,0:0:0:0:
26,157,2136,1,8,3:0:0:0:
25,167,2224,1,0,0:0:0:0:
24,177,2313,1,0,0:0:0:0:
106,252,2489,5,8,3:0:0:0:
105,242,2577,1,0,0:0:0:0:
104,232,2666,1,0,0:0:0:0:
103,222,2754,1,0,0:0:0:0:
115,333,2930,1,0,0:0:0:0:
114,323,3018,1,0,0:0:0:0:
27,147,3195,102,0,L|24:173,1,20,10|0,3:1|0:0,0:0:0:0:
94,132,3371,1,0,0:0:0:0:
164,127,3548,1,8,3:0:0:0:
163,117,3636,1,0,0:0:0:0:
162,107,3724,1,0,0:0:0:0:
26,157,3901,5,8,3:0:0:0:
25,167,3989,1,0,0:0:0:0:
162,107,4166,1,0,0:0:0:0:
94,132,4342,1,0,0:0:0:0:
93,142,4430,1,0,0:0:0:0:
298,157,4607,101,8,3:0:0:0:
162,107,4783,1,0,0:0:0:0:
205,200,4960,5,8,3:0:0:0:
230,132,5136,1,0,0:0:0:0:
366,182,5313,102,0,L|369:208,1,20,10|0,3:1|0:0,0:0:0:0:
390,102,5489,6,0,L|464:202,1,120,2|0,0:1|0:0,0:0:0:0:
372,18,5842,102,0,L|429:42,1,60.0000022888184,6|0,0:1|0:0,0:0:0:0:
461,198,6019,5,8,3:0:0:0:
368,201,6195,1,0,0:0:0:0:
275,204,6371,1,8,3:0:0:0:
274,215,6460,1,0,0:0:0:0:
273,226,6548,1,0,0:0:0:0:
462,209,6724,101,8,3:0:0:0:
461,198,6813,1,0,0:0:0:0:
368,201,6989,1,0,0:0:0:0:
275,204,7166,1,0,0:0:0:0:
274,215,7254,1,0,0:0:0:0:
461,198,7430,5,8,3:0:0:0:
364,290,7607,1,0,0:0:0:0:
375,289,7695,1,0,0:0:0:0:
386,288,7783,1,8,3:0:0:0:
397,287,7871,1,0,0:0:0:0:
408,286,7960,1,0,0:0:0:0:
464,347,8136,101,8,3:0:0:0:
453,348,8224,1,0,0:0:0:0:
387,354,8401,1,0,0:0:0:0:
321,360,8577,1,0,0:0:0:0:
310,361,8666,1,0,0:0:0:0:
299,362,8754,1,0,0:0:0:0:
288,363,8842,6,0,L|291:334,1,20,10|0,3:1|0:0,0:0:0:0:
364,290,9019,101,0,0:0:0:0:
387,354,9195,1,8,3:0:0:0:
364,290,9371,1,0,0:0:0:0:
290,343,9548,6,0,L|287:314,1,20,10|0,3:1|0:0,0:0:0:0:
214,270,9724,101,0,0:0:0:0:
191,334,9901,1,8,3:0:0:0:
214,270,10077,1,0,0:0:0:0:
287,323,10254,6,0,L|290:294,1,20,10|0,3:1|0:0,0:0:0:0:
387,354,10430,1,0,0:0:0:0:
289,303,10607,102,0,L|286:274,1,20,10|0,3:1|0:0,0:0:0:0:
191,334,10783,1,0,0:0:0:0:
286,283,10960,6,0,L|289:254,3,20,10|0|0|0,3:1|0:0|0:0|0:0,0:0:0:0:
214,270,11136,2,0,L|217:241,3,20,10|0|0|0,3:1|0:0|0:0|0:0,0:0:0:0:
142,257,11313,2,0,L|145:228,3,20,8|0|0|0,3:0|0:0|0:0|0:0,0:0:0:0:
70,244,11489,2,0,L|73:215,3,20,8|0|0|0,3:0|0:0|0:0|0:0,0:0:0:0:
9,285,11666,101,8,3:0:0:0:
142,257,11842,1,0,0:0:0:0:
51,155,12019,1,8,3:0:0:0:
12,374,12195,6,0,L|166:344,1,120
191,334,12548,1,2,0:0:0:0:
144,237,12724,1,8,3:0:0:0:
143,247,12813,1,0,0:0:0:0:
142,257,12901,1,0,0:0:0:0:
251,337,13077,1,8,3:0:0:0:
252,327,13166,1,0,0:0:0:0:
253,317,13254,1,0,0:0:0:0:
364,257,13430,102,0,L|210:227,1,120,8|0,3:0|0:0,0:0:0:0:
322,180,13783,6,0,L|424:61,1,120,8|0,1:0|0:0,0:0:0:0:
409,181,14136,102,0,L|460:329,1,120,8|0,1:0|0:0,0:0:0:0:
364,257,14489,5,8,3:0:0:0:
246,234,14666,1,0,0:0:0:0:
128,211,14842,1,8,3:0:0:0:
409,181,15019,102,0,L|460:329,1,120
471,353,15371,1,2,0:0:0:0:
336,263,15548,1,8,3:0:0:0:
350,260,15636,1,0,0:0:0:0:
364,257,15724,1,0,0:0:0:0:
437,187,15901,1,8,3:0:0:0:
423,184,15989,1,0,0:0:0:0:
409,181,16077,1,0,0:0:0:0:
336,111,16254,6,0,P|362:64|415:102,1,120,8|0,3:0|0:0,0:0:0:0:
458,8,16607,102,0,L|391:-7,1,40,10|0,1:0|0:0,0:0:0:0:
308,117,16783,1,0,0:0:0:0:
322,114,16871,1,0,0:0:0:0:
336,111,16960,2,0,L|269:96,1,40,10|0,1:0|0:0,0:0:0:0:
174,0,17136,1,0,0:0:0:0:
93,191,17313,5,8,3:0:0:0:
215,154,17489,1,0,0:0:0:0:
122,67,17666,1,8,3:0:0:0:
52,251,17842,102,0,P|111:258|157:222,1,120
93,191,18195,1,2,0:0:0:0:
15,313,18371,1,8,3:0:0:0:
12,327,18460,1,0,0:0:0:0:
9,341,18548,1,0,0:0:0:0:
163,250,18724,1,8,3:0:0:0:
160,236,18813,1,0,0:0:0:0:
157,222,18901,1,0,0:0:0:0:
9,159,19077,6,0,L|146:131,1,120,8|0,3:0|0:0,0:0:0:0:
215,154,19430,38,0,L|243:291,1,120,8|0,1:0|0:0,0:0:0:0:
220,360,19783,6,0,L|83:388,1,120,8|0,1:0|0:0,0:0:0:0:
14,365,20136,101,8,3:0:0:0:
220,360,20313,1,0,0:0:0:0:
102,384,20489,1,8,3:0:0:0:
239,271,20666,6,0,P|300:269|351:307,1,120
381,355,21019,1,2,0:0:0:0:
220,360,21195,1,8,3:0:0:0:
223,345,21283,1,0,0:0:0:0:
226,330,21371,1,0,0:0:0:0:
352,271,21548,1,8,3:0:0:0:
349,286,21636,1,0,0:0:0:0:
346,301,21724,1,0,0:0:0:0:
169,217,21901,102,0,L|306:189,1,120,8|0,3:0|0:0,0:0:0:0:
385,308,22254,6,0,L|316:294,1,40,10|0,1:0|0:0,0:0:0:0:
292,222,22430,1,0,0:0:0:0:
289,207,22519,1,0,0:0:0:0:
286,192,22607,2,0,L|355:178,1,40,10|0,1:0|0:0,0:0:0:0:
385,76,22783,2,0,L|316:62,1,40
169,217,22960,6,0,P|126:225|74:200,1,90.0000034332277,8|0,3:0|0:0,0:0:0:0:
45,140,23313,2,0,P|88:132|140:157,1,90.0000034332277,8|0,3:0|0:0,0:0:0:0:
169,217,23666,6,0,L|156:320,1,90.0000034332277,8|0,3:0|0:0,0:0:0:0:
45,140,24019,2,0,L|51:88,1,30.0000011444092,8|0,3:0|0:0,0:0:0:0:
59,20,24195,1,2,1:0:0:0:
59,20,24548,101,0,0:0:0:0:
59,20,24724,2,0,L|124:27,1,60.0000022888184,12|0,1:0|0:0,0:0:0:0:
208,37,25077,1,8,3:0:0:0:
206,51,25166,1,0,0:0:0:0:
204,65,25254,1,0,0:0:0:0:
193,155,25430,1,8,3:0:0:0:
193,155,25607,1,0,0:0:0:0:
208,37,25783,6,0,P|251:29|293:45,1,90.0000034332277,8|0,3:0|0:0,0:0:0:0:
341,95,26136,2,0,P|382:111|426:103,1,90.0000034332277,8|0,3:0|0:0,0:0:0:0:
488,71,26489,102,0,L|501:174,1,90.0000034332277,8|0,3:0|0:0,0:0:0:0:
327,209,26842,2,0,L|333:157,1,30.0000011444092,8|0,3:0|0:0,0:0:0:0:
341,95,27019,1,2,1:0:0:0:
341,95,27371,5,0,0:0:0:0:
341,95,27548,2,0,L|418:104,1,60.0000022888184,12|0,1:0|0:0,0:0:0:0:
483,112,27901,2,0,L|476:163,1,30.0000011444092,8|0,3:0|0:0,0:0:0:0:
405,189,28077,2,0,L|411:240,1,30.0000011444092
479,295,28254,1,10,3:0:0:0:
464,296,28342,1,2,0:0:0:0:
449,297,28430,1,2,0:0:0:0:
434,298,28519,1,2,0:0:0:0:
419,299,28607,102,0,P|375:291|333:307,1,90.0000034332277,8|0,3:0|0:0,0:0:0:0:
295,376,28960,2,0,P|338:383|380:367,1,90.0000034332277,8|0,3:0|0:0,0:0:0:0:
419,299,29313,6,0,L|406:196,1,90.0000034332277,8|0,3:0|0:0,0:0:0:0:
268,188,29666,2,0,L|262:240,1,30.0000011444092,8|0,3:0|0:0,0:0:0:0:
254,308,29842,1,2,1:0:0:0:
254,308,30195,101,0,0:0:0:0:
254,308,30371,2,0,L|189:301,1,60.0000022888184,12|0,1:0|0:0,0:0:0:0:
105,291,30724,1,8,3:0:0:0:
107,277,30813,1,0,0:0:0:0:
109,263,30901,1,0,0:0:0:0:
120,173,31077,1,8,3:0:0:0:
120,173,31254,1,0,0:0:0:0:
105,291,31430,6,0,L|7:280,1,90.0000034332277,8|0,3:0|0:0,0:0:0:0:
15,281,31783,2,0,L|25:183,1,90.0000034332277,8|0,3:0|0:0,0:0:0:0:
120,173,32136,102,0,L|217:183,1,90.0000034332277,8|0,3:0|0:0,0:0:0:0:
209,182,32489,2,0,L|198:279,1,90.0000034332277,8|0,3:0|0:0,0:0:0:0:
255,353,32842,6,0,L|260:304,1,30.0000011444092,2|0,0:0|0:0,0:0:0:0:
326,311,33019,2,0,L|314:263,1,30.0000011444092,2|0,0:0|0:0,0:0:0:0:
391,231,33195,2,0,L|363:190,1,30.0000011444092,2|0,0:0|0:0,0:0:0:0:
432,108,33371,2,0,L|392:79,1,30.0000011444092,2|0,0:0|0:0,0:0:0:0:
332,30,33548,38,0,L|317:49,3,25,2|0|0|0,1:0|0:0|0:0|0:0,0:0:0:0:
287,26,33724,2,0,L|280:49,3,25,2|0|0|0,1:0|0:0|0:0|0:0,0:0:0:0:
213,41,33901,2,0,L|214:65,3,25,2|0|0|0,1:0|0:0|0:0|0:0,0:0:0:0:
135,87,34077,2,0,L|144:109,3,25,2|0|0|0,1:0|0:0|0:0|0:0,0:0:0:0:
80,192,34254,22,0,L|63:324,1,120.000004577637,12|0,1:0|0:0,0:0:0:0:
160,365,34519,1,2,0:0:0:0:
126,360,34607,2,0,L|142:227,1,120.000004577637,8|0,3:0|0:0,0:0:0:0:
200,192,34960,5,2,1:0:0:0:
234,187,35048,1,0,0:0:0:0:
293,234,35224,1,2,1:0:0:0:
354,283,35401,1,0,0:0:0:0:
388,278,35489,102,0,P|324:314|303:224,1,180.000006866455,2|0,1:0|0:0,0:0:0:0:
362,204,35842,1,2,0:0:0:0:
414,352,36019,1,8,3:0:0:0:
259,323,36195,1,0,0:0:0:0:
388,278,36371,5,2,1:0:0:0:
354,283,36460,1,0,0:0:0:0:
362,204,36636,1,2,1:0:0:0:
370,125,36813,1,0,0:0:0:0:
336,130,36901,102,0,P|272:94|251:184,1,180.000006866455,2|0,1:0|0:0,0:0:0:0:
293,248,37254,1,2,0:0:0:0:
223,236,37430,1,8,3:0:0:0:
136,221,37607,1,0,0:0:0:0:
28,202,37783,6,0,L|17:288,1,60.0000022888184,8|0,1:0|0:0,0:0:0:0:
131,260,37960,2,0,L|136:221,1,40,8|0,1:0|0:0,0:0:0:0:
223,236,38136,2,0,L|221:257,1,20,8|0,1:0|0:0,0:0:0:0:
287,307,38313,102,2,L|292:247,1,60,6|0,1:0|0:0,1:0:0:0:
479,297,38666,6,2,L|360:286,1,120,2|0,1:0|0:0,1:0:0:0:
414,39,39019,38,2,L|398:219,1,180.000006866455,2|0,1:0|0:0,1:0:0:0:
331,181,39371,6,0,L|217:170,1,60.0000022888184,2|0,0:0|0:0,0:0:0:0:
223,236,39548,2,0,L|163:241,1,60.0000022888184,2|0,3:0|0:0,0:0:0:0:
82,152,39724,2,0,L|22:146,1,60.0000022888184,2|0,0:0|0:0,0:0:0:0:
22,350,39901,102,0,P|85:348|129:310,1,120.000004577637,12|0,1:0|0:0,0:0:0:0:
166,211,40166,1,2,0:0:0:0:
163,240,40254,2,0,P|100:242|56:280,1,120.000004577637,8|0,3:0|0:0,0:0:0:0:
210,336,40607,5,2,1:0:0:0:
207,307,40695,1,0,0:0:0:0:
127,312,40871,1,2,1:0:0:0:
290,331,41048,1,0,0:0:0:0:
287,302,41136,102,0,L|467:318,1,180.000006866455,2|0,1:0|0:0,0:0:0:0:
400,248,41489,1,2,0:0:0:0:
290,331,41666,1,8,3:0:0:0:
206,221,41842,1,0,0:0:0:0:
316,137,42019,5,2,1:0:0:0:
337,164,42107,1,0,0:0:0:0:
400,248,42283,1,2,1:0:0:0:
317,310,42460,1,0,0:0:0:0:
290,331,42548,1,2,1:0:0:0:
206,221,42724,102,0,L|269:167,1,60.0000022888184,14|0,1:0|0:0,0:0:0:0:
316,137,42901,5,2,0:0:0:0:
303,234,43077,1,8,3:0:0:0:
316,137,43254,1,0,0:0:0:0:
177,298,43430,102,0,L|137:252,1,60.0000022888184,14|0,1:0|0:0,0:0:0:0:
74,209,43607,5,2,0:0:0:0:
87,306,43783,1,8,3:0:0:0:
74,209,43960,1,0,0:0:0:0:
251,181,44136,38,0,L|205:220,1,60.0000022888184,14|0,1:0|0:0,0:0:0:0:
138,253,44313,2,0,L|177:298,1,60.0000022888184,2|0,0:0|0:0,0:0:0:0:
210,366,44489,2,0,L|255:326,1,60.0000022888184,14|0,1:0|0:0,0:0:0:0:
323,294,44666,2,0,L|283:248,1,60.0000022888184
205,219,44842,6,0,L|203:248,3,30.0000011444092,10|0|0|0,1:0|0:0|0:0|0:0,0:0:0:0:
177,298,45019,2,0,L|206:300,3,30.0000011444092,10|0|0|0,1:0|0:0|0:0|0:0,0:0:0:0:
254,326,45195,2,0,L|257:296,3,30.0000011444092,10|0|0|0,1:0|0:0|0:0|0:0,0:0:0:0:
283,248,45371,2,0,L|253:246,3,30.0000011444092,10|0|0|0,1:0|0:0|0:0|0:0,0:0:0:0:
230,273,45548,101,12,1:0:0:0:
373,366,45724,5,0,0:0:0:0:
359,367,45813,1,0,0:0:0:0:
345,368,45901,1,8,3:0:0:0:
331,369,45989,1,0,0:0:0:0:
317,370,46077,1,0,0:0:0:0:
443,361,46254,37,2,1:0:0:0:
444,375,46342,1,0,0:0:0:0:
438,291,46519,1,2,1:0:0:0:
432,207,46695,1,0,0:0:0:0:
433,221,46783,6,0,L|253:233,1,180.000006866455,2|0,1:0|0:0,0:0:0:0:
173,242,47136,1,2,0:0:0:0:
174,256,47224,1,0,0:0:0:0:
175,270,47313,1,8,3:0:0:0:
176,284,47401,1,0,0:0:0:0:
177,298,47489,1,0,0:0:0:0:
168,172,47666,37,2,1:0:0:0:
182,171,47754,1,0,0:0:0:0:
98,177,47930,1,2,1:0:0:0:
14,183,48107,1,0,0:0:0:0:
28,182,48195,6,0,L|40:362,1,180.000006866455,2|0,1:0|0:0,0:0:0:0:
109,356,48548,1,2,0:0:0:0:
123,355,48636,1,0,0:0:0:0:
137,354,48724,1,8,3:0:0:0:
151,353,48813,1,0,0:0:0:0:
165,352,48901,1,0,0:0:0:0:
229,238,49077,37,10,3:0:0:0:
215,239,49166,1,0,0:0:0:0:
201,240,49254,1,0,0:0:0:0:
187,241,49342,1,0,0:0:0:0:
173,242,49430,1,8,3:0:0:0:
291,349,49607,6,2,P|319:355|321:321,1,60,2|0,1:0|0:0,1:0:0:0:
438,280,49960,38,2,P|386:290|383:228,1,120,2|0,1:0|0:0,1:0:0:0:
173,242,50313,6,2,P|245:257|250:169,1,180.000006866455,2|0,1:0|0:0,1:0:0:0:
379,135,50666,38,0,L|319:138,1,60.0000022888184,2|0,0:0|0:0,0:0:0:0:
444,100,50842,2,0,L|447:159,1,60.0000022888184,2|0,3:0|0:0,0:0:0:0:
253,172,51019,2,0,L|249:112,1,60.0000022888184,2|0,0:0|0:0,0:0:0:0:
375,236,51195,5,12,1:0:0:0:
319,138,51371,37,2,0:0:0:0:
333,137,51460,1,0,0:0:0:0:
347,136,51548,1,8,3:0:0:0:
361,135,51636,1,0,0:0:0:0:
375,134,51724,1,0,0:0:0:0:
252,158,51901,5,2,1:0:0:0:
253,172,51989,1,0,0:0:0:0:
187,206,52166,1,2,1:0:0:0:
122,254,52342,1,0,0:0:0:0:
121,240,52430,37,2,1:0:0:0:
187,206,52783,1,0,0:0:0:0:
253,172,53136,1,0,0:0:0:0:
188,220,53313,5,2,1:0:0:0:
187,206,53401,1,0,0:0:0:0:
253,172,53577,1,2,1:0:0:0:
122,254,53754,37,0,0:0:0:0:
121,240,53842,1,2,1:0:0:0:
120,226,53930,1,0,0:0:0:0:
119,212,54019,6,0,L|28:217,1,60.0000022888184,14|0,1:0|0:0,0:0:0:0:
188,220,54195,1,2,0:0:0:0:
59,215,54371,1,8,3:0:0:0:
253,172,54548,1,0,0:0:0:0:
315,297,54724,38,0,L|256:294,1,60.0000022888184,14|0,1:0|0:0,0:0:0:0:
122,254,54901,1,2,0:0:0:0:
187,302,55077,1,8,3:0:0:0:
256,294,55254,1,0,0:0:0:0:
511,211,55430,6,0,L|451:214,1,60.0000022888184,14|0,1:0|0:0,0:0:0:0:
382,205,55607,37,0,0:0:0:0:
383,175,55695,1,0,0:0:0:0:
384,145,55783,1,14,1:0:0:0:
354,144,55871,1,0,0:0:0:0:
324,143,55960,1,0,0:0:0:0:
323,173,56048,1,0,0:0:0:0:
322,203,56136,1,10,1:0:0:0:
352,204,56224,1,0,0:0:0:0:
382,205,56313,5,10,1:0:0:0:
384,145,56401,1,0,0:0:0:0:
324,143,56489,1,10,1:0:0:0:
322,203,56577,1,0,0:0:0:0:
382,205,56666,37,10,1:0:0:0:
352,204,56754,1,0,0:0:0:0:
322,203,56842,6,0,L|202:197,1,120.000004577637,12|0,1:0|0:0,0:0:0:0:
387,309,57107,1,2,0:0:0:0:
388,276,57195,2,0,L|268:270,1,120.000004577637,8|0,3:0|0:0,0:0:0:0:
453,382,57548,37,2,1:0:0:0:
454,349,57636,1,0,0:0:0:0:
337,378,57813,1,2,1:0:0:0:
222,341,57989,1,0,0:0:0:0:
221,374,58077,6,0,P|151:376|167:267,1,180.000006866455,2|0,1:0|0:0,0:0:0:0:
203,276,58430,1,2,0:0:0:0:
67,371,58607,1,8,3:0:0:0:
52,205,58783,1,0,0:0:0:0:
204,243,58960,37,2,1:0:0:0:
203,276,59048,1,0,0:0:0:0:
268,270,59224,1,2,1:0:0:0:
332,263,59401,1,0,0:0:0:0:
333,231,59489,6,0,P|403:233|387:124,1,180.000006866455,2|0,1:0|0:0,0:0:0:0:
344,128,59842,1,2,0:0:0:0:
274,116,60019,1,8,3:0:0:0:
187,101,60195,1,0,0:0:0:0:
79,82,60371,38,0,L|68:168,1,60.0000022888184,8|0,1:0|0:0,0:0:0:0:
182,140,60548,2,0,L|187:101,1,40,8|0,1:0|0:0,0:0:0:0:
274,116,60724,2,0,L|272:137,1,20,8|0,1:0|0:0,0:0:0:0:
344,128,60901,6,2,L|350:65,1,60,6|0,1:0|0:0,1:0:0:0:
187,100,61254,38,2,L|175:219,1,120,6|0,1:0|0:0,1:0:0:0:
257,295,61607,6,2,L|274:115,1,180.000006866455,6|0,1:0|0:0,1:0:0:0:
79,82,61960,38,0,L|68:168,1,60.0000022888184,2|0,0:0|0:0,0:0:0:0:
175,219,62136,2,0,L|164:305,1,60.0000022888184,2|0,3:0|0:0,0:0:0:0:
15,301,62313,2,0,L|4:387,1,60.0000022888184,2|0,0:0|0:0,0:0:0:0:
222,358,62489,6,0,P|287:358|327:303,1,120.000004577637,12|0,1:0|0:0,0:0:0:0:
470,246,62754,1,2,0:0:0:0:
468,278,62842,2,0,P|403:278|363:223,1,120.000004577637,8|0,3:0|0:0,0:0:0:0:
274,210,63195,37,2,1:0:0:0:
276,242,63283,1,0,0:0:0:0:
270,146,63460,1,2,1:0:0:0:
264,50,63636,1,0,0:0:0:0:
266,82,63724,6,0,L|446:65,1,180.000006866455,2|0,1:0|0:0,0:0:0:0:
506,132,64077,1,2,0:0:0:0:
506,0,64254,1,8,3:0:0:0:
374,0,64430,1,0,0:0:0:0:
384,132,64607,37,2,1:0:0:0:
382,100,64695,1,0,0:0:0:0:
445,65,64871,1,2,1:0:0:0:
508,100,65048,1,0,0:0:0:0:
506,132,65136,1,2,1:0:0:0:
441,225,65313,6,0,L|449:135,1,60.0000022888184,14|0,1:0|0:0,0:0:0:0:
476,285,65489,1,2,0:0:0:0:
395,278,65666,1,8,3:0:0:0:
314,271,65842,1,0,0:0:0:0:
238,323,66019,38,0,L|229:233,1,60.0000022888184,14|0,1:0|0:0,0:0:0:0:
203,383,66195,1,2,0:0:0:0:
284,376,66371,1,8,3:0:0:0:
365,369,66548,1,0,0:0:0:0:
156,228,66724,6,0,L|165:318,1,60.0000022888184,14|0,1:0|0:0,0:0:0:0:
238,323,66901,2,0,L|229:233,1,60.0000022888184
2,156,67077,2,0,L|11:246,1,60.0000022888184,14|0,1:0|0:0,0:0:0:0:
84,251,67254,2,0,L|79:192,1,60.0000022888184
238,323,67430,38,0,L|240:293,3,30.0000011444092,10|0|0|0,1:0|0:0|0:0|0:0,0:0:0:0:
314,288,67607,2,0,L|316:258,3,30.0000011444092,10|0|0|0,1:0|0:0|0:0|0:0,0:0:0:0:
392,251,67783,2,0,L|394:221,3,30.0000011444092,10|0|0|0,1:0|0:0|0:0|0:0,0:0:0:0:
468,216,67960,2,0,L|470:186,3,30.0000011444092,10|0|0|0,1:0|0:0|0:0|0:0,0:0:0:0:
401,137,68136,5,12,1:0:0:0:
445,329,68313,37,0,0:0:0:0:
430,331,68401,1,0,0:0:0:0:
415,333,68489,1,8,3:0:0:0:
400,335,68577,1,0,0:0:0:0:
385,337,68666,1,0,0:0:0:0:
300,256,68842,5,2,1:0:0:0:
315,258,68930,1,0,0:0:0:0:
393,221,69107,1,2,1:0:0:0:
484,188,69283,1,0,0:0:0:0:
469,186,69371,38,0,L|457:366,1,180.000006866455,2|0,1:0|0:0,0:0:0:0:
385,337,69724,1,2,0:0:0:0:
370,339,69813,1,0,0:0:0:0:
355,341,69901,1,8,3:0:0:0:
340,343,69989,1,0,0:0:0:0:
325,345,70077,1,0,0:0:0:0:
300,256,70254,5,2,1:0:0:0:
315,258,70342,1,0,0:0:0:0:
237,295,70519,1,2,1:0:0:0:
174,334,70695,1,0,0:0:0:0:
159,332,70783,38,0,L|171:152,1,180.000006866455,2|0,1:0|0:0,0:0:0:0:
42,199,71136,1,2,0:0:0:0:
57,201,71224,1,0,0:0:0:0:
72,203,71313,1,8,3:0:0:0:
87,205,71401,1,0,0:0:0:0:
102,207,71489,1,0,0:0:0:0:
297,303,71666,5,10,3:0:0:0:
282,301,71754,1,0,0:0:0:0:
267,299,71842,1,0,0:0:0:0:
252,297,71930,1,0,0:0:0:0:
237,295,72019,1,8,3:0:0:0:
26,345,72195,38,2,P|51:333|54:367,1,60,6|0,1:0|0:0,1:0:0:0:
237,295,72548,6,2,P|187:271|181:339,1,120,6|0,1:0|0:0,1:0:0:0:
2,197,72901,38,2,P|77:161|86:263,1,180.000006866455,6|0,0:0|0:0,1:0:0:0:
342,102,73254,6,0,L|348:192,1,60.0000022888184,2|0,0:0|0:0,0:0:0:0:
222,67,73430,2,0,L|312:61,1,60.0000022888184,2|0,3:0|0:0,0:0:0:0:
183,127,73607,2,0,L|186:186,1,60.0000022888184,2|0,0:0|0:0,0:0:0:0:
245,225,73783,37,12,0:0:0:0:
405,157,73960,5,0,0:0:0:0:
390,158,74048,1,0,0:0:0:0:
375,159,74136,1,8,3:0:0:0:
360,160,74224,1,0,0:0:0:0:
345,161,74313,1,0,0:0:0:0:
508,236,74489,37,2,1:0:0:0:
506,254,74577,1,0,0:0:0:0:
436,240,74754,1,2,1:0:0:0:
362,263,74930,1,0,0:0:0:0:
364,245,75019,5,2,1:0:0:0:
436,240,75371,1,0,0:0:0:0:
508,236,75724,1,0,0:0:0:0:
434,258,75901,37,2,1:0:0:0:
436,240,75989,1,0,0:0:0:0:
508,236,76166,1,2,1:0:0:0:
358,299,76342,5,0,0:0:0:0:
360,281,76430,1,2,1:0:0:0:
362,263,76519,1,0,0:0:0:0:
364,245,76607,38,0,L|304:248,1,60.0000022888184,14|0,1:0|0:0,0:0:0:0:
508,236,76783,1,2,0:0:0:0:
364,245,76960,1,8,3:0:0:0:
436,240,77136,1,0,0:0:0:0:
290,313,77313,6,0,L|231:317,1,60.0000022888184,14|0,1:0|0:0,0:0:0:0:
86,326,77489,1,2,0:0:0:0:
158,322,77666,1,8,3:0:0:0:
230,317,77842,1,0,0:0:0:0:
418,357,78019,101,10,1:0:0:0:
364,245,78195,1,10,1:0:0:0:
310,357,78371,1,10,1:0:0:0:
256,245,78548,1,10,1:0:0:0:
424,364,78901,5,2,0:0:0:0:
424,364,78989,1,2,0:0:0:0:
424,364,79077,1,2,0:0:0:0:
259,249,79254,1,2,0:0:0:0:
259,249,79342,1,2,0:0:0:0:
