osu file format v14

[General]
AudioFilename: audio.mp3
AudioLeadIn: 0
PreviewTime: 33019
Countdown: 0
SampleSet: Soft
StackLeniency: 0.7
Mode: 2
LetterboxInBreaks: 0
WidescreenStoryboard: 1

[Editor]
DistanceSpacing: 1
BeatDivisor: 4
GridSize: 32
TimelineZoom: 2.1

[Metadata]
Title:WWW.BLONDE GIRL (MOMO MIX)
TitleUnicode:WWW.BLONDE GIRL (MOMO MIX)
Artist:JENNY ROM
ArtistUnicode:JENNY ROM
Creator:Ascendance
Version:Spec's Challenge
Source:DDRMAX -DanceDanceRevolution 6thMIX-
Tags:blond cute ddr dance dance revolution dancemania sanyi paranoid grapes spectator fii kaitlin -wwwww wonjae kaifin
BeatmapID:1512668
BeatmapSetID:715066

[Difficulty]
HPDrainRate:6
CircleSize:4
OverallDifficulty:9.3
ApproachRate:9.3
SliderMultiplier:2
SliderTickRate:2

[Events]
//Background and Video events
0,0,"52d4acf8622b3e23857c8402ea2a22a708f0a229_s2_n2.jpg",0,0
//Break Periods
//Storyboard Layer 0 (Background)
//Storyboard Layer 1 (Fail)
//Storyboard Layer 2 (Pass)
//Storyboard Layer 3 (Foreground)
//Storyboard Sound Samples

[TimingPoints]
372,352.941176470588,4,2,0,40,1,0
372,-100,4,2,0,40,0,0
5489,-100,4,2,0,40,0,0
5842,-100,4,2,0,40,0,0
7430,-100,4,2,0,40,0,0
10607,-76.9230769230769,4,2,0,40,0,0
10960,-55.5555555555556,4,2,0,40,0,0
11666,-100,4,2,0,40,0,0
22960,-100,4,2,0,40,0,0
33548,-100,4,2,0,40,0,0
34254,-100,4,2,0,40,0,1
37960,-100,4,2,0,40,0,1
38136,-100,4,2,0,40,0,1
38313,-100,4,2,0,40,0,1
38666,-66.6666666666667,4,2,0,60,0,1
39019,-58.8235294117647,4,2,0,80,0,1
39371,-25,4,2,0,60,0,1
39901,-100,4,2,0,40,0,1
49607,-100,4,2,0,40,0,1
49960,-66.6666666666667,4,2,0,60,0,1
50313,-58.8235294117647,4,2,0,80,0,1
50666,-25,4,2,0,60,0,1
51195,-100,4,2,0,40,0,1
55430,-100,4,2,0,40,0,0
56842,-100,4,2,0,40,0,1
60548,-100,4,2,0,40,0,1
60724,-100,4,2,0,40,0,1
61254,-66.6666666666667,4,2,0,60,0,1
61607,-58.8235294117647,4,2,0,80,0,1
61960,-25,4,2,0,60,0,1
62489,-100,4,2,0,40,0,1
72195,-100,4,2,0,40,0,1
72548,-66.6666666666667,4,2,0,60,0,1
72901,-58.8235294117647,4,2,0,80,0,1
73254,-25,4,2,0,60,0,1
73783,-100,4,2,0,40,0,1
78019,-100,4,2,0,40,0,0

[Colours]
Combo1 : 128,0,64
Combo2 : 255,255,183
Combo3 : 255,168,255
Combo4 : 128,64,0

[HitObjects]
96,242,372,5,10,3:1:0:0:
213,244,548,1,0,0:0:0:0:
96,242,724,1,8,3:0:0:0:
358,298,901,2,0,P|431:257|446:162,1,150,0|0,0:0|0:0,0:0:0:0:
363,193,1254,1,0,0:0:0:0:
210,192,1430,2,0,L|73:191,1,100,0|0,0:0|0:0,0:0:0:0:
352,288,1783,6,0,L|489:287,1,100,10|0,3:1|0:0,0:0:0:0:
317,288,2136,1,8,3:0:0:0:
256,288,2224,2,0,P|211:244|239:184,1,100,0|0,0:0|0:0,0:0:0:0:
366,160,2489,1,8,3:0:0:0:
439,160,2577,1,0,0:0:0:0:
280,57,2754,1,0,0:0:0:0:
208,58,2842,1,0,0:0:0:0:
375,133,3019,1,0,0:0:0:0:
62,191,3195,5,10,3:1:0:0:
194,190,3371,1,0,0:0:0:0:
62,191,3547,1,8,3:0:0:0:
394,293,3724,2,0,P|376:222|301:167,1,150,0|0,0:0|0:0,0:0:0:0:
244,171,4077,1,0,0:0:0:0:
91,169,4254,1,0,0:0:0:0:
244,171,4430,1,0,0:0:0:0:
41,259,4607,6,0,L|142:255,1,100,8|0,3:0|0:0,0:0:0:0:
301,167,4960,2,0,L|176:158,1,100,8|0,3:0|0:0,0:0:0:0:
445,162,5313,1,10,3:1:0:0:
194,300,5489,2,0,L|185:186,1,100,2|0,0:1|0:0,0:0:0:0:
451,252,5842,1,6,0:1:0:0:
189,202,6019,6,0,L|76:183,2,100,8|0|8,3:0|0:0|3:0,0:0:0:0:
320,160,6548,1,0,0:0:0:0:
160,288,6724,1,0,0:0:0:0:
124,252,6813,1,0,0:0:0:0:
113,203,6901,1,0,0:0:0:0:
138,160,6989,1,0,0:0:0:0:
186,148,7077,1,0,0:0:0:0:
348,153,7254,1,0,0:0:0:0:
67,329,7430,6,0,P|39:278|46:213,1,100,8|0,3:0|0:0,0:0:0:0:
157,193,7783,1,8,3:0:0:0:
225,194,7871,1,0,0:0:0:0:
61,80,8048,1,0,0:0:0:0:
129,81,8136,1,8,3:0:0:0:
271,119,8313,2,0,L|296:46,2,50,0|0|0,0:0|0:0|0:0,0:0:0:0:
115,119,8666,1,0,0:0:0:0:
447,192,8842,6,0,L|331:181,1,100,10|0,3:1|0:0,0:0:0:0:
193,221,9195,1,0,0:0:0:0:
356,196,9371,1,0,0:0:0:0:
65,192,9548,6,0,L|181:181,1,100,10|0,3:1|0:0,0:0:0:0:
319,221,9901,1,0,0:0:0:0:
156,196,10077,1,0,0:0:0:0:
445,300,10254,2,0,L|424:213,1,50,10|0,3:1|0:0,0:0:0:0:
360,209,10430,1,0,0:0:0:0:
239,148,10607,2,0,L|322:148,1,64.9999970245363,10|0,3:1|0:0,0:0:0:0:
383,148,10783,1,0,0:0:0:0:
144,311,10960,6,0,P|110:276|151:220,1,89.9999972534181,10|0,3:1|0:0,0:0:0:0:
298,204,11136,2,0,P|340:203|395:262,1,89.9999972534181,10|0,3:1|0:0,0:0:0:0:
213,203,11313,6,0,P|169:203|132:228,1,89.9999972534181,8|0,3:0|0:0,0:0:0:0:
367,311,11489,2,0,P|400:282|394:239,1,89.9999972534181,8|0,3:0|0:0,0:0:0:0:
136,122,11666,6,0,P|86:102|28:111,2,100,8|0|8,3:0|0:0|3:0,0:0:0:0:
336,236,12195,2,0,P|375:167|282:71,1,200,0|2,0:0|0:0,0:0:0:0:
160,96,12724,2,0,L|39:94,1,100,8|0,3:0|0:0,0:0:0:0:
189,273,13077,6,0,P|243:270|311:276,1,100,8|0,3:0|0:0,0:0:0:0:
464,278,13430,2,0,L|474:151,1,100,8|0,3:0|0:0,0:0:0:0:
314,169,13783,1,8,1:0:0:0:
461,168,13960,1,0,0:0:0:0:
298,161,14136,2,0,L|288:34,1,100,8|0,1:0|0:0,0:0:0:0:
120,84,14489,6,0,L|251:82,2,100,8|0|8,3:0|0:0|3:0,0:0:0:0:
306,280,15019,2,0,P|389:266|438:137,1,200,0|2,0:0|0:0,0:0:0:0:
296,137,15548,2,0,L|403:137,1,100,8|0,3:0|0:0,0:0:0:0:
248,298,15901,6,0,L|261:186,1,100,8|0,3:0|0:0,0:0:0:0:
121,196,16254,2,0,L|110:296,1,100,8|0,3:0|0:0,0:0:0:0:
452,197,16607,1,10,1:0:0:0:
142,194,16960,1,10,1:0:0:0:
335,197,17313,6,0,L|218:195,2,100,8|0|8,3:0|0:0|3:0,0:0:0:0:
151,305,17842,2,0,P|73:264|91:149,1,200,0|2,0:0|0:0,0:0:0:0:
236,119,18371,2,0,L|366:112,1,100,8|0,3:0|0:0,0:0:0:0:
173,295,18724,6,0,L|157:197,1,100,8|0,3:0|0:0,0:0:0:0:
305,111,19077,2,0,L|166:101,1,100,8|0,3:0|0:0,0:0:0:0:
441,231,19430,6,0,L|308:220,1,100,8|0,1:0|0:0,0:0:0:0:
207,111,19783,2,0,L|346:101,1,100,8|0,1:0|0:0,0:0:0:0:
42,319,20136,6,0,L|152:308,2,100,8|0|8,3:0|0:0|3:0,0:0:0:0:
186,359,20666,2,0,P|261:329|243:210,1,200,0|2,0:0|0:0,0:0:0:0:
149,177,21195,2,0,L|44:182,1,100,8|0,3:0|0:0,0:0:0:0:
335,199,21548,2,0,L|204:197,1,100,8|0,3:0|0:0,0:0:0:0:
376,100,21901,2,0,L|251:98,1,100,8|0,3:0|0:0,0:0:0:0:
417,282,22254,2,0,P|457:240|443:173,1,100,10|0,1:0|0:0,0:0:0:0:
375,194,22519,1,0,0:0:0:0:
160,192,22607,2,0,P|120:150|134:83,1,100,10|0,1:0|0:0,0:0:0:0:
207,113,22872,1,0,0:0:0:0:
393,325,22960,6,0,P|429:270|366:204,1,150,12|0,3:0|0:0,0:0:0:0:
307,209,23313,2,0,L|166:207,1,100,8|0,3:0|0:0,0:0:0:0:
374,349,23666,2,0,P|403:308|410:237,1,100,8|0,3:0|0:0,0:0:0:0:
307,209,24019,1,8,3:0:0:0:
57,207,24195,1,2,1:0:0:0:
358,119,24371,6,0,L|219:117,2,100,0|0|12,0:0|0:0|1:0,0:0:0:0:
118,120,24901,1,0,0:0:0:0:
424,325,25077,2,0,L|442:205,1,100,8|0,3:0|0:0,0:0:0:0:
283,137,25430,1,8,3:0:0:0:
333,134,25519,1,0,0:0:0:0:
382,131,25607,1,0,0:0:0:0:
47,248,25783,6,0,P|67:166|141:126,1,150,8|0,3:0|0:0,0:0:0:0:
200,128,26136,2,0,L|332:124,1,100,8|0,3:0|0:0,0:0:0:0:
429,222,26489,2,0,L|304:222,1,100,8|0,3:0|0:0,0:0:0:0:
486,148,26842,1,8,3:0:0:0:
210,264,27019,1,2,1:0:0:0:
467,85,27195,6,0,L|341:76,2,100,0|0|0,0:0|0:0|0:0,0:0:0:0:
316,178,27724,1,0,0:0:0:0:
53,243,27901,2,0,L|41:173,3,50,8|0|0|0,3:0|0:0|0:0|0:0,0:0:0:0:
128,128,28254,1,10,3:0:0:0:
370,133,28430,1,2,0:0:0:0:
114,320,28607,6,0,P|104:237|179:182,1,150,8|0,3:0|0:0,0:0:0:0:
228,188,28960,2,0,L|104:187,1,100,8|0,3:0|0:0,0:0:0:0:
305,255,29313,2,0,L|406:254,2,100,8|0|8,3:0|0:0|3:0,0:0:0:0:
53,252,29842,1,2,1:0:0:0:
341,95,30019,6,0,L|450:90,2,100
232,99,30548,1,0,0:0:0:0:
112,96,30724,2,0,L|213:95,1,100,8|0,3:0|0:0,0:0:0:0:
347,90,31077,2,0,L|426:93,2,50,8|0|0,3:0|0:0|0:0,0:0:0:0:
41,208,31430,6,0,P|43:137|134:97,1,150,8|0,3:0|0:0,0:0:0:0:
186,95,31783,2,0,L|296:93,1,100,8|0,3:0|0:0,0:0:0:0:
145,278,32136,2,0,L|134:167,1,100,8|0,3:0|0:0,0:0:0:0:
474,157,32489,2,0,L|485:46,1,100,8|0,3:0|0:0,0:0:0:0:
201,313,32842,6,0,L|132:305,1,50,2|0,0:0|0:0,0:0:0:0:
252,225,33019,2,0,L|330:232,1,50,2|0,0:0|0:0,0:0:0:0:
129,124,33195,2,0,L|53:117,1,50,2|0,0:0|0:0,0:0:0:0:
307,45,33371,2,0,L|383:38,1,50,2|0,0:0|0:0,0:0:0:0:
63,278,33548,2,0,P|36:227|81:170,1,100,2|2,1:0|1:0,0:0:0:0:
326,200,33901,1,2,1:0:0:0:
181,198,34077,1,2,1:0:0:0:
458,286,34254,6,0,P|405:260|333:266,1,100,12|0,1:0|0:0,0:0:0:0:
211,302,34607,2,0,L|198:188,1,100,8|0,3:0|0:0,0:0:0:0:
372,207,34960,2,0,L|381:127,1,50,2|0,1:0|0:0,0:0:0:0:
302,134,35136,2,0,L|308:69,1,50,0|2,0:0|1:0,0:0:0:0:
229,43,35313,1,0,0:0:0:0:
401,44,35489,1,2,1:0:0:0:
272,87,35666,6,0,L|143:76,1,100,0|2,0:0|0:0,0:0:0:0:
22,167,36019,2,0,L|165:157,1,100,8|0,3:0|0:0,0:0:0:0:
284,208,36371,1,2,1:0:0:0:
328,183,36460,1,0,0:0:0:0:
342,135,36548,1,0,0:0:0:0:
322,89,36636,1,2,1:0:0:0:
275,71,36724,1,0,0:0:0:0:
98,162,36901,1,2,1:0:0:0:
372,316,37077,6,0,L|473:306,1,100,0|2,0:0|0:0,0:0:0:0:
301,214,37430,2,0,L|200:204,1,100,8|0,3:0|0:0,0:0:0:0:
40,139,37783,2,0,L|158:121,2,100,8|8|8,1:0|1:0|1:0,0:0:0:0:
300,285,38313,6,0,L|420:265,1,100,6|0,1:0|0:0,0:0:0:0:
277,180,38666,2,0,L|474:149,1,150.000005722046,2|0,1:0|0:0,0:0:0:0:
257,73,39019,2,0,L|499:38,1,170.000003242493,2|0,1:0|0:0,0:0:0:0:
32,160,39371,2,0,L|480:160,2,400,2|2|2,0:0|3:0|0:0,0:0:0:0:
368,343,39901,6,0,P|415:308|408:235,1,100,12|0,1:0|0:0,0:0:0:0:
341,264,40166,1,2,0:0:0:0:
193,265,40254,2,0,L|62:258,1,100,8|0,3:0|0:0,0:0:0:0:
229,354,40607,2,0,L|236:273,1,50,2|0,1:0|0:0,0:0:0:0:
155,272,40783,2,0,L|161:192,1,50,0|2,0:0|1:0,0:0:0:0:
88,173,40960,1,0,0:0:0:0:
355,254,41136,6,0,L|470:246,1,100,2|0,1:0|0:0,0:0:0:0:
118,116,41489,2,0,L|-3:108,2,100,2|8|0,0:0|3:0|0:0,0:0:0:0:
382,205,42019,1,2,1:0:0:0:
423,177,42107,1,0,0:0:0:0:
437,129,42195,1,0,0:0:0:0:
407,88,42283,1,2,1:0:0:0:
348,72,42371,1,0,0:0:0:0:
503,72,42548,1,2,1:0:0:0:
70,282,42724,6,0,L|56:150,1,100,14|2,1:0|0:0,0:0:0:0:
301,137,43077,2,0,L|177:138,1,100,8|0,3:0|0:0,0:0:0:0:
442,282,43430,2,0,L|456:150,1,100,14|2,1:0|0:0,0:0:0:0:
171,86,43783,1,12,3:0:0:0:
226,85,43871,1,0,0:0:0:0:
282,84,43960,1,0,0:0:0:0:
44,249,44136,6,0,L|162:243,1,100,14|2,1:0|0:0,0:0:0:0:
22,151,44489,2,0,L|169:145,1,100,14|0,1:0|0:0,0:0:0:0:
248,198,44842,2,0,L|328:193,1,50,10|0,1:0|0:0,0:0:0:0:
210,111,45019,2,0,L|147:114,1,50,10|0,1:0|0:0,0:0:0:0:
343,311,45195,5,10,1:0:0:0:
366,302,45239,1,0,0:0:0:0:
377,279,45283,1,0,0:0:0:0:
379,254,45327,1,0,0:0:0:0:
369,230,45371,1,10,1:0:0:0:
348,215,45416,1,0,0:0:0:0:
317,210,45460,1,0,0:0:0:0:
67,298,45548,6,0,L|54:175,1,100,12|0,1:0|0:0,0:0:0:0:
218,164,45901,2,0,L|205:41,1,100,8|0,3:0|0:0,0:0:0:0:
66,325,46254,2,0,L|139:316,1,50,2|0,1:0|0:0,0:0:0:0:
196,340,46430,2,0,L|282:348,1,50,0|2,0:0|1:0,0:0:0:0:
184,263,46607,1,0,0:0:0:0:
442,217,46783,6,0,L|329:196,1,100,2|0,1:0|0:0,0:0:0:0:
219,119,47136,2,0,L|331:108,1,100,2|8,0:0|3:0,0:0:0:0:
440,90,47489,1,0,0:0:0:0:
78,209,47666,1,2,1:0:0:0:
40,176,47754,1,0,0:0:0:0:
24,128,47842,1,0,0:0:0:0:
50,85,47930,1,2,1:0:0:0:
98,69,48019,1,0,0:0:0:0:
226,76,48195,1,2,1:0:0:0:
470,222,48371,6,0,L|346:223,1,100,0|2,0:0|0:0,0:0:0:0:
237,320,48724,2,0,L|237:197,1,100,8|0,3:0|0:0,0:0:0:0:
412,233,49077,2,0,L|553:231,2,100,10|0|8,3:0|0:0|3:0,0:0:0:0:
134,293,49607,6,0,L|268:292,1,100,2|0,1:0|0:0,0:0:0:0:
136,192,49960,2,0,L|300:190,1,150.000005722046,2|0,1:0|0:0,0:0:0:0:
135,103,50313,2,0,L|345:100,1,170.000003242493,2|0,1:0|0:0,0:0:0:0:
39,256,50666,2,0,L|454:250,2,400,2|2|2,0:0|3:0|0:0,0:0:0:0:
326,337,51195,6,0,P|374:317|421:244,1,100,12|2,1:0|0:0,0:0:0:0:
332,279,51460,1,0,0:0:0:0:
169,284,51548,2,0,L|53:280,1,100,8|0,3:0|0:0,0:0:0:0:
190,342,51901,2,0,L|183:261,1,50,2|0,1:0|0:0,0:0:0:0:
264,260,52077,2,0,L|258:180,1,50,0|2,0:0|1:0,0:0:0:0:
331,161,52254,1,0,0:0:0:0:
75,223,52430,6,0,L|188:222,1,100,2|0,1:0|0:0,0:0:0:0:
425,236,52783,2,0,L|294:232,2,100,0|0|0,0:0|0:0|0:0,0:0:0:0:
296,331,53313,1,0,0:0:0:0:
253,304,53401,1,0,0:0:0:0:
233,258,53489,1,0,0:0:0:0:
250,211,53577,1,0,0:0:0:0:
295,189,53666,1,0,0:0:0:0:
443,192,53842,1,2,1:0:0:0:
31,208,54019,6,0,L|142:187,1,100,14|2,1:0|0:0,0:0:0:0:
263,187,54371,1,8,3:0:0:0:
102,181,54548,1,0,0:0:0:0:
481,208,54724,6,0,L|370:187,1,100,14|2,1:0|0:0,0:0:0:0:
249,187,55076,1,8,3:0:0:0:
423,186,55253,1,0,0:0:0:0:
161,275,55430,6,0,P|97:238|104:179,1,100,14|0,1:0|0:0,0:0:0:0:
174,214,55695,1,0,0:0:0:0:
351,275,55783,2,0,P|415:238|408:179,1,100,14|0,1:0|0:0,0:0:0:0:
338,214,56048,1,0,0:0:0:0:
180,217,56136,2,0,L|121:218,1,50,10|0,1:0|0:0,0:0:0:0:
350,214,56313,2,0,L|412:214,1,50,10|0,1:0|0:0,0:0:0:0:
163,115,56489,2,0,L|104:116,1,50,10|0,1:0|0:0,0:0:0:0:
333,112,56666,2,0,L|395:112,1,50,10|0,1:0|0:0,0:0:0:0:
146,305,56842,6,0,P|83:296|26:308,1,100,12|0,1:0|0:0,0:0:0:0:
176,232,57195,2,0,P|239:223|296:235,1,100,8|0,3:0|0:0,0:0:0:0:
140,207,57548,2,0,L|131:127,1,50,2|0,1:0|0:0,0:0:0:0:
210,134,57724,2,0,L|204:69,1,50,0|2,0:0|1:0,0:0:0:0:
283,43,57901,1,0,0:0:0:0:
111,44,58077,1,2,1:0:0:0:
213,199,58254,6,0,L|342:188,1,100,0|2,0:0|0:0,0:0:0:0:
483,110,58607,2,0,L|340:100,1,100,8|0,3:0|0:0,0:0:0:0:
108,212,58959,1,2,1:0:0:0:
64,187,59048,1,0,0:0:0:0:
50,139,59136,1,0,0:0:0:0:
70,93,59224,1,2,1:0:0:0:
117,75,59312,1,0,0:0:0:0:
299,74,59489,1,2,1:0:0:0:
140,316,59665,6,0,L|39:306,1,100,0|2,0:0|0:0,0:0:0:0:
211,214,60018,2,0,L|312:204,1,100,8|0,3:0|0:0,0:0:0:0:
446,138,60371,2,0,L|328:120,2,100,8|8|8,1:0|1:0|1:0,0:0:0:0:
175,287,60901,6,0,L|55:267,1,100,6|0,1:0|0:0,0:0:0:0:
198,182,61254,2,0,L|1:151,1,150.000005722046,6|0,1:0|0:0,0:0:0:0:
218,75,61607,2,0,L|-24:40,1,170.000003242493,6|0,1:0|0:0,0:0:0:0:
480,160,61960,2,0,L|32:160,2,400,2|2|2,0:0|3:0|0:0,0:0:0:0:
144,343,62489,6,0,P|97:308|104:235,1,100,12|0,1:0|0:0,0:0:0:0:
171,264,62754,1,2,0:0:0:0:
319,265,62842,2,0,L|450:258,1,100,8|0,3:0|0:0,0:0:0:0:
283,354,63195,2,0,L|276:273,1,50,2|0,1:0|0:0,0:0:0:0:
357,272,63371,2,0,L|351:192,1,50,0|2,0:0|1:0,0:0:0:0:
424,173,63548,1,0,0:0:0:0:
90,281,63724,6,0,L|77:165,1,100,2|0,1:0|0:0,0:0:0:0:
313,82,64077,2,0,L|213:88,2,100,2|8|0,0:0|3:0|0:0,0:0:0:0:
148,304,64607,1,2,1:0:0:0:
107,276,64695,1,0,0:0:0:0:
93,228,64783,1,0,0:0:0:0:
123,187,64871,1,2,1:0:0:0:
182,171,64959,1,0,0:0:0:0:
48,168,65136,1,2,1:0:0:0:
334,280,65312,6,0,L|445:279,1,100,14|2,1:0|0:0,0:0:0:0:
284,169,65665,2,0,L|408:170,1,100,8|0,3:0|0:0,0:0:0:0:
70,282,66018,2,0,L|56:150,1,100,14|2,1:0|0:0,0:0:0:0:
214,89,66371,1,8,3:0:0:0:
159,88,66459,1,0,0:0:0:0:
103,87,66548,1,0,0:0:0:0:
468,249,66724,6,0,L|350:243,1,100,14|0,1:0|0:0,0:0:0:0:
58,253,67077,2,0,L|157:257,1,100,14|0,1:0|0:0,0:0:0:0:
290,316,67430,2,0,L|296:247,1,50,10|0,1:0|0:0,0:0:0:0:
227,193,67607,2,0,L|218:128,1,50,10|0,1:0|0:0,0:0:0:0:
427,140,67783,5,10,1:0:0:0:
450,131,67827,1,0,0:0:0:0:
461,108,67871,1,0,0:0:0:0:
463,83,67915,1,0,0:0:0:0:
453,59,67959,1,10,1:0:0:0:
432,44,68004,1,0,0:0:0:0:
401,39,68048,1,0,0:0:0:0:
190,252,68136,6,0,L|88:249,1,100,12|0,1:0|0:0,0:0:0:0:
237,167,68489,2,0,L|250:44,1,100,8|0,3:0|0:0,0:0:0:0:
94,122,68842,2,0,L|167:113,1,50,2|0,1:0|0:0,0:0:0:0:
224,137,69018,2,0,L|310:145,1,50,0|2,0:0|1:0,0:0:0:0:
212,60,69195,1,0,0:0:0:0:
445,245,69371,6,0,L|332:224,1,100,2|0,1:0|0:0,0:0:0:0:
195,124,69724,2,0,L|294:133,1,100,2|8,0:0|3:0,0:0:0:0:
136,193,70077,1,0,0:0:0:0:
432,206,70254,1,2,1:0:0:0:
470,173,70342,1,0,0:0:0:0:
486,125,70430,1,0,0:0:0:0:
460,82,70518,1,0,0:0:0:0:
412,66,70607,1,0,0:0:0:0:
305,65,70783,1,2,1:0:0:0:
44,163,70959,6,0,L|165:161,1,100,0|2,0:0|0:0,0:0:0:0:
303,257,71312,2,0,L|305:116,1,100,8|0,3:0|0:0,0:0:0:0:
133,259,71666,2,0,L|-8:257,2,100,10|0|8,3:0|0:0|3:0,0:0:0:0:
370,288,72195,6,0,L|236:287,1,100,6|0,1:0|0:0,0:0:0:0:
360,193,72548,2,0,L|196:191,1,150.000005722046,6|0,1:0|0:0,0:0:0:0:
371,103,72901,2,0,L|161:100,1,170.000003242493,6|0,0:0|0:0,0:0:0:0:
473,256,73254,2,0,L|58:250,2,400,2|2|2,0:0|3:0|0:0,0:0:0:0:
186,337,73783,6,0,P|138:317|91:244,1,100,12|0,0:0|0:0,0:0:0:0:
180,279,74048,1,0,0:0:0:0:
343,284,74136,2,0,L|459:280,1,100,8|0,3:0|0:0,0:0:0:0:
309,342,74489,2,0,L|297:262,1,50,2|0,1:0|0:0,0:0:0:0:
221,252,74666,2,0,L|230:164,1,50,0|2,0:0|1:0,0:0:0:0:
307,167,74842,1,0,0:0:0:0:
57,90,75018,6,0,L|156:90,1,100,2|0,1:0|0:0,0:0:0:0:
290,162,75371,2,0,L|421:158,2,100,0|0|0,0:0|0:0|0:0,0:0:0:0:
157,232,75901,1,0,0:0:0:0:
114,205,75989,1,0,0:0:0:0:
94,159,76077,1,0,0:0:0:0:
111,112,76165,1,0,0:0:0:0:
156,90,76254,1,0,0:0:0:0:
401,91,76430,1,2,1:0:0:0:
134,269,76607,6,0,L|23:248,1,100,14|2,1:0|0:0,0:0:0:0:
192,186,76959,1,8,3:0:0:0:
36,184,77136,1,0,0:0:0:0:
373,268,77312,6,0,L|484:247,1,100,14|2,1:0|0:0,0:0:0:0:
288,196,77666,1,0,0:0:0:0:
451,196,77841,1,0,0:0:0:0:
136,197,78019,5,10,1:0:0:0:
390,197,78195,1,10,1:0:0:0:
136,197,78371,1,10,1:0:0:0:
390,197,78547,1,10,1:0:0:0:
105,279,78901,2,0,L|29:281,1,50,2|2,0:0|0:0,0:0:0:0:
136,279,79077,1,2,0:0:0:0:
258,278,79254,1,2,0:0:0:0:
327,279,79342,1,2,0:0:0:0:
