osu file format v14

[General]
AudioFilename: audio.mp3
AudioLeadIn: 0
PreviewTime: 33019
Countdown: 0
SampleSet: Soft
StackLeniency: 0.7
Mode: 2
LetterboxInBreaks: 0
WidescreenStoryboard: 1

[Editor]
DistanceSpacing: 3.5
BeatDivisor: 4
GridSize: 8
TimelineZoom: 0.9

[Metadata]
Title:WWW.BLONDE GIRL (MOMO MIX)
TitleUnicode:WWW.BLONDE GIRL (MOMO MIX)
Artist:JENNY ROM
ArtistUnicode:JENNY ROM
Creator:Ascendance
Version:Sanyi's Basic
Source:DDRMAX -DanceDanceRevolution 6thMIX-
Tags:blond cute ddr dance dance revolution dancemania sanyi paranoid grapes spectator fii kaitlin -wwwww wonjae kaifin
BeatmapID:1516304
BeatmapSetID:715066

[Difficulty]
HPDrainRate:4
CircleSize:3
OverallDifficulty:7
ApproachRate:7
SliderMultiplier:1.4
SliderTickRate:1

[Events]
//Background and Video events
0,0,"cropped-1920-1080-647172.jpg",0,0
//Break Periods
//Storyboard Layer 0 (Background)
//Storyboard Layer 1 (Fail)
//Storyboard Layer 2 (Pass)
//Storyboard Layer 3 (Foreground)
//Storyboard Sound Samples

[TimingPoints]
372,352.941176470588,4,2,0,40,1,0
372,-100,4,2,0,40,0,0
5313,-83.3333333333333,4,2,0,40,0,0
5842,-100,4,2,0,40,0,0
7430,-100,4,2,0,40,0,0
10254,-83.3333333333333,4,2,0,40,0,0
10960,-100,4,2,0,40,0,0
11666,-100,4,2,0,40,0,0
22960,-100,4,2,0,40,0,0
33548,-100,4,2,0,40,0,0
34254,-100,4,2,0,40,0,1
37960,-100,4,2,0,40,0,1
38136,-100,4,2,0,40,0,1
38313,-100,4,2,0,40,0,1
38666,-100,4,2,0,60,0,1
39019,-100,4,2,0,80,0,1
39371,-100,4,2,0,60,0,1
39901,-100,4,2,0,40,0,1
49607,-100,4,2,0,40,0,1
49960,-100,4,2,0,60,0,1
50313,-100,4,2,0,80,0,1
50666,-100,4,2,0,60,0,1
51195,-100,4,2,0,40,0,1
55430,-100,4,2,0,40,0,0
56842,-100,4,2,0,40,0,1
60548,-100,4,2,0,40,0,1
60724,-100,4,2,0,40,0,1
61254,-100,4,2,0,60,0,1
61607,-100,4,2,0,80,0,1
61960,-100,4,2,0,60,0,1
62489,-100,4,2,0,40,0,1
72195,-100,4,2,0,40,0,1
72548,-100,4,2,0,60,0,1
72901,-100,4,2,0,80,0,1
73254,-100,4,2,0,60,0,1
73783,-100,4,2,0,40,0,1
78019,-100,4,2,0,40,0,0

[Colours]
Combo1 : 128,0,64
Combo2 : 255,255,183
Combo3 : 255,168,255
Combo4 : 128,64,0

[HitObjects]
256,272,372,6,0,L|352:272,2,70,10|0|8,3:1|0:0|3:0,0:0:0:0:
152,280,901,2,0,P|120:208|160:168,1,140,0|0,0:0|0:0,0:0:0:0:
224,159,1430,2,0,L|296:125,1,70,0|0,0:0|0:0,0:0:0:0:
104,80,1783,6,0,L|32:80,2,70,10|0|8,3:1|0:0|3:0,0:0:0:0:
208,80,2313,2,0,P|240:160|136:208,1,210,0|0,0:0|0:0,0:0:0:0:
408,264,3195,6,0,L|504:264,2,70,10|0|8,3:1|0:0|3:0,0:0:0:0:
304,264,3724,2,0,P|272:192|312:152,1,140,0|0,0:0|0:0,0:0:0:0:
384,152,4253,2,0,L|384:72,1,70,0|0,0:0|0:0,0:0:0:0:
272,264,4607,5,8,3:0:0:0:
448,264,4960,1,8,3:0:0:0:
272,176,5313,2,0,L|184:176,1,83.9999974365235,10|2,3:1|0:1,0:0:0:0:
448,264,5842,1,6,0:1:0:0:
344,264,6019,5,8,3:0:0:0:
280,264,6195,1,0,0:0:0:0:
216,264,6371,1,8,3:0:0:0:
320,184,6548,2,0,P|352:112|312:72,1,140,0|0,0:0|0:0,0:0:0:0:
240,72,7077,2,0,L|240:144,1,70,0|0,0:0|0:0,0:0:0:0:
344,320,7430,6,0,L|416:320,2,70,8|0|8,3:0|0:0|3:0,0:0:0:0:
240,232,7960,2,0,L|24:232,1,210,0|0,0:0|0:0,0:0:0:0:
296,192,8842,5,10,3:1:0:0:
48,192,9548,1,10,3:1:0:0:
296,191,10254,6,0,L|158:95,2,167.999994873047,10|10|10,3:1|3:1|3:1,0:0:0:0:
184,224,11136,1,10,3:1:0:0:
161,197,11224,1,0,0:0:0:0:
154,163,11312,1,8,3:0:0:0:
162,129,11400,1,0,0:0:0:0:
185,103,11488,1,8,3:0:0:0:
280,104,11666,6,0,L|360:104,2,70,8|0|8,3:0|0:0|3:0,0:0:0:0:
96,184,12195,2,0,P|32:264|96:328,1,210,0|8,0:0|3:0,0:0:0:0:
248,326,13077,5,8,3:0:0:0:
96,254,13430,2,0,L|96:182,1,70,8|0,3:0|0:0,0:0:0:0:
224,256,13783,2,0,L|224:184,1,70,8|0,1:0|0:0,0:0:0:0:
96,254,14136,2,0,L|96:174,1,70,8|0,1:0|0:0,0:0:0:0:
200,96,14489,5,8,3:0:0:0:
270,96,14665,1,0,0:0:0:0:
340,96,14841,1,8,3:0:0:0:
232,192,15019,2,0,P|168:272|232:336,1,210,0|8,0:0|3:0,0:0:0:0:
384,336,15901,5,8,3:0:0:0:
232,280,16254,2,0,L|232:200,1,70,8|0,3:0|0:0,0:0:0:0:
344,272,16607,2,0,L|424:272,1,70,10|0,1:0|0:0,0:0:0:0:
304,192,16960,2,0,L|216:192,1,70,10|0,1:0|0:0,0:0:0:0:
344,112,17313,6,0,L|416:112,2,70,8|0|8,3:0|0:0|3:0,0:0:0:0:
168,112,17842,2,0,B|96:112|96:112|240:112,1,210,0|8,0:0|3:0,0:0:0:0:
408,144,18724,5,8,3:0:0:0:
256,320,19077,2,0,L|256:248,1,70,8|0,3:0|0:0,0:0:0:0:
144,320,19430,2,0,L|144:248,1,70,8|0,1:0|0:0,0:0:0:0:
32,320,19783,2,0,L|32:240,1,70,8|0,1:0|0:0,0:0:0:0:
136,120,20136,5,8,3:0:0:0:
206,120,20312,1,0,0:0:0:0:
276,120,20488,1,8,3:0:0:0:
168,192,20666,2,0,P|104:272|168:336,1,210,0|8,0:0|3:0,0:0:0:0:
328,304,21548,5,8,3:0:0:0:
176,216,21901,2,0,L|176:136,1,70,8|0,3:0|0:0,0:0:0:0:
288,216,22254,2,0,L|360:216,1,70,10|0,1:0|0:0,0:0:0:0:
248,152,22607,2,0,L|168:152,1,70,10|0,1:0|0:0,0:0:0:0:
368,48,22960,6,0,L|481:161,1,140,12|8,3:0|3:0,0:0:0:0:
272,48,23666,2,0,L|170:149,1,140,8|8,3:0|3:0,0:0:0:0:
112,208,24195,1,2,1:0:0:0:
304,312,24548,6,0,L|384:312,2,70,0|12|0,0:0|1:0|0:0,0:0:0:0:
208,232,25077,2,0,L|208:144,1,70,8|0,3:0|0:0,0:0:0:0:
112,232,25430,2,0,L|112:152,1,70,8|0,3:0|0:0,0:0:0:0:
296,80,25783,6,0,L|409:193,1,140,8|8,3:0|3:0,0:0:0:0:
200,80,26489,2,0,L|98:181,1,140,8|8,3:0|3:0,0:0:0:0:
40,224,27019,1,2,1:0:0:0:
232,136,27371,6,0,L|304:136,2,70,0|0|0,0:0|0:0|0:0,0:0:0:0:
136,280,27901,2,0,L|208:280,1,70,8|0,3:0|0:0,0:0:0:0:
304,280,28254,2,0,L|384:280,1,70,10|2,3:0|0:0,0:0:0:0:
192,80,28607,6,0,L|79:193,1,140,8|8,3:0|3:0,0:0:0:0:
288,80,29313,2,0,L|390:181,1,140,8|8,3:0|3:0,0:0:0:0:
448,224,29843,1,2,1:0:0:0:
280,144,30195,6,0,L|136:144,1,140,0|0,0:0|0:0,0:0:0:0:
232,224,30724,2,0,L|232:304,1,70,8|0,3:0|0:0,0:0:0:0:
136,224,31077,2,0,L|136:296,1,70,8|0,3:0|0:0,0:0:0:0:
320,80,31430,6,0,L|433:193,1,140,8|8,3:0|3:0,0:0:0:0:
200,80,32136,2,0,L|98:181,1,140,8|8,3:0|3:0,0:0:0:0:
320,248,32842,5,2,0:0:0:0:
232,160,33019,2,0,L|152:160,2,70,2|2|2,0:0|0:0|0:0,0:0:0:0:
336,160,33548,2,0,L|416:160,1,70,2|2,1:0|1:0,0:0:0:0:
288,56,33901,2,0,L|208:56,1,70,2|2,1:0|1:0,0:0:0:0:
400,320,34254,6,0,P|432:240|392:224,1,140,12|8,1:0|3:0,0:0:0:0:
192,192,34960,2,0,L|192:112,1,70,2|0,1:0|0:0,0:0:0:0:
448,168,35489,6,0,P|480:88|440:72,1,140,2|2,1:0|0:0,0:0:0:0:
344,72,36019,2,0,L|272:72,1,70,8|0,3:0|0:0,0:0:0:0:
376,152,36371,2,0,L|376:232,1,70,2|0,1:0|0:0,0:0:0:0:
96,320,36901,6,0,P|64:240|104:224,1,140,2|2,1:0|0:0,0:0:0:0:
200,224,37430,2,0,L|272:224,1,70,8|0,3:0|0:0,0:0:0:0:
200,144,37783,2,0,L|128:144,1,70,8|8,1:0|1:0,0:0:0:0:
48,144,38136,1,8,1:0:0:0:
216,240,38313,6,0,L|304:240,1,70,6|0,1:0|0:0,0:0:0:0:
184,72,38666,2,0,L|104:72,1,70,2|0,1:0|0:0,0:0:0:0:
280,72,39019,2,0,L|360:72,1,70,2|0,1:0|0:0,0:0:0:0:
248,240,39371,1,2,0:0:0:0:
184,240,39547,1,2,3:0:0:0:
248,240,39723,1,2,0:0:0:0:
424,160,39901,6,0,P|456:80|416:64,1,140,12|8,1:0|3:0,0:0:0:0:
224,320,40607,2,0,L|136:320,1,70,2|0,1:0|0:0,0:0:0:0:
424,168,41136,6,0,P|456:88|416:72,1,140,2|2,1:0|0:0,0:0:0:0:
320,72,41666,2,0,L|248:72,1,70,8|0,3:0|0:0,0:0:0:0:
352,152,42019,2,0,L|352:232,1,70,2|0,1:0|0:0,0:0:0:0:
192,152,42549,5,2,1:0:0:0:
368,336,42725,2,0,P|432:256|360:208,1,210,14|0,1:0|0:0,0:0:0:0:
256,208,43431,2,0,L|168:208,1,70,14|2,1:0|0:0,0:0:0:0:
344,112,43961,5,0,0:0:0:0:
176,112,44137,2,0,L|176:40,1,70,14|2,1:0|0:0,0:0:0:0:
288,112,44490,2,0,L|288:32,1,70,14|0,1:0|0:0,0:0:0:0:
184,112,44842,1,10,1:0:0:0:
155,129,44930,1,0,0:0:0:0:
157,162,45018,1,10,1:0:0:0:
188,176,45106,1,0,0:0:0:0:
240,176,45195,2,0,L|312:176,1,70,10|10,1:0|1:0,0:0:0:0:
144,256,45548,6,0,P|112:176|152:160,1,140,12|8,1:0|3:0,0:0:0:0:
344,288,46254,2,0,P|400:224|384:152,1,140,2|0,1:0|0:0,0:0:0:0:
240,120,46783,6,0,L|96:120,1,140,2|2,1:0|0:0,0:0:0:0:
208,208,47313,2,0,L|280:208,1,70,8|0,3:0|0:0,0:0:0:0:
176,336,47666,2,0,P|120:272|136:200,1,140,2|0,1:0|0:0,0:0:0:0:
296,328,48195,6,0,P|328:248|288:232,1,140,2|2,1:0|0:0,0:0:0:0:
192,232,48724,2,0,L|120:232,1,70,8|0,3:0|0:0,0:0:0:0:
200,152,49077,2,0,L|272:152,1,70,10|0,3:0|0:0,0:0:0:0:
352,152,49430,1,8,3:0:0:0:
184,240,49607,6,0,L|96:240,1,70,2|0,1:0|0:0,0:0:0:0:
208,72,49960,2,0,L|288:72,1,70,2|0,1:0|0:0,0:0:0:0:
112,136,50313,2,0,L|32:136,1,70,2|0,1:0|0:0,0:0:0:0:
144,248,50665,1,2,0:0:0:0:
208,248,50841,1,0,0:0:0:0:
272,248,51019,1,2,0:0:0:0:
96,160,51195,6,0,P|64:80|104:64,1,140,12|8,1:0|3:0,0:0:0:0:
296,256,51901,2,0,L|440:256,1,140,2|0,1:0|0:0,0:0:0:0:
264,152,52430,6,0,L|264:80,1,70,2|0,1:0|0:0,0:0:0:0:
360,152,52783,2,0,L|360:64,1,70,0|0,0:0|0:0,0:0:0:0:
192,256,53136,2,0,L|48:256,1,140,0|0,0:0|0:0,0:0:0:0:
208,328,53842,5,2,1:0:0:0:
40,240,54019,2,0,L|40:160,1,70,14|2,1:0|0:0,0:0:0:0:
128,240,54371,2,0,L|128:168,1,70,8|0,3:0|0:0,0:0:0:0:
296,240,54724,2,0,L|346:177,1,70,14|2,1:0|0:0,0:0:0:0:
424,240,55077,2,0,L|424:160,1,70,8|0,3:0|0:0,0:0:0:0:
232,56,55430,5,14,1:0:0:0:
196,112,55606,1,0,0:0:0:0:
256,176,55783,1,14,1:0:0:0:
291,232,55959,1,0,0:0:0:0:
232,304,56136,1,10,1:0:0:0:
206,327,56224,1,0,0:0:0:0:
248,304,56313,1,10,1:0:0:0:
288,328,56401,1,0,0:0:0:0:
328,304,56489,1,10,1:0:0:0:
344,328,56577,1,0,0:0:0:0:
296,344,56666,1,10,1:0:0:0:
120,320,56842,6,0,P|88:240|128:224,1,140,12|8,1:0|3:0,0:0:0:0:
320,192,57548,2,0,L|320:112,1,70,2|0,1:0|0:0,0:0:0:0:
64,168,58077,6,0,P|32:88|72:72,1,140,2|2,1:0|0:0,0:0:0:0:
168,72,58607,2,0,L|240:72,1,70,8|0,3:0|0:0,0:0:0:0:
136,152,58959,2,0,L|136:232,1,70,2|0,1:0|0:0,0:0:0:0:
416,320,59489,6,0,P|448:240|408:224,1,140,2|2,1:0|0:0,0:0:0:0:
312,224,60018,2,0,L|240:224,1,70,8|0,3:0|0:0,0:0:0:0:
312,144,60371,2,0,L|384:144,1,70,8|8,1:0|1:0,0:0:0:0:
464,144,60724,1,8,1:0:0:0:
296,240,60901,6,0,L|208:240,1,70,6|0,1:0|0:0,0:0:0:0:
328,72,61254,2,0,L|408:72,1,70,6|0,1:0|0:0,0:0:0:0:
232,72,61607,2,0,L|152:72,1,70,6|0,1:0|0:0,0:0:0:0:
264,240,61959,1,2,0:0:0:0:
328,240,62135,1,0,0:0:0:0:
264,240,62313,1,2,0:0:0:0:
88,160,62489,6,0,P|56:80|96:64,1,140,12|8,1:0|3:0,0:0:0:0:
288,320,63195,2,0,L|376:320,1,70,2|0,1:0|0:0,0:0:0:0:
88,168,63724,6,0,P|56:88|96:72,1,140,2|2,1:0|0:0,0:0:0:0:
192,72,64254,2,0,L|264:72,1,70,8|0,3:0|0:0,0:0:0:0:
160,152,64607,2,0,L|160:232,1,70,2|0,1:0|0:0,0:0:0:0:
320,152,65137,5,2,1:0:0:0:
144,336,65313,2,0,P|80:256|152:208,1,210,14|0,1:0|0:0,0:0:0:0:
256,208,66019,2,0,L|344:208,1,70,14|2,1:0|0:0,0:0:0:0:
168,112,66549,5,0,0:0:0:0:
336,112,66725,2,0,L|336:40,1,70,14|0,1:0|0:0,0:0:0:0:
224,112,67078,2,0,L|224:32,1,70,14|0,1:0|0:0,0:0:0:0:
328,112,67430,1,10,1:0:0:0:
357,129,67518,1,0,0:0:0:0:
355,162,67606,1,10,1:0:0:0:
324,176,67694,1,0,0:0:0:0:
272,176,67783,2,0,L|200:176,1,70,10|10,1:0|1:0,0:0:0:0:
368,256,68136,6,0,P|400:176|360:160,1,140,12|8,1:0|3:0,0:0:0:0:
168,288,68842,2,0,P|112:224|128:152,1,140,2|0,1:0|0:0,0:0:0:0:
272,120,69371,6,0,L|416:120,1,140,2|2,1:0|0:0,0:0:0:0:
304,208,69901,2,0,L|232:208,1,70,8|0,3:0|0:0,0:0:0:0:
336,336,70254,2,0,P|392:272|376:200,1,140,2|0,1:0|0:0,0:0:0:0:
208,328,70783,6,0,P|176:248|216:232,1,140,2|2,1:0|0:0,0:0:0:0:
312,232,71312,2,0,L|384:232,1,70,8|0,3:0|0:0,0:0:0:0:
312,152,71665,2,0,L|240:152,1,70,10|0,3:0|0:0,0:0:0:0:
160,152,72018,1,8,3:0:0:0:
328,240,72195,6,0,L|416:240,1,70,6|0,1:0|0:0,0:0:0:0:
304,72,72548,2,0,L|224:72,1,70,6|0,1:0|0:0,0:0:0:0:
400,136,72901,2,0,L|480:136,1,70,6|0,0:0|0:0,0:0:0:0:
368,248,73253,1,2,0:0:0:0:
304,248,73429,1,0,0:0:0:0:
240,248,73607,1,2,0:0:0:0:
416,160,73783,6,0,P|448:80|408:64,1,140,12|8,0:0|3:0,0:0:0:0:
216,256,74489,2,0,L|72:256,1,140,2|0,1:0|0:0,0:0:0:0:
248,152,75018,6,0,L|248:80,1,70,2|0,1:0|0:0,0:0:0:0:
152,152,75371,2,0,L|152:64,1,70,0|0,0:0|0:0,0:0:0:0:
320,256,75724,2,0,L|464:256,1,140,0|0,0:0|0:0,0:0:0:0:
304,328,76430,5,2,1:0:0:0:
472,240,76607,2,0,L|472:160,1,70,14|2,1:0|0:0,0:0:0:0:
384,240,76959,2,0,L|384:168,1,70,8|0,3:0|0:0,0:0:0:0:
216,240,77313,2,0,L|165:177,1,70,14|2,1:0|0:0,0:0:0:0:
88,240,77665,2,0,L|88:160,1,70,8|0,3:0|0:0,0:0:0:0:
264,80,78019,6,0,L|336:80,2,70,10|10|10,1:0|1:0|1:0,0:0:0:0:
104,80,78548,2,0,L|32:80,1,70,10|0,1:0|0:0,0:0:0:0:
144,176,78901,1,2,0:0:0:0:
179,176,78989,1,2,0:0:0:0:
144,176,79077,1,2,0:0:0:0:
32,296,79254,1,2,0:0:0:0:
32,296,79342,1,2,0:0:0:0:
