osu file format v14

[General]
AudioFilename: audio.mp3
AudioLeadIn: 0
PreviewTime: 33019
Countdown: 0
SampleSet: Soft
StackLeniency: 0.7
Mode: 2
LetterboxInBreaks: 0
WidescreenStoryboard: 1

[Editor]
Bookmarks: 43430
DistanceSpacing: 3.5
BeatDivisor: 4
GridSize: 16
TimelineZoom: 0.9

[Metadata]
Title:WWW.BLONDE GIRL (MOMO MIX)
TitleUnicode:WWW.BLONDE GIRL (MOMO MIX)
Artist:JENNY ROM
ArtistUnicode:JENNY ROM
Creator:Ascendance
Version:Fii's Beginner
Source:DDRMAX -DanceDanceRevolution 6thMIX-
Tags:blond cute ddr dance dance revolution dancemania sanyi paranoid grapes spectator fii kaitlin -wwwww wonjae kaifin
BeatmapID:1512400
BeatmapSetID:715066

[Difficulty]
HPDrainRate:3
CircleSize:2.5
OverallDifficulty:6
ApproachRate:6
SliderMultiplier:1.3
SliderTickRate:1

[Events]
//Background and Video events
0,0,"g14hK1F.jpg",0,0
//Break Periods
//Storyboard Layer 0 (Background)
//Storyboard Layer 1 (Fail)
//Storyboard Layer 2 (Pass)
//Storyboard Layer 3 (Foreground)
//Storyboard Sound Samples

[TimingPoints]
372,352.941176470588,4,2,0,40,1,0
372,-100,4,2,0,40,0,0
5313,-100,4,2,0,40,0,0
5842,-100,4,2,0,40,0,0
7430,-100,4,2,0,40,0,0
10254,-100,4,2,0,40,0,0
10960,-100,4,2,0,40,0,0
11666,-100,4,2,0,40,0,0
22960,-100,4,2,0,40,0,0
33548,-100,4,2,0,40,0,0
34254,-100,4,2,0,40,0,1
37960,-100,4,2,0,40,0,1
38136,-100,4,2,0,40,0,1
38313,-100,4,2,0,40,0,1
38666,-100,4,2,0,60,0,1
39019,-100,4,2,0,80,0,1
39371,-100,4,2,0,60,0,1
39901,-100,4,2,0,40,0,1
49607,-100,4,2,0,40,0,1
49960,-100,4,2,0,60,0,1
50313,-100,4,2,0,80,0,1
50666,-100,4,2,0,60,0,1
51195,-100,4,2,0,40,0,1
55430,-100,4,2,0,40,0,0
56842,-100,4,2,0,40,0,1
60548,-100,4,2,0,40,0,1
60724,-100,4,2,0,40,0,1
61254,-100,4,2,0,60,0,1
61607,-100,4,2,0,80,0,1
61960,-100,4,2,0,60,0,1
62489,-100,4,2,0,40,0,1
72195,-100,4,2,0,40,0,1
72548,-100,4,2,0,60,0,1
72901,-100,4,2,0,80,0,1
73254,-100,4,2,0,60,0,1
73783,-100,4,2,0,40,0,1
78019,-100,4,2,0,40,0,0

[Colours]
Combo1 : 128,163,255
Combo2 : 255,255,183
Combo3 : 0,79,166
Combo4 : 255,159,64

[HitObjects]
96,352,372,6,0,L|240:336,1,130,10|8,3:1|3:0,0:0:0:0:
288,256,901,6,0,L|144:240,1,130,10|8,3:1|3:0,0:0:0:0:
96,160,1430,1,0,0:0:0:0:
288,32,1783,6,0,L|432:48,1,130,10|8,3:1|3:0,0:0:0:0:
256,112,2489,2,0,L|144:192,1,130,8|0,3:0|0:0,0:0:0:0:
352,352,3195,6,0,P|384:336|455:257,1,130,10|8,3:1|3:0,0:0:0:0:
368,180,3724,2,0,L|227:156,1,130
174,47,4254,1,0,0:0:0:0:
352,16,4607,6,0,L|416:160,1,130,8|8,3:0|3:0,0:0:0:0:
208,64,5313,2,0,L|174:139,1,65,10|2,3:1|0:1,0:0:0:0:
384,336,5842,1,6,0:1:0:0:
448,240,6019,6,0,L|304:224,1,130,8|8,3:0|3:0,0:0:0:0:
256,336,6548,6,0,L|112:320,1,130,8|8,3:0|3:0,0:0:0:0:
157,141,7077,1,0,0:0:0:0:
334,33,7430,6,0,P|318:81|238:113,1,130,8|8,3:0|3:0,0:0:0:0:
80,288,8136,2,0,P|80:240|144:176,1,130,8|0,3:0|0:0,0:0:0:0:
320,320,8842,5,10,3:1:0:0:
64,160,9548,1,10,3:1:0:0:
389,349,10254,2,2,P|373:301|309:253,1,130,10|10,3:1|3:0,0:0:0:0:
149,0,10960,2,0,P|165:48|229:96,1,130,10|8,3:1|3:0,0:0:0:0:
416,176,11666,2,2,L|272:192,1,130,10|10,3:0|3:0,0:0:0:0:
128,336,12371,2,0,P|128:272|176:224,1,130,0|8,0:0|3:0,0:0:0:0:
336,352,13077,6,0,L|480:336,1,130,8|8,3:0|3:0,0:0:0:0:
304,256,13783,1,8,1:0:0:0:
464,176,14136,1,8,1:0:0:0:
288,224,14489,6,0,L|144:208,1,130,8|8,3:0|3:0,0:0:0:0:
320,16,15195,2,0,P|336:80|288:144,1,130,0|8,0:0|3:0,0:0:0:0:
128,352,15901,6,0,L|272:336,1,130,8|8,3:0|3:0,0:0:0:0:
416,368,16607,1,10,1:0:0:0:
256,320,16960,1,10,1:0:0:0:
432,256,17313,6,0,L|288:240,1,130,8|8,3:0|3:0,0:0:0:0:
144,224,18019,2,0,P|144:176|208:112,1,130,0|8,0:0|3:0,0:0:0:0:
352,16,18724,6,0,L|208:0,1,130,8|8,3:0|3:0,0:0:0:0:
64,288,19430,1,8,1:0:0:0:
224,240,19783,1,8,1:0:0:0:
48,176,20136,6,0,P|16:224|64:272,1,130,8|8,3:0|3:0,0:0:0:0:
224,112,20842,2,0,L|176:256,1,130,0|8,0:0|3:0,0:0:0:0:
16,48,21548,6,0,P|96:32|160:32,1,130,8|8,3:0|3:0,0:0:0:0:
304,352,22254,1,10,1:0:0:0:
128,304,22607,1,10,1:0:0:0:
320,320,22960,6,0,P|320:272|240:224,1,130,12|8,3:0|3:0,0:0:0:0:
96,192,23666,2,0,P|96:144|176:96,1,130,8|8,3:0|3:0,0:0:0:0:
400,144,24548,5,0,0:0:0:0:
256,352,24901,1,0,0:0:0:0:
176,304,25077,2,0,L|32:320,1,130,8|8,3:0|3:0,0:0:0:0:
240,96,25783,6,0,L|272:240,1,130,8|8,3:0|3:0,0:0:0:0:
94,32,26489,2,0,L|62:176,1,130,8|8,3:0|3:0,0:0:0:0:
336,32,27371,5,0,0:0:0:0:
192,256,27724,1,0,0:0:0:0:
112,336,27901,2,0,L|256:352,1,130,8|10,3:0|3:0,0:0:0:0:
400,224,28607,6,0,L|275:177,1,130,8|8,3:0|3:0,0:0:0:0:
112,111,29313,2,0,L|239:71,1,130,8|8,3:0|3:0,0:0:0:0:
480,144,30195,5,0,0:0:0:0:
336,256,30548,1,0,0:0:0:0:
256,208,30724,2,0,P|256:160|336:112,1,130,8|8,3:0|3:0,0:0:0:0:
512,32,31430,6,0,L|368:16,1,130,8|8,3:0|3:0,0:0:0:0:
240,32,32136,2,0,L|96:16,1,130,8|8,3:0|3:0,0:0:0:0:
256,160,32842,6,0,P|271:285|240:160,1,390,2|2,0:0|1:0,0:0:0:0:
432,32,34254,6,0,L|288:64,2,130,12|8|2,1:0|3:0|1:0,0:0:0:0:
272,320,35313,1,0,0:0:0:0:
192,240,35489,6,0,L|336:208,1,130,2|2,1:0|0:0,0:0:0:0:
400,128,36019,2,0,L|256:96,1,130,8|2,3:0|1:0,0:0:0:0:
48,96,36901,6,0,P|48:160|112:208,1,130,2|2,1:0|0:0,0:0:0:0:
176,224,37430,1,8,3:0:0:0:
336,208,37783,1,8,1:0:0:0:
176,320,38136,1,8,1:0:0:0:
256,368,38313,6,0,L|416:352,2,130,6|2|2,1:0|1:0|1:0,0:0:0:0:
96,48,39371,1,2,0:0:0:0:
144,128,39548,1,2,3:0:0:0:
344,49,39901,6,0,L|504:33,2,130,12|8|2,1:0|3:0|1:0,0:0:0:0:
160,32,40960,1,0,0:0:0:0:
80,80,41136,6,0,P|80:128|144:192,1,130,2|2,1:0|0:0,0:0:0:0:
229,235,41666,2,0,L|389:219,1,130,8|2,3:0|1:0,0:0:0:0:
70,337,42548,5,2,1:0:0:0:
55,249,42724,1,14,1:0:0:0:
238,172,43077,2,0,L|398:156,1,130,8|14,3:0|1:0,0:0:0:0:
226,160,43783,1,0,0:0:0:0:
48,288,44136,6,0,L|32:128,1,130,14|14,1:0|1:0,0:0:0:0:
240,352,44842,2,0,L|400:336,1,130,10|10,1:0|1:0,0:0:0:0:
164,171,45548,6,0,L|4:155,2,130,12|8|2,1:0|3:0|1:0,0:0:0:0:
368,32,46606,1,0,0:0:0:0:
448,128,46783,6,0,L|304:160,1,130,2|2,1:0|0:0,0:0:0:0:
240,240,47313,2,0,L|384:272,1,130,8|2,3:0|1:0,0:0:0:0:
144,336,48195,6,0,P|112:304|112:224,1,130,2|2,1:0|0:0,0:0:0:0:
192,176,48724,1,8,3:0:0:0:
368,208,49077,1,10,3:0:0:0:
192,304,49430,1,8,3:0:0:0:
272,352,49607,6,0,L|432:336,2,130,2|2|2,1:0|1:0|1:0,0:0:0:0:
112,32,50666,1,2,0:0:0:0:
160,112,50843,1,2,3:0:0:0:
352,16,51195,6,0,L|192:32,2,130,12|8|2,1:0|3:0|1:0,0:0:0:0:
192,304,52254,1,0,0:0:0:0:
112,272,52430,6,0,P|128:224|208:192,1,130,2|0,1:0|0:0,0:0:0:0:
352,224,53136,2,0,L|230:301,1,130
432,272,53842,1,2,1:0:0:0:
456,132,54019,6,0,L|314:121,1,130,14|8,1:0|3:0,0:0:0:0:
164,108,54724,1,14,1:0:0:0:
464,320,55430,6,0,L|320:336,1,130,14|14,1:0|1:0,0:0:0:0:
185,302,56136,2,0,L|105:286,2,65,10|10|10,1:0|1:0|1:0,0:0:0:0:
384,16,56842,6,0,L|240:48,2,130,12|8|2,1:0|3:0|1:0,0:0:0:0:
224,176,57901,1,0,0:0:0:0:
144,224,58077,6,0,P|112:256|128:352,1,130,2|2,1:0|0:0,0:0:0:0:
192,384,58607,2,0,L|336:352,1,130,8|2,3:0|1:0,0:0:0:0:
112,160,59489,6,0,P|128:112|192:64,1,130,2|2,1:0|0:0,0:0:0:0:
272,96,60019,1,8,3:0:0:0:
80,208,60371,1,8,1:0:0:0:
272,304,60724,1,8,1:0:0:0:
352,240,60901,6,0,L|512:224,2,130,6|6|6,1:0|1:0|1:0,0:0:0:0:
160,48,61959,1,2,0:0:0:0:
144,144,62136,1,2,3:0:0:0:
336,128,62489,6,0,L|496:112,2,130,12|8|2,1:0|3:0|1:0,0:0:0:0:
160,304,63548,1,0,0:0:0:0:
80,256,63724,6,0,P|80:208|160:160,1,130,2|2,1:0|0:0,0:0:0:0:
224,192,64254,2,0,L|384:176,1,130,8|2,3:0|1:0,0:0:0:0:
112,144,65136,5,2,1:0:0:0:
103,57,65312,1,14,1:0:0:0:
272,224,65666,2,0,L|432:208,1,130,8|14,3:0|1:0,0:0:0:0:
262,277,66371,1,0,0:0:0:0:
64,336,66724,6,0,P|64:288|144:240,1,130,14|14,1:0|1:0,0:0:0:0:
320,112,67430,2,0,P|320:64|240:16,1,130,10|10,1:0|1:0,0:0:0:0:
96,368,68136,6,0,L|256:352,2,130,12|8|2,1:0|3:0|1:0,0:0:0:0:
288,160,69194,1,0,0:0:0:0:
368,208,69371,6,0,L|224:240,1,130,2|2,1:0|0:0,0:0:0:0:
161,131,69901,2,0,L|305:163,1,130,8|2,3:0|1:0,0:0:0:0:
64,336,70783,6,0,P|32:304|32:224,1,130,2|2,1:0|0:0,0:0:0:0:
112,160,71312,1,8,3:0:0:0:
288,192,71665,1,10,3:0:0:0:
112,160,72018,1,8,3:0:0:0:
192,96,72195,6,0,L|352:80,2,130,6|6|6,1:0|1:0|0:0,0:0:0:0:
352,352,73254,1,2,0:0:0:0:
368,256,73431,1,2,3:0:0:0:
176,48,73783,6,0,L|16:64,2,130,12|8|2,0:0|3:0|1:0,0:0:0:0:
336,80,74842,1,0,0:0:0:0:
416,144,75018,6,0,P|400:192|320:224,1,130,2|0,1:0|0:0,0:0:0:0:
144,240,75724,2,0,L|270:169,1,130
68,191,76430,1,2,1:0:0:0:
52,95,76607,6,0,L|194:84,1,130,14|8,1:0|3:0,0:0:0:0:
344,71,77312,1,14,1:0:0:0:
128,144,78019,6,0,L|48:128,2,65,10|10|10,1:0|1:0|1:0,0:0:0:0:
208,96,78548,2,0,P|288:192|192:320,1,292.5,10|2,1:0|0:0,0:0:0:0:
