osu file format v14

[General]
AudioFilename: audio.mp3
AudioLeadIn: 0
PreviewTime: 33019
Countdown: 0
SampleSet: Soft
StackLeniency: 0.7
Mode: 2
LetterboxInBreaks: 0
WidescreenStoryboard: 1

[Editor]
DistanceSpacing: 1
BeatDivisor: 4
GridSize: 32
TimelineZoom: 1

[Metadata]
Title:WWW.BLONDE GIRL (MOMO MIX)
TitleUnicode:WWW.BLONDE GIRL (MOMO MIX)
Artist:JENNY ROM
ArtistUnicode:JENNY ROM
Creator:Ascendance
Version:Expert
Source:DDRMAX -DanceDanceRevolution 6thMIX-
Tags:blond cute ddr dance dance revolution dancemania sanyi paranoid grapes spectator fii kaitlin -wwwww wonjae kaifin
BeatmapID:1510898
BeatmapSetID:715066

[Difficulty]
HPDrainRate:6
CircleSize:4
OverallDifficulty:9
ApproachRate:9
SliderMultiplier:2
SliderTickRate:2

[Events]
//Background and Video events
0,0,"ascendance blonde girl.png",0,0
//Break Periods
//Storyboard Layer 0 (Background)
//Storyboard Layer 1 (Fail)
//Storyboard Layer 2 (Pass)
//Storyboard Layer 3 (Foreground)
//Storyboard Sound Samples

[TimingPoints]
372,352.941176470588,4,2,0,40,1,0
372,-100,4,2,0,40,0,0
5489,-100,4,2,0,40,0,0
5842,-100,4,2,0,40,0,0
7430,-100,4,2,0,40,0,0
10607,-100,4,2,0,40,0,0
10960,-100,4,2,0,40,0,0
11666,-100,4,2,0,40,0,0
22960,-100,4,2,0,40,0,0
33548,-100,4,2,0,40,0,0
34254,-100,4,2,0,40,0,1
37960,-100,4,2,0,40,0,1
38136,-100,4,2,0,40,0,1
38313,-100,4,2,0,40,0,1
38666,-100,4,2,0,60,0,1
39019,-100,4,2,0,80,0,1
39371,-100,4,2,0,60,0,1
39901,-100,4,2,0,40,0,1
49607,-100,4,2,0,40,0,1
49960,-100,4,2,0,60,0,1
50313,-100,4,2,0,80,0,1
50666,-100,4,2,0,60,0,1
51195,-100,4,2,0,40,0,1
55430,-100,4,2,0,40,0,0
56842,-100,4,2,0,40,0,1
60548,-100,4,2,0,40,0,1
60724,-100,4,2,0,40,0,1
61254,-100,4,2,0,60,0,1
61607,-100,4,2,0,80,0,1
61960,-100,4,2,0,60,0,1
62489,-100,4,2,0,40,0,1
72195,-100,4,2,0,40,0,1
72548,-100,4,2,0,60,0,1
72901,-100,4,2,0,80,0,1
73254,-100,4,2,0,60,0,1
73783,-100,4,2,0,40,0,1
78019,-100,4,2,0,40,0,0

[Colours]
Combo1 : 128,0,64
Combo2 : 255,255,183
Combo3 : 255,168,255
Combo4 : 128,64,0

[HitObjects]
106,309,372,6,0,L|97:184,1,100,10|0,3:1|0:0,0:0:0:0:
220,180,724,1,8,3:0:0:0:
38,52,901,2,0,L|261:66,1,200
115,204,1430,2,0,L|112:94,1,100,0|0,0:0|0:0,0:0:0:0:
457,341,1783,5,10,3:1:0:0:
348,264,1959,1,0,0:0:0:0:
366,136,2135,1,8,3:0:0:0:
497,113,2312,1,0,0:0:0:0:
353,64,2489,2,0,L|291:64,2,50,8|0|0,3:0|0:0|0:0,0:0:0:0:
497,113,2842,2,0,L|384:113,1,100,0|0,0:0|0:0,0:0:0:0:
114,231,3195,6,0,L|224:231,2,100,10|0|8,3:1|0:0|3:0,0:0:0:0:
267,309,3724,2,0,P|301:239|237:141,1,200,0|0,0:0|0:0,0:0:0:0:
96,109,4254,2,0,L|33:115,2,50
248,50,4607,6,0,L|370:67,1,100,8|0,3:0|0:0,0:0:0:0:
188,197,4960,2,0,L|170:86,1,100,8|0,3:0|0:0,0:0:0:0:
443,143,5313,1,10,3:1:0:0:
188,198,5489,2,0,L|196:301,1,100,2|0,0:1|0:0,0:0:0:0:
491,344,5842,1,6,0:1:0:0:
363,275,6019,6,0,L|253:288,1,100,8|0,3:0|0:0,0:0:0:0:
123,300,6371,1,8,3:0:0:0:
280,352,6548,2,0,P|326:273|239:192,1,200,0|0,0:0|0:0,0:0:0:0:
76,99,7077,2,0,L|85:212,1,100,0|0,0:0|0:0,0:0:0:0:
254,240,7430,6,0,L|473:253,1,200,8|8,3:0|3:0,0:0:0:0:
323,136,7960,2,0,L|209:157,1,100
106,288,8313,2,0,L|39:293,2,50,0|0|0,0:0|0:0|0:0,0:0:0:0:
262,323,8666,2,0,L|328:318,1,50,0|0,0:0|0:0,0:0:0:0:
115,358,8842,6,0,P|73:286|209:138,1,300,10|0,3:1|0:0,0:0:0:0:
436,93,9548,2,0,L|111:69,1,300,10|0,3:1|0:0,0:0:0:0:
431,325,10254,6,0,L|452:215,1,100,10|0,3:1|0:0,0:0:0:0:
152,84,10607,2,0,L|173:209,1,100,10|0,3:1|0:0,0:0:0:0:
464,175,10960,2,0,L|482:36,1,100,10|10,3:1|3:1,0:0:0:0:
332,50,11313,1,8,3:0:0:0:
200,33,11489,1,8,3:0:0:0:
461,182,11666,6,0,L|346:189,2,100,8|0|8,3:0|0:0|3:0,0:0:0:0:
169,73,12195,2,0,P|114:148|189:239,1,200,0|2,0:0|0:0,0:0:0:0:
328,338,12724,1,8,3:0:0:0:
355,297,12812,1,0,0:0:0:0:
357,247,12900,1,0,0:0:0:0:
333,204,12988,1,0,0:0:0:0:
290,181,13076,1,8,3:0:0:0:
152,174,13254,1,0,0:0:0:0:
401,84,13430,6,0,L|182:81,2,200,8|8|8,3:0|1:0|1:0,0:0:0:0:
234,207,14313,1,0,0:0:0:0:
229,157,14401,1,0,0:0:0:0:
281,113,14489,1,8,3:0:0:0:
442,285,14666,2,0,L|312:297,1,100,0|8,0:0|3:0,0:0:0:0:
87,165,15019,6,0,L|327:173,1,200,0|2,0:0|0:0,0:0:0:0:
163,352,15548,1,8,3:0:0:0:
157,302,15636,1,0,0:0:0:0:
152,252,15724,1,0,0:0:0:0:
147,202,15812,1,0,0:0:0:0:
141,153,15900,1,8,3:0:0:0:
292,236,16077,1,0,0:0:0:0:
437,167,16254,6,0,L|419:60,1,100,8|0,3:0|0:0,0:0:0:0:
41,53,16607,2,0,L|262:55,1,200,10|10,1:0|1:0,0:0:0:0:
398,142,17136,2,0,L|320:142,1,50,0|0,0:0|0:0,0:0:0:0:
133,233,17313,6,0,L|265:233,1,100,8|0,3:0|0:0,0:0:0:0:
372,232,17666,1,8,3:0:0:0:
96,311,17842,2,0,P|46:241|120:153,1,200,0|2,0:0|0:0,0:0:0:0:
253,109,18371,2,0,L|309:108,1,50,8|0,3:0|0:0,0:0:0:0:
253,109,18548,2,0,L|193:109,1,50,0|0,0:0|0:0,0:0:0:0:
253,109,18724,5,8,3:0:0:0:
428,164,18901,1,0,0:0:0:0:
422,213,18989,1,0,0:0:0:0:
417,263,19077,1,8,3:0:0:0:
292,212,19254,1,0,0:0:0:0:
157,323,19430,2,0,L|380:317,1,200,8|8,1:0|1:0,0:0:0:0:
166,197,19960,2,0,L|177:264,1,50,0|0,0:0|0:0,0:0:0:0:
375,186,20136,6,0,L|487:178,2,100,8|0|8,3:0|0:0|3:0,0:0:0:0:
95,40,20666,2,0,L|337:57,1,200,0|2,0:0|0:0,0:0:0:0:
116,242,21195,1,8,3:0:0:0:
85,203,21283,1,0,0:0:0:0:
79,154,21371,1,0,0:0:0:0:
99,109,21459,1,0,0:0:0:0:
140,81,21547,1,8,3:0:0:0:
302,72,21724,2,0,L|374:81,2,50,0|0|8,0:0|0:0|3:0,0:0:0:0:
140,81,22077,2,0,L|75:83,1,50,0|0,0:0|0:0,0:0:0:0:
433,253,22254,6,0,L|206:254,1,200,10|10,1:0|1:0,0:0:0:0:
108,150,22783,2,0,L|194:150,1,50
447,61,22960,6,0,L|436:177,1,100,12|0,3:0|0:0,0:0:0:0:
277,182,23313,2,0,L|261:322,1,100,8|0,3:0|0:0,0:0:0:0:
122,60,23666,2,0,L|111:176,1,100,8|0,3:0|0:0,0:0:0:0:
235,176,24019,1,8,3:0:0:0:
476,177,24195,1,2,1:0:0:0:
217,324,24548,6,0,L|456:330,1,200
229,237,25077,2,0,L|213:125,1,100,8|0,3:0|0:0,0:0:0:0:
393,50,25430,2,0,L|373:180,1,100,8|0,3:0|0:0,0:0:0:0:
131,60,25783,6,0,L|142:176,1,100,12|0,3:0|0:0,0:0:0:0:
301,181,26136,2,0,L|317:321,1,100,8|0,3:0|0:0,0:0:0:0:
456,59,26489,2,0,L|467:175,1,100,8|0,3:0|0:0,0:0:0:0:
343,175,26842,1,8,3:0:0:0:
102,176,27018,1,2,1:0:0:0:
271,332,27371,6,0,L|71:329,1,200
220,244,27901,2,0,L|227:98,1,100,8|0,3:0|0:0,0:0:0:0:
365,173,28254,2,0,L|372:73,1,100,10|2,3:0|0:0,0:0:0:0:
68,306,28607,6,0,L|200:294,1,100,8|0,3:0|0:0,0:0:0:0:
313,359,28960,2,0,L|334:238,1,100,8|0,3:0|0:0,0:0:0:0:
190,187,29313,2,0,L|176:76,1,100,8|0,3:0|0:0,0:0:0:0:
57,79,29666,1,8,3:0:0:0:
361,121,29842,1,2,1:0:0:0:
159,27,30195,6,0,L|176:240,1,200,0|0,0:0|0:0,0:0:0:0:
337,349,30724,2,0,L|360:235,1,100,8|0,3:0|0:0,0:0:0:0:
172,87,31077,2,0,L|200:224,1,100,8|0,3:0|0:0,0:0:0:0:
456,79,31430,6,0,L|239:94,2,200,8|8|8,3:0|3:0|3:0,0:0:0:0:
220,216,32489,2,0,L|212:91,1,100,8|0,3:0|0:0,0:0:0:0:
333,166,32842,1,2,0:0:0:0:
58,334,33019,6,0,L|170:329,2,100,2|2|2,0:0|0:0|0:0,0:0:0:0:
336,237,33548,2,0,L|446:229,1,100,2|2,1:0|1:0,0:0:0:0:
181,140,33901,2,0,L|76:147,1,100,2|2,1:0|1:0,0:0:0:0:
363,347,34254,6,0,P|415:267|316:193,1,200,12|8,1:0|3:0,0:0:0:0:
161,250,34960,1,2,1:0:0:0:
134,208,35048,1,0,0:0:0:0:
135,158,35136,1,0,0:0:0:0:
161,117,35224,1,2,1:0:0:0:
206,95,35312,1,0,0:0:0:0:
475,69,35489,6,0,L|265:52,1,200,2|2,1:0|0:0,0:0:0:0:
142,163,36019,2,0,L|257:151,1,100,8|0,3:0|0:0,0:0:0:0:
422,181,36371,1,2,1:0:0:0:
412,230,36459,1,0,0:0:0:0:
403,279,36547,1,0,0:0:0:0:
394,328,36635,1,0,0:0:0:0:
385,377,36723,1,0,0:0:0:0:
66,254,36901,6,0,P|38:170|129:100,1,200,2|2,1:0|0:0,0:0:0:0:
264,73,37430,2,0,L|253:180,1,100,8|0,3:0|0:0,0:0:0:0:
119,207,37783,1,8,1:0:0:0:
412,353,37960,2,0,L|424:248,1,100,8|8,1:0|1:0,0:0:0:0:
119,272,38313,6,0,L|3:265,1,100,6|0,1:0|0:0,0:0:0:0:
314,162,38666,2,0,L|170:148,1,100,2|0,1:0|0:0,0:0:0:0:
494,61,39019,2,0,L|378:49,1,100,2|0,1:0|0:0,0:0:0:0:
151,215,39371,2,0,L|254:207,2,100,2|2|2,0:0|3:0|0:0,0:0:0:0:
453,338,39901,6,0,P|487:269|416:172,1,200,12|8,1:0|3:0,0:0:0:0:
262,113,40607,2,0,L|271:171,1,50,2|0,1:0|0:0,0:0:0:0:
352,178,40783,2,0,L|361:241,1,50,0|2,0:0|1:0,0:0:0:0:
285,277,40960,1,0,0:0:0:0:
39,56,41136,6,0,L|256:68,1,200,2|2,1:0|0:0,0:0:0:0:
402,179,41666,2,0,L|292:190,1,100,8|0,3:0|0:0,0:0:0:0:
168,315,42019,1,2,1:0:0:0:
143,272,42107,1,0,0:0:0:0:
154,225,42195,1,0,0:0:0:0:
195,198,42283,1,2,1:0:0:0:
430,296,42371,1,0,0:0:0:0:
454,253,42459,1,0,0:0:0:0:
443,206,42547,1,2,1:0:0:0:
402,179,42635,1,0,0:0:0:0:
192,111,42724,6,0,L|76:120,1,100,14|2,1:0|0:0,0:0:0:0:
275,220,43077,2,0,L|292:117,1,100,8|0,3:0|0:0,0:0:0:0:
43,278,43430,2,0,L|174:287,3,100,14|2|12|0,1:0|0:0|3:0|0:0,0:0:0:0:
465,338,44136,6,0,L|491:232,1,100,14|2,1:0|0:0,0:0:0:0:
222,166,44489,2,0,L|201:53,1,100,14|0,1:0|0:0,0:0:0:0:
465,338,44842,2,0,L|491:232,1,100,10|10,1:0|1:0,0:0:0:0:
192,248,45195,2,0,L|129:248,1,50,10|0,1:0|0:0,0:0:0:0:
330,145,45371,2,0,L|391:145,1,50,10|0,1:0|0:0,0:0:0:0:
204,52,45548,6,0,L|-3:51,1,200,12|8,1:0|3:0,0:0:0:0:
231,153,46254,2,0,L|285:154,1,50,2|0,1:0|0:0,0:0:0:0:
330,153,46430,2,0,L|268:154,1,50,0|2,0:0|1:0,0:0:0:0:
231,152,46607,1,0,0:0:0:0:
478,246,46783,6,0,L|266:246,1,200,2|2,1:0|0:0,0:0:0:0:
442,133,47313,2,0,L|432:238,1,100,8|0,3:0|0:0,0:0:0:0:
246,323,47666,1,2,1:0:0:0:
196,325,47754,1,0,0:0:0:0:
146,328,47842,1,0,0:0:0:0:
96,331,47930,1,2,1:0:0:0:
46,334,48018,1,0,0:0:0:0:
314,108,48195,6,0,P|372:181|303:274,1,200,2|2,1:0|0:0,0:0:0:0:
182,362,48724,1,8,3:0:0:0:
176,312,48812,1,0,0:0:0:0:
170,262,48900,1,0,0:0:0:0:
296,190,49077,1,10,3:0:0:0:
52,72,49254,2,0,L|63:186,1,100,0|8,0:0|3:0,0:0:0:0:
338,299,49607,6,0,L|482:301,1,100,2|0,1:0|0:0,0:0:0:0:
189,188,49960,2,0,L|336:188,1,100,2|0,1:0|0:0,0:0:0:0:
26,141,50313,2,0,L|18:32,1,100,2|0,1:0|0:0,0:0:0:0:
263,199,50666,1,2,0:0:0:0:
362,201,50842,1,2,3:0:0:0:
462,203,51018,1,2,0:0:0:0:
114,321,51195,6,0,L|102:112,1,200,12|8,1:0|3:0,0:0:0:0:
288,61,51901,1,2,1:0:0:0:
327,90,51989,1,0,0:0:0:0:
341,137,52077,1,0,0:0:0:0:
324,184,52165,1,2,1:0:0:0:
283,211,52253,1,0,0:0:0:0:
45,282,52430,2,0,L|158:290,1,100,2|0,1:0|0:0,0:0:0:0:
324,345,52783,2,0,L|222:353,1,100,0|0,0:0|0:0,0:0:0:0:
479,212,53136,6,0,L|249:230,1,200,0|0,0:0|0:0,0:0:0:0:
121,164,53666,2,0,L|106:109,1,50,0|0,0:0|0:0,0:0:0:0:
277,92,53842,2,0,L|286:42,1,50,2|0,1:0|0:0,0:0:0:0:
103,44,54019,6,0,L|-3:48,1,100,14|2,1:0|0:0,0:0:0:0:
331,122,54371,2,0,L|438:116,1,100,8|0,3:0|0:0,0:0:0:0:
102,197,54724,1,14,1:0:0:0:
117,303,54901,1,2,0:0:0:0:
360,335,55077,1,8,3:0:0:0:
238,245,55254,2,0,L|230:183,1,50,0|0,0:0|0:0,0:0:0:0:
436,40,55430,5,14,1:0:0:0:
488,73,55518,1,0,0:0:0:0:
490,137,55606,1,0,0:0:0:0:
447,171,55694,1,0,0:0:0:0:
200,124,55782,1,14,1:0:0:0:
143,169,55871,1,0,0:0:0:0:
147,233,55959,1,0,0:0:0:0:
201,262,56047,1,0,0:0:0:0:
414,335,56136,5,10,1:0:0:0:
445,286,56224,1,0,0:0:0:0:
428,240,56312,1,10,1:0:0:0:
381,215,56400,1,0,0:0:0:0:
171,251,56488,1,10,1:0:0:0:
111,251,56577,1,0,0:0:0:0:
327,184,56665,1,10,1:0:0:0:
385,184,56753,1,0,0:0:0:0:
128,44,56842,6,0,P|69:118|136:207,1,200,12|8,1:0|3:0,0:0:0:0:
301,316,57548,1,2,1:0:0:0:
310,267,57636,1,0,0:0:0:0:
295,220,57724,1,0,0:0:0:0:
259,185,57812,1,2,1:0:0:0:
212,170,57900,1,0,0:0:0:0:
452,50,58077,6,0,P|506:128|425:222,1,200,2|2,1:0|0:0,0:0:0:0:
293,260,58607,2,0,L|175:252,1,100,8|0,3:0|0:0,0:0:0:0:
353,330,58960,1,2,1:0:0:0:
382,289,59048,1,0,0:0:0:0:
386,240,59136,1,0,0:0:0:0:
365,195,59224,1,2,1:0:0:0:
325,167,59312,1,0,0:0:0:0:
45,99,59489,6,0,L|264:84,1,200,2|2,1:0|0:0,0:0:0:0:
355,234,60019,2,0,L|245:213,1,100,8|0,3:0|0:0,0:0:0:0:
419,162,60371,1,8,1:0:0:0:
84,335,60548,2,0,L|76:217,1,100,8|8,1:0|1:0,0:0:0:0:
312,269,60901,6,0,L|416:261,1,100,6|0,1:0|0:0,0:0:0:0:
156,194,61254,2,0,L|31:204,1,100,6|0,1:0|0:0,0:0:0:0:
407,131,61607,2,0,L|527:132,1,100,6|0,1:0|0:0,0:0:0:0:
248,133,61960,2,0,L|133:133,1,100,2|2,0:0|3:0,0:0:0:0:
27,133,62313,1,2,0:0:0:0:
324,342,62489,6,0,P|358:273|287:176,1,200,12|8,1:0|3:0,0:0:0:0:
143,123,63195,2,0,L|152:181,1,50,2|0,1:0|0:0,0:0:0:0:
226,193,63371,2,0,L|294:202,1,50,0|2,0:0|1:0,0:0:0:0:
354,217,63548,1,0,0:0:0:0:
39,56,63724,6,0,L|256:68,1,200,2|2,1:0|0:0,0:0:0:0:
402,179,64254,2,0,L|292:190,1,100,8|0,3:0|0:0,0:0:0:0:
168,315,64607,1,2,1:0:0:0:
143,272,64695,1,0,0:0:0:0:
154,225,64783,1,0,0:0:0:0:
195,198,64871,1,2,1:0:0:0:
430,296,64959,1,0,0:0:0:0:
454,253,65047,1,0,0:0:0:0:
443,206,65135,1,2,1:0:0:0:
402,179,65223,1,0,0:0:0:0:
192,111,65312,6,0,L|76:120,1,100,14|2,1:0|0:0,0:0:0:0:
275,220,65665,2,0,L|292:117,1,100,8|0,3:0|0:0,0:0:0:0:
43,278,66018,2,0,L|174:287,3,100,14|2|8|0,1:0|0:0|3:0|0:0,0:0:0:0:
465,338,66724,6,0,L|491:232,1,100,14|0,1:0|0:0,0:0:0:0:
222,166,67077,2,0,L|201:53,1,100,14|0,1:0|0:0,0:0:0:0:
465,338,67430,2,0,L|491:232,1,100,10|10,1:0|1:0,0:0:0:0:
330,145,67783,2,0,L|306:78,1,50,10|0,1:0|0:0,0:0:0:0:
378,67,67959,2,0,L|463:56,1,50,10|0,1:0|0:0,0:0:0:0:
204,52,68136,6,0,L|-3:51,1,200,12|8,1:0|3:0,0:0:0:0:
231,153,68842,2,0,L|285:154,1,50,2|0,1:0|0:0,0:0:0:0:
330,153,69018,2,0,L|268:154,1,50,0|2,0:0|1:0,0:0:0:0:
231,152,69195,1,0,0:0:0:0:
478,246,69371,6,0,L|266:246,1,200,2|2,1:0|0:0,0:0:0:0:
442,133,69901,2,0,L|432:238,1,100,8|0,3:0|0:0,0:0:0:0:
246,323,70254,1,2,1:0:0:0:
196,325,70342,1,0,0:0:0:0:
146,328,70430,1,0,0:0:0:0:
96,331,70518,1,0,0:0:0:0:
46,334,70606,1,0,0:0:0:0:
314,108,70783,6,0,P|372:181|303:274,1,200,2|2,1:0|0:0,0:0:0:0:
182,362,71312,1,8,3:0:0:0:
176,312,71400,1,0,0:0:0:0:
170,262,71488,1,0,0:0:0:0:
296,190,71665,1,10,3:0:0:0:
52,72,71842,2,0,L|63:186,1,100,0|8,0:0|3:0,0:0:0:0:
393,272,72195,6,0,L|509:265,1,100,6|0,1:0|0:0,0:0:0:0:
198,162,72548,2,0,L|342:148,1,100,6|0,1:0|0:0,0:0:0:0:
18,61,72901,2,0,L|134:49,1,100,6|0,0:0|0:0,0:0:0:0:
394,163,73254,1,2,0:0:0:0:
267,165,73430,1,2,3:0:0:0:
394,163,73606,1,2,0:0:0:0:
86,341,73783,6,0,P|49:257|134:180,1,200,12|8,0:0|3:0,0:0:0:0:
307,127,74489,1,2,1:0:0:0:
303,176,74577,1,0,0:0:0:0:
279,219,74665,1,0,0:0:0:0:
238,248,74753,1,0,0:0:0:0:
190,258,74841,1,0,0:0:0:0:
440,325,75019,6,0,L|330:332,1,100,2|0,1:0|0:0,0:0:0:0:
207,246,75371,2,0,L|321:253,1,100,0|0,0:0|0:0,0:0:0:0:
47,163,75724,6,0,L|278:138,1,200,0|0,0:0|0:0,0:0:0:0:
388,102,76254,2,0,L|376:164,1,50,0|0,0:0|0:0,0:0:0:0:
138,234,76430,2,0,L|127:288,1,50,2|0,1:0|0:0,0:0:0:0:
354,309,76607,6,0,L|466:314,1,100,14|2,1:0|0:0,0:0:0:0:
279,232,76960,2,0,L|174:227,1,100,8|0,3:0|0:0,0:0:0:0:
454,107,77313,2,0,L|344:108,1,100,14|2,1:0|0:0,0:0:0:0:
85,69,77666,1,8,3:0:0:0:
231,113,77842,2,0,L|215:187,1,50,0|0,0:0|0:0,0:0:0:0:
25,249,78019,6,0,L|135:258,2,100,10|10|10,1:0|1:0|1:0,0:0:0:0:
332,347,78548,2,0,P|374:273|306:191,1,200,10|2,1:0|0:0,0:0:0:0:
261,186,78989,1,2,0:0:0:0:
212,181,79077,1,2,0:0:0:0:
379,134,79254,2,0,L|441:137,1,50,2|2,0:0|0:0,0:0:0:0:
