osu file format v14

[General]
AudioFilename: audio.mp3
AudioLeadIn: 0
PreviewTime: 33019
Countdown: 0
SampleSet: Soft
StackLeniency: 0.7
Mode: 2
LetterboxInBreaks: 0
WidescreenStoryboard: 1

[Editor]
DistanceSpacing: 1
BeatDivisor: 4
GridSize: 8
TimelineZoom: 1

[Metadata]
Title:WWW.BLONDE GIRL (MOMO MIX)
TitleUnicode:WWW.BLONDE GIRL (MOMO MIX)
Artist:JENNY ROM
ArtistUnicode:JENNY ROM
Creator:Ascendance
Version:wonjae's Difficult
Source:DDRMAX -DanceDanceRevolution 6thMIX-
Tags:blond cute ddr dance dance revolution dancemania sanyi paranoid grapes spectator fii kaitlin -wwwww wonjae kaifin
BeatmapID:1512080
BeatmapSetID:715066

[Difficulty]
HPDrainRate:5
CircleSize:3.5
OverallDifficulty:8
ApproachRate:8
SliderMultiplier:1.75
SliderTickRate:2

[Events]
//Background and Video events
0,0,"blendsweeb.jpg",0,0
//Break Periods
//Storyboard Layer 0 (Background)
//Storyboard Layer 1 (Fail)
//Storyboard Layer 2 (Pass)
//Storyboard Layer 3 (Foreground)
//Storyboard Sound Samples

[TimingPoints]
372,352.941176470588,4,2,0,40,1,0
372,-100,4,2,0,40,0,0
5489,-100,4,2,0,40,0,0
5842,-100,4,2,0,40,0,0
7430,-100,4,2,0,40,0,0
10607,-100,4,2,0,40,0,0
10960,-100,4,2,0,40,0,0
11666,-100,4,2,0,40,0,0
22960,-100,4,2,0,40,0,0
33548,-100,4,2,0,40,0,0
34254,-100,4,2,0,40,0,1
37960,-100,4,2,0,40,0,1
38136,-100,4,2,0,40,0,1
38313,-100,4,2,0,40,0,1
38666,-100,4,2,0,60,0,1
39019,-100,4,2,0,80,0,1
39371,-100,4,2,0,60,0,1
39901,-100,4,2,0,40,0,1
49607,-100,4,2,0,40,0,1
49960,-100,4,2,0,60,0,1
50313,-100,4,2,0,80,0,1
50666,-100,4,2,0,60,0,1
51195,-100,4,2,0,40,0,1
55430,-100,4,2,0,40,0,0
56842,-100,4,2,0,40,0,1
60548,-100,4,2,0,40,0,1
60724,-100,4,2,0,40,0,1
61254,-100,4,2,0,60,0,1
61607,-100,4,2,0,80,0,1
61960,-100,4,2,0,60,0,1
62489,-100,4,2,0,40,0,1
72195,-100,4,2,0,40,0,1
72548,-100,4,2,0,60,0,1
72901,-100,4,2,0,80,0,1
73254,-100,4,2,0,60,0,1
73783,-100,4,2,0,40,0,1
78019,-100,4,2,0,40,0,0

[Colours]
Combo1 : 0,128,255
Combo2 : 253,247,119
Combo3 : 128,255,128
Combo4 : 0,255,255

[HitObjects]
378,280,372,6,0,L|380:183,2,87.5,10|0|0,3:1|0:0|0:0,0:0:0:0:
256,96,901,2,0,L|256:224,1,87.5
168,185,1254,2,0,L|255:183,2,87.5
371,146,1783,6,0,L|459:146,1,87.5,10|0,3:1|0:0,0:0:0:0:
343,304,2136,2,0,L|277:248,1,87.5,8|0,3:0|0:0,0:0:0:0:
399,222,2489,1,8,3:0:0:0:
445,195,2666,1,0,0:0:0:0:
399,222,2842,1,0,0:0:0:0:
336,222,3019,1,0,0:0:0:0:
96,192,3195,6,0,L|42:104,2,87.5,10|0|0,3:1|0:0|0:0,0:0:0:0:
221,186,3724,2,0,L|318:187,1,87.5,8|0,3:0|0:0,0:0:0:0:
195,197,4077,2,0,L|174:99,2,87.5
396,178,4607,5,0,0:0:0:0:
440,179,4695,1,0,0:0:0:0:
483,179,4783,1,0,0:0:0:0:
354,143,4960,1,0,0:0:0:0:
332,142,5048,1,0,0:0:0:0:
299,140,5136,1,0,0:0:0:0:
60,152,5313,5,10,3:1:0:0:
146,152,5489,2,0,P|179:202|130:275,1,131.25,2|0,0:1|0:0,0:0:0:0:
135,266,5842,1,6,0:1:0:0:
409,277,6019,6,0,L|504:277,1,87.5,8|0,3:0|0:0,0:0:0:0:
370,285,6371,2,0,L|294:232,1,87.5,8|0,3:0|0:0,0:0:0:0:
410,276,6724,1,0,0:0:0:0:
293,276,6901,1,0,0:0:0:0:
293,276,7077,1,0,0:0:0:0:
410,276,7254,1,0,0:0:0:0:
218,286,7430,5,8,3:0:0:0:
108,280,7607,1,0,0:0:0:0:
108,280,7783,1,8,3:0:0:0:
220,292,7960,1,0,0:0:0:0:
348,297,8136,2,0,L|349:180,1,87.5,8|0,3:0|0:0,0:0:0:0:
220,292,8489,2,0,L|220:196,1,87.5,0|0,0:0|0:0,0:0:0:0:
467,218,8842,6,0,L|468:110,3,87.5,10|0|0|0,3:1|0:0|0:0|0:0,0:0:0:0:
291,205,9548,6,0,L|245:305,3,87.5,10|0|0|0,3:1|0:0|0:0|0:0,0:0:0:0:
96,203,10254,6,0,L|151:284,1,87.5,10|0,3:1|0:0,0:0:0:0:
305,209,10607,2,0,L|248:295,1,87.5,10|0,3:1|0:0,0:0:0:0:
6,272,10960,5,10,3:1:0:0:
25,233,11048,1,0,0:0:0:0:
78,238,11136,1,10,3:1:0:0:
235,253,11312,1,8,3:0:0:0:
277,225,11401,1,0,0:0:0:0:
279,175,11489,1,8,3:0:0:0:
30,156,11666,6,0,B|19:88|19:88|31:60|143:60,1,175,8|8,3:0|3:0,0:0:0:0:
318,155,12195,2,0,L|109:205,1,175,0|2,0:0|0:0,0:0:0:0:
229,312,12724,2,0,L|324:313,1,87.5,8|0,3:0|0:0,0:0:0:0:
202,314,13077,2,0,L|167:218,1,87.5,8|0,3:0|0:0,0:0:0:0:
286,218,13430,2,0,L|181:218,1,87.5,8|0,3:0|0:0,0:0:0:0:
317,249,13783,6,0,L|224:249,1,87.5,8|0,1:0|0:0,0:0:0:0:
429,299,14136,2,0,L|519:299,1,87.5,8|0,1:0|0:0,0:0:0:0:
358,293,14489,6,0,L|184:297,1,175,8|8,3:0|3:0,0:0:0:0:
283,251,15019,2,0,B|380:249|380:249|384:135,1,175,0|2,0:0|0:0,0:0:0:0:
292,137,15548,2,0,L|174:138,1,87.5,8|0,3:0|0:0,0:0:0:0:
298,99,15901,2,0,L|353:25,1,87.5,8|0,3:0|0:0,0:0:0:0:
271,160,16254,2,0,L|378:161,1,87.5,8|0,3:0|0:0,0:0:0:0:
118,225,16607,6,0,L|83:141,1,87.5,10|0,1:0|0:0,0:0:0:0:
264,215,16960,2,0,L|314:124,1,87.5,10|0,1:0|0:0,0:0:0:0:
38,149,17313,6,0,B|41:102|41:102|198:86,1,175,8|8,3:0|3:0,0:0:0:0:
361,148,17842,2,0,B|240:153|240:153|242:95,1,175,0|2,0:0|0:0,0:0:0:0:
322,96,18371,2,0,L|441:95,1,87.5,8|0,3:0|0:0,0:0:0:0:
341,145,18724,2,0,L|285:71,1,87.5,8|0,3:0|0:0,0:0:0:0:
413,174,19077,2,0,L|307:177,1,87.5,8|0,3:0|0:0,0:0:0:0:
423,249,19430,6,0,L|326:301,1,87.5,8|0,1:0|0:0,0:0:0:0:
168,284,19783,2,0,L|67:209,1,87.5,8|0,1:0|0:0,0:0:0:0:
302,223,20136,5,8,3:0:0:0:
389,155,20313,1,0,0:0:0:0:
386,86,20489,1,8,3:0:0:0:
301,41,20666,1,0,0:0:0:0:
209,155,20842,2,0,L|304:154,1,87.5,0|2,0:0|0:0,0:0:0:0:
200,149,21195,2,0,L|167:57,1,87.5,8|0,3:0|0:0,0:0:0:0:
283,148,21548,2,0,L|377:95,1,87.5,8|0,3:0|0:0,0:0:0:0:
154,116,21901,2,0,L|41:120,1,87.5,8|0,3:0|0:0,0:0:0:0:
330,188,22254,6,0,L|418:280,1,87.5,10|0,1:0|0:0,0:0:0:0:
232,184,22607,2,0,L|159:256,1,87.5,10|0,1:0|0:0,0:0:0:0:
477,187,22960,6,0,L|472:47,1,131.25,12|0,3:0|0:0,0:0:0:0:
382,63,23313,1,8,3:0:0:0:
164,201,23666,6,0,L|172:40,1,131.25,8|0,3:0|0:0,0:0:0:0:
259,65,24019,1,8,3:0:0:0:
456,83,24195,6,0,L|454:187,2,87.5,2|0|0,1:0|0:0|0:0,0:0:0:0:
342,96,24724,1,12,1:0:0:0:
249,118,24901,1,0,0:0:0:0:
429,111,25077,2,0,L|478:192,1,87.5,8|0,3:0|0:0,0:0:0:0:
356,182,25430,2,0,L|313:277,1,87.5,8|0,3:0|0:0,0:0:0:0:
50,262,25783,6,0,P|36:164|88:125,1,131.25,8|0,3:0|0:0,0:0:0:0:
140,141,26136,1,8,3:0:0:0:
360,219,26489,6,0,P|374:121|322:82,1,131.25,8|0,3:0|0:0,0:0:0:0:
268,104,26842,1,8,3:0:0:0:
84,178,27019,6,0,L|47:276,2,87.5,2|0|0,1:0|0:0|0:0,0:0:0:0:
188,182,27548,1,0,0:0:0:0:
303,210,27724,1,0,0:0:0:0:
125,197,27901,1,8,3:0:0:0:
33,258,28077,1,0,0:0:0:0:
33,258,28254,1,10,3:0:0:0:
125,197,28430,1,2,0:0:0:0:
389,215,28607,6,0,B|448:150|448:150|446:81,1,131.25,8|0,3:0|0:0,0:0:0:0:
356,114,28960,1,8,3:0:0:0:
187,206,29313,6,0,B|128:141|128:141|130:72,1,131.25,8|0,3:0|0:0,0:0:0:0:
220,99,29666,1,8,3:0:0:0:
403,191,29842,6,0,L|459:261,2,87.5,2|0|0,1:0|0:0|0:0,0:0:0:0:
287,193,30371,1,0,0:0:0:0:
394,214,30548,1,0,0:0:0:0:
207,228,30724,2,0,L|167:323,1,87.5,8|0,3:0|0:0,0:0:0:0:
71,299,31077,2,0,L|195:296,1,87.5,8|0,3:0|0:0,0:0:0:0:
343,300,31430,6,0,P|385:195|346:122,1,175,8|8,3:0|3:0,0:0:0:0:
254,145,31960,1,0,0:0:0:0:
437,315,32136,2,0,P|469:247|418:145,1,175,8|8,3:0|3:0,0:0:0:0:
374,164,32666,1,0,0:0:0:0:
475,165,32842,1,2,0:0:0:0:
283,242,33019,5,2,0:0:0:0:
257,237,33195,1,2,0:0:0:0:
235,233,33371,1,2,0:0:0:0:
420,181,33548,1,2,1:0:0:0:
443,160,33724,1,2,1:0:0:0:
469,141,33901,1,2,1:0:0:0:
388,205,34077,1,2,1:0:0:0:
96,274,34254,6,0,L|70:183,1,87.5,12|0,1:0|0:0,0:0:0:0:
190,237,34607,2,0,L|258:167,1,87.5,8|0,3:0|0:0,0:0:0:0:
62,189,34960,1,2,1:0:0:0:
70,146,35048,1,0,0:0:0:0:
97,112,35136,1,0,0:0:0:0:
137,95,35224,1,2,1:0:0:0:
180,98,35312,1,0,0:0:0:0:
387,240,35489,6,0,P|438:132|435:55,1,175,2|2,1:0|0:0,0:0:0:0:
319,164,36019,2,0,L|238:83,1,87.5,8|0,3:0|0:0,0:0:0:0:
454,117,36371,1,2,1:0:0:0:
410,119,36459,1,0,0:0:0:0:
366,122,36547,1,0,0:0:0:0:
322,124,36635,1,0,0:0:0:0:
279,127,36723,1,0,0:0:0:0:
80,283,36901,6,0,L|274:265,1,175,2|2,1:0|0:0,0:0:0:0:
142,233,37430,2,0,L|25:224,1,87.5,8|0,3:0|0:0,0:0:0:0:
173,198,37783,1,8,1:0:0:0:
46,185,37960,1,8,1:0:0:0:
173,198,38136,1,8,1:0:0:0:
432,164,38313,5,6,1:0:0:0:
255,202,38666,1,2,1:0:0:0:
432,164,39019,1,2,1:0:0:0:
229,161,39371,2,0,L|160:72,2,87.5,2|2|2,0:0|3:0|0:0,0:0:0:0:
470,177,39901,6,0,L|464:80,1,87.5,12|0,1:0|0:0,0:0:0:0:
347,100,40254,2,0,L|227:91,1,87.5,8|0,3:0|0:0,0:0:0:0:
66,244,40607,1,2,1:0:0:0:
58,213,40695,1,0,0:0:0:0:
52,200,40783,1,0,0:0:0:0:
96,199,40871,1,2,1:0:0:0:
139,199,40959,1,0,0:0:0:0:
333,252,41136,6,0,L|387:70,1,175,2|2,1:0|0:0,0:0:0:0:
263,118,41666,2,0,L|148:104,1,87.5,8|0,3:0|0:0,0:0:0:0:
378,140,42019,1,2,1:0:0:0:
408,161,42107,1,0,0:0:0:0:
408,204,42195,1,0,0:0:0:0:
408,248,42283,1,2,1:0:0:0:
339,255,42371,1,0,0:0:0:0:
161,259,42548,5,2,1:0:0:0:
402,244,42724,2,0,L|424:122,1,87.5,14|2,1:0|0:0,0:0:0:0:
309,188,43077,2,0,L|222:144,1,87.5,8|0,3:0|0:0,0:0:0:0:
413,125,43430,2,0,L|478:190,1,87.5,14|2,1:0|0:0,0:0:0:0:
363,145,43783,2,0,L|303:229,1,87.5,12|0,3:0|0:0,0:0:0:0:
44,226,44136,5,14,1:0:0:0:
237,264,44489,1,14,1:0:0:0:
44,226,44842,1,10,1:0:0:0:
224,216,45195,2,0,L|315:215,1,87.5,10|10,1:0|1:0,0:0:0:0:
44,226,45548,6,0,P|31:169|55:138,1,87.5,12|0,1:0|0:0,0:0:0:0:
161,156,45901,2,0,P|207:125|210:79,1,87.5,8|0,3:0|0:0,0:0:0:0:
406,113,46254,1,2,1:0:0:0:
432,147,46342,1,0,0:0:0:0:
420,179,46430,1,0,0:0:0:0:
389,209,46518,1,2,1:0:0:0:
344,211,46606,1,0,0:0:0:0:
151,243,46783,6,0,B|140:220|140:220|324:223,1,175,2|2,1:0|0:0,0:0:0:0:
180,177,47313,2,0,L|90:98,1,87.5,8|0,3:0|0:0,0:0:0:0:
310,106,47666,1,2,1:0:0:0:
266,109,47754,1,0,0:0:0:0:
230,134,47842,1,0,0:0:0:0:
211,172,47930,1,2,1:0:0:0:
212,215,48018,1,0,0:0:0:0:
406,275,48195,6,0,B|411:259|411:259|351:246|328:276|232:259,1,175,2|2,1:0|0:0,0:0:0:0:
368,222,48724,2,0,L|462:215,1,87.5,8|0,3:0|0:0,0:0:0:0:
269,222,49077,1,10,3:0:0:0:
174,224,49254,1,0,0:0:0:0:
174,224,49430,1,8,3:0:0:0:
442,171,49607,5,2,1:0:0:0:
280,167,49960,1,2,1:0:0:0:
453,171,50313,1,2,1:0:0:0:
245,227,50666,2,0,L|198:134,2,87.5,2|2|2,0:0|3:0|0:0,0:0:0:0:
485,232,51195,6,0,L|467:113,1,87.5,12|2,1:0|0:0,0:0:0:0:
353,165,51548,2,0,L|338:64,1,87.5,8|0,3:0|0:0,0:0:0:0:
145,167,51901,1,2,1:0:0:0:
103,177,51989,1,0,0:0:0:0:
84,215,52077,1,0,0:0:0:0:
106,249,52165,1,2,1:0:0:0:
149,255,52253,1,0,0:0:0:0:
353,267,52430,6,0,B|309:246|309:246|322:250|330:254|316:239|300:239|304:251|293:236|272:232|275:245|249:239|231:247|224:251|258:281|282:255|236:244|224:250|238:270|267:264|258:244|226:239|211:246,1,175,2|0,1:0|0:0,0:0:0:0:
69,236,53136,2,0,B|130:228|130:228|139:202|139:202|111:200|199:195|131:199|219:191|153:191|235:169,1,175,0|0,0:0|0:0,0:0:0:0:
135,134,53666,2,0,L|137:38,1,87.5,0|2,0:0|1:0,0:0:0:0:
486,155,54019,5,14,1:0:0:0:
487,215,54195,1,2,0:0:0:0:
430,155,54371,1,8,3:0:0:0:
486,155,54548,1,0,0:0:0:0:
311,159,54724,5,14,1:0:0:0:
401,159,54901,1,2,0:0:0:0:
401,159,55077,1,8,3:0:0:0:
401,159,55254,1,0,0:0:0:0:
234,199,55430,5,14,1:0:0:0:
190,199,55518,1,0,0:0:0:0:
146,199,55606,1,0,0:0:0:0:
252,261,55783,2,0,L|325:294,2,43.75,14|0|0,1:0|0:0|0:0,0:0:0:0:
146,199,56136,5,10,1:0:0:0:
190,199,56224,1,0,0:0:0:0:
234,199,56313,1,10,1:0:0:0:
276,200,56401,1,0,0:0:0:0:
234,199,56489,1,10,1:0:0:0:
190,199,56577,1,0,0:0:0:0:
146,199,56666,1,10,1:0:0:0:
407,198,56842,6,0,L|501:120,1,87.5,12|0,1:0|0:0,0:0:0:0:
363,133,57195,2,0,L|236:134,1,87.5,8|0,3:0|0:0,0:0:0:0:
83,137,57548,1,2,1:0:0:0:
79,182,57636,1,0,0:0:0:0:
87,231,57724,1,0,0:0:0:0:
123,266,57812,1,2,1:0:0:0:
180,273,57900,1,0,0:0:0:0:
381,266,58077,6,0,B|422:226|396:187|252:178,1,175,2|2,1:0|0:0,0:0:0:0:
392,155,58607,2,0,L|472:115,1,87.5,8|0,3:0|0:0,0:0:0:0:
267,92,58960,1,2,1:0:0:0:
230,88,59048,1,0,0:0:0:0:
206,126,59136,1,0,0:0:0:0:
220,169,59224,1,2,1:0:0:0:
263,173,59312,1,0,0:0:0:0:
453,199,59489,6,0,L|259:249,1,175,2|2,1:0|0:0,0:0:0:0:
405,304,60019,2,0,L|470:225,1,87.5,8|0,3:0|0:0,0:0:0:0:
343,264,60371,2,0,L|430:225,2,87.5,8|8|8,1:0|1:0|1:0,0:0:0:0:
74,272,60901,5,6,1:0:0:0:
253,287,61254,1,6,1:0:0:0:
74,272,61607,1,6,1:0:0:0:
262,288,61960,2,0,L|336:231,2,87.5,2|2|2,0:0|3:0|0:0,0:0:0:0:
16,204,62489,6,0,P|11:173|69:130,1,87.5,12|0,1:0|0:0,0:0:0:0:
157,185,62842,2,0,L|157:64,1,87.5,8|0,3:0|0:0,0:0:0:0:
344,145,63195,1,2,1:0:0:0:
386,153,63283,1,0,0:0:0:0:
421,178,63371,1,0,0:0:0:0:
442,216,63459,1,2,1:0:0:0:
445,259,63547,1,0,0:0:0:0:
260,299,63724,6,0,L|142:292,1,87.5,2|0,1:0|0:0,0:0:0:0:
289,266,64077,2,0,L|193:261,2,87.5,2|8|0,0:0|3:0|0:0,0:0:0:0:
105,244,64607,1,2,1:0:0:0:
137,215,64695,1,0,0:0:0:0:
178,198,64783,1,0,0:0:0:0:
221,196,64871,1,2,1:0:0:0:
263,208,64959,1,0,0:0:0:0:
454,233,65136,6,0,P|469:173|447:156,2,87.5,2|14|2,1:0|1:0|0:0,0:0:0:0:
348,283,65666,2,0,L|293:209,1,87.5,8|0,3:0|0:0,0:0:0:0:
107,233,66019,2,0,L|63:121,1,87.5,14|2,1:0|0:0,0:0:0:0:
188,173,66371,2,0,L|215:81,1,87.5,8|0,3:0|0:0,0:0:0:0:
479,96,66724,5,14,1:0:0:0:
306,205,67077,1,14,1:0:0:0:
481,262,67430,1,10,1:0:0:0:
305,263,67783,2,0,L|186:266,1,87.5,10|10,1:0|1:0,0:0:0:0:
463,254,68136,6,0,L|491:169,1,87.5,12|0,1:0|0:0,0:0:0:0:
378,182,68489,2,0,L|275:182,1,87.5,8|0,3:0|0:0,0:0:0:0:
105,121,68842,1,2,1:0:0:0:
148,121,68930,1,0,0:0:0:0:
192,122,69018,1,0,0:0:0:0:
236,123,69106,1,0,0:0:0:0:
279,123,69194,1,0,0:0:0:0:
85,193,69371,6,0,P|39:265|108:347,1,175,2|2,1:0|0:0,0:0:0:0:
193,345,69901,2,0,L|210:252,1,87.5,8|0,3:0|0:0,0:0:0:0:
398,256,70254,1,2,1:0:0:0:
399,213,70342,1,0,0:0:0:0:
374,177,70430,1,0,0:0:0:0:
333,164,70518,1,0,0:0:0:0:
292,177,70606,1,0,0:0:0:0:
106,167,70783,6,0,P|120:136|260:124,1,175,2|2,1:0|0:0,0:0:0:0:
152,174,71313,2,0,L|60:177,1,87.5,8|0,3:0|0:0,0:0:0:0:
180,229,71666,2,0,L|69:231,2,87.5,10|0|8,3:0|0:0|3:0,0:0:0:0:
450,249,72195,5,6,1:0:0:0:
278,170,72548,1,6,1:0:0:0:
450,249,72901,1,6,0:0:0:0:
259,255,73254,2,0,L|210:157,2,87.5,2|2|2,0:0|3:0|0:0,0:0:0:0:
502,163,73783,6,0,L|492:66,1,87.5,12|0,0:0|0:0,0:0:0:0:
383,121,74136,2,0,L|498:122,1,87.5,8|0,3:0|0:0,0:0:0:0:
281,169,74489,1,2,1:0:0:0:
297,208,74577,1,0,0:0:0:0:
330,237,74665,1,0,0:0:0:0:
371,250,74753,1,0,0:0:0:0:
414,243,74841,1,0,0:0:0:0:
241,174,75019,6,0,P|206:251|105:259,1,175,2|0,1:0|0:0,0:0:0:0:
257,290,75724,2,0,L|465:293,1,175,0|0,0:0|0:0,0:0:0:0:
327,248,76254,2,0,L|268:163,1,87.5,0|2,0:0|1:0,0:0:0:0:
27,200,76607,5,14,1:0:0:0:
36,157,76783,1,2,0:0:0:0:
66,127,76960,1,8,3:0:0:0:
108,117,77136,1,0,0:0:0:0:
275,212,77313,1,14,1:0:0:0:
319,187,77489,1,2,0:0:0:0:
275,212,77666,1,8,3:0:0:0:
231,179,77842,1,0,0:0:0:0:
480,180,78019,6,0,L|493:90,1,87.5,10|10,1:0|1:0,0:0:0:0:
317,105,78371,1,10,1:0:0:0:
492,96,78548,2,0,P|502:176|287:247,1,350,10|2,1:0|0:0,0:0:0:0:
241,231,79342,1,2,0:0:0:0:
