osu file format v14

[General]
AudioFilename: audio.mp3
AudioLeadIn: 0
PreviewTime: 33019
Countdown: 0
SampleSet: Soft
StackLeniency: 0.7
Mode: 2
LetterboxInBreaks: 0
WidescreenStoryboard: 0

[Editor]
DistanceSpacing: 3.8
BeatDivisor: 4
GridSize: 32
TimelineZoom: 1

[Metadata]
Title:WWW.BLONDE GIRL (MOMO MIX)
TitleUnicode:WWW.BLONDE GIRL (MOMO MIX)
Artist:JENNY ROM
ArtistUnicode:JENNY ROM
Creator:Ascendance
Version:Challenge
Source:DDRMAX -DanceDanceRevolution 6thMIX-
Tags:blond cute ddr dance dance revolution dancemania sanyi paranoid grapes spectator fii kaitlin -wwwww wonjae kaifin
BeatmapID:1510897
BeatmapSetID:715066

[Difficulty]
HPDrainRate:7
CircleSize:4
OverallDifficulty:9.3
ApproachRate:9.3
SliderMultiplier:2
SliderTickRate:2

[Events]
//Background and Video events
0,0,"ascendance blonde girl.png",0,0
//Break Periods
//Storyboard Layer 0 (Background)
//Storyboard Layer 1 (Fail)
//Storyboard Layer 2 (Pass)
//Storyboard Layer 3 (Foreground)
//Storyboard Sound Samples

[TimingPoints]
372,352.941176470588,4,2,0,40,1,0
372,-100,4,2,0,40,0,0
5489,-100,4,2,0,40,0,0
5842,-100,4,2,0,40,0,0
7430,-100,4,2,0,40,0,0
10607,-76.9230769230769,4,2,0,40,0,0
10960,-55.5555555555556,4,2,0,40,0,0
11666,-100,4,2,0,40,0,0
22960,-100,4,2,0,40,0,0
33548,-100,4,2,0,40,0,0
34254,-100,4,2,0,40,0,1
37960,-100,4,2,0,40,0,1
38136,-100,4,2,0,40,0,1
38313,-100,4,2,0,40,0,1
38666,-66.6666666666667,4,2,0,60,0,1
39019,-58.8235294117647,4,2,0,80,0,1
39371,-25,4,2,0,60,0,1
39901,-100,4,2,0,40,0,1
49607,-100,4,2,0,40,0,1
49960,-66.6666666666667,4,2,0,60,0,1
50313,-58.8235294117647,4,2,0,80,0,1
50666,-25,4,2,0,60,0,1
51195,-100,4,2,0,40,0,1
55430,-100,4,2,0,40,0,0
56842,-100,4,2,0,40,0,1
60548,-100,4,2,0,40,0,1
60724,-100,4,2,0,40,0,1
61254,-66.6666666666667,4,2,0,60,0,1
61607,-58.8235294117647,4,2,0,80,0,1
61960,-25,4,2,0,60,0,1
62489,-100,4,2,0,40,0,1
72195,-100,4,2,0,40,0,1
72548,-66.6666666666667,4,2,0,60,0,1
72901,-58.8235294117647,4,2,0,80,0,1
73254,-25,4,2,0,60,0,1
73783,-100,4,2,0,40,0,1
78019,-100,4,2,0,40,0,0

[Colours]
Combo1 : 128,0,64
Combo2 : 255,255,183
Combo3 : 255,168,255
Combo4 : 128,64,0

[HitObjects]
69,77,372,6,0,L|172:77,1,100,10|0,3:1|0:0,0:0:0:0:
311,77,724,1,8,3:0:0:0:
55,221,901,2,0,L|271:222,1,200,0|0,0:0|0:0,0:0:0:0:
81,105,1430,2,0,L|92:221,1,100,0|0,0:0|0:0,0:0:0:0:
447,249,1783,5,10,3:1:0:0:
295,267,1960,1,0,0:0:0:0:
461,135,2136,2,0,L|447:244,1,100,8|0,3:0|0:0,0:0:0:0:
211,353,2489,1,8,3:0:0:0:
190,287,2577,1,0,0:0:0:0:
231,220,2665,1,0,0:0:0:0:
310,203,2753,1,0,0:0:0:0:
90,213,2842,2,0,L|49:112,1,100,0|0,0:0|0:0,0:0:0:0:
300,107,3195,6,0,L|180:117,2,100,10|0|8,3:1|0:0|3:0,0:0:0:0:
438,89,3724,1,0,0:0:0:0:
288,291,3901,2,0,L|287:222,1,50,8|0,3:0|0:0,0:0:0:0:
373,207,4077,2,0,L|373:118,1,50
66,203,4254,2,0,L|166:215,1,100,0|0,0:0|0:0,0:0:0:0:
446,100,4607,5,8,3:0:0:0:
309,108,4783,1,0,0:0:0:0:
174,114,4960,1,8,3:0:0:0:
309,108,5136,2,0,L|368:110,1,50,0|0,0:0|0:0,0:0:0:0:
132,163,5313,6,0,L|64:167,1,50,10|0,3:1|0:0,0:0:0:0:
242,269,5489,2,0,P|288:212|246:138,1,150,2|0,0:1|0:0,0:0:0:0:
51,326,5842,2,0,L|118:338,1,50,6|0,0:1|0:0,0:0:0:0:
409,317,6019,6,0,L|443:210,1,100,8|0,3:0|0:0,0:0:0:0:
268,116,6371,2,0,L|279:176,1,50,8|0,3:0|0:0,0:0:0:0:
452,22,6548,2,0,L|237:39,1,200,0|0,0:0|0:0,0:0:0:0:
374,223,7077,2,0,L|397:158,1,50,0|0,0:0|0:0,0:0:0:0:
301,120,7254,2,0,L|289:63,1,50,0|0,0:0|0:0,0:0:0:0:
35,217,7430,6,0,L|178:204,1,100,8|0,3:0|0:0,0:0:0:0:
316,300,7783,2,0,L|200:292,1,100,8|0,3:0|0:0,0:0:0:0:
50,358,8136,1,8,3:0:0:0:
32,286,8224,1,0,0:0:0:0:
72,219,8312,1,0,0:0:0:0:
152,196,8400,1,0,0:0:0:0:
313,212,8489,2,0,L|372:224,1,50,0|0,0:0|0:0,0:0:0:0:
149,149,8666,1,0,0:0:0:0:
430,63,8842,6,0,L|131:64,1,300,10|0,3:1|0:0,0:0:0:0:
418,304,9548,2,0,P|470:243|381:71,1,300,10|0,3:1|0:0,0:0:0:0:
55,50,10254,6,0,L|163:50,1,100,10|0,3:1|0:0,0:0:0:0:
57,128,10607,6,0,L|243:128,1,129.999994049073,10|0,3:1|0:0,0:0:0:0:
56,212,10960,6,0,L|267:212,1,179.999994506836,10|10,3:1|3:1,0:0:0:0:
54,300,11313,5,8,3:0:0:0:
424,298,11489,1,8,3:0:0:0:
145,364,11666,6,0,L|129:232,1,100,8|0,3:0|0:0,0:0:0:0:
270,211,12019,1,8,3:0:0:0:
137,162,12195,2,0,L|131:109,1,50,0|0,0:0|0:0,0:0:0:0:
210,67,12371,2,0,L|238:13,2,50,0|0|2,0:0|0:0|0:0,0:0:0:0:
58,196,12724,1,8,3:0:0:0:
107,200,12812,1,0,0:0:0:0:
157,205,12900,1,0,0:0:0:0:
420,243,13077,5,8,3:0:0:0:
276,353,13254,1,0,0:0:0:0:
271,303,13342,1,0,0:0:0:0:
266,253,13430,1,8,3:0:0:0:
407,111,13607,1,0,0:0:0:0:
453,127,13695,1,0,0:0:0:0:
286,157,13783,1,8,1:0:0:0:
290,212,13871,1,0,0:0:0:0:
346,235,13959,1,0,0:0:0:0:
231,355,14136,2,0,L|222:292,1,50,8|0,1:0|0:0,0:0:0:0:
441,97,14313,2,0,L|432:172,1,50,0|0,0:0|0:0,0:0:0:0:
197,244,14489,5,8,3:0:0:0:
147,246,14577,1,0,0:0:0:0:
97,248,14665,1,0,0:0:0:0:
281,167,14842,1,8,3:0:0:0:
158,345,15019,1,0,0:0:0:0:
147,246,15195,1,0,0:0:0:0:
281,167,15371,1,2,0:0:0:0:
134,88,15548,1,8,3:0:0:0:
84,91,15636,1,0,0:0:0:0:
34,95,15724,1,0,0:0:0:0:
214,154,15901,6,0,L|338:147,1,100,8|0,3:0|0:0,0:0:0:0:
364,146,16166,1,0,0:0:0:0:
413,141,16254,1,8,3:0:0:0:
250,60,16430,2,0,L|266:137,1,50,0|0,0:0|0:0,0:0:0:0:
468,203,16607,6,0,L|461:323,1,100,10|0,1:0|0:0,0:0:0:0:
391,337,16871,1,0,0:0:0:0:
97,178,16960,2,0,P|181:187|269:157,1,150,10|0,1:0|0:0,0:0:0:0:
466,104,17313,6,0,L|357:92,2,100,8|0|8,3:0|0:0|3:0,0:0:0:0:
219,292,17842,1,0,0:0:0:0:
190,251,17930,1,0,0:0:0:0:
181,201,18018,1,0,0:0:0:0:
209,158,18106,1,0,0:0:0:0:
251,133,18194,1,2,0:0:0:0:
451,340,18371,1,8,3:0:0:0:
401,343,18459,1,0,0:0:0:0:
351,347,18547,1,0,0:0:0:0:
57,352,18724,5,8,3:0:0:0:
193,277,18901,2,0,L|196:202,1,50,0|0,0:0|0:0,0:0:0:0:
131,186,19077,1,8,3:0:0:0:
294,176,19254,1,0,0:0:0:0:
45,93,19430,2,0,L|192:84,1,100,8|0,1:0|0:0,0:0:0:0:
436,50,19783,1,8,1:0:0:0:
483,118,19871,1,0,0:0:0:0:
440,184,19959,1,0,0:0:0:0:
369,181,20047,1,0,0:0:0:0:
107,279,20136,5,8,3:0:0:0:
231,295,20313,1,0,0:0:0:0:
364,309,20489,1,8,3:0:0:0:
68,86,20666,2,0,L|76:290,1,200,0|2,0:0|0:0,0:0:0:0:
206,128,21195,2,0,L|125:132,1,50,8|0,3:0|0:0,0:0:0:0:
243,128,21371,1,0,0:0:0:0:
86,58,21548,5,8,3:0:0:0:
243,128,21724,2,0,L|256:202,2,50,0|0|8,0:0|0:0|3:0,0:0:0:0:
408,244,22077,2,0,L|416:303,1,50,0|0,0:0|0:0,0:0:0:0:
227,258,22254,2,0,L|159:258,1,50,10|0,1:0|0:0,0:0:0:0:
227,258,22430,2,0,L|286:256,1,50,0|0,0:0|0:0,0:0:0:0:
75,172,22607,2,0,L|66:111,1,50,10|0,1:0|0:0,0:0:0:0:
437,172,22783,2,0,L|446:111,1,50,0|0,0:0|0:0,0:0:0:0:
206,47,22960,6,0,L|91:47,1,100,12|0,3:0|0:0,0:0:0:0:
266,125,23313,2,0,L|141:125,1,100,8|0,3:0|0:0,0:0:0:0:
306,47,23666,6,0,L|421:47,1,100,8|0,3:0|0:0,0:0:0:0:
246,125,24019,1,8,3:0:0:0:
501,124,24195,1,2,1:0:0:0:
369,120,24371,5,0,0:0:0:0:
96,207,24548,1,0,0:0:0:0:
216,204,24724,1,12,1:0:0:0:
330,201,24900,1,0,0:0:0:0:
168,318,25077,2,0,L|154:212,1,100,8|0,3:0|0:0,0:0:0:0:
300,122,25430,2,0,L|366:130,2,50,8|0|0,3:0|0:0|0:0,0:0:0:0:
45,92,25783,6,0,L|170:79,1,100,8|0,3:0|0:0,0:0:0:0:
34,186,26136,2,0,L|141:171,1,100,8|0,3:0|0:0,0:0:0:0:
335,127,26489,6,0,L|210:114,1,100,8|0,3:0|0:0,0:0:0:0:
346,221,26842,1,8,3:0:0:0:
72,288,27019,1,2,1:0:0:0:
204,288,27195,5,0,0:0:0:0:
72,288,27371,2,0,L|304:289,1,200,0|0,0:0|0:0,0:0:0:0:
436,357,27901,2,0,L|456:297,1,50,8|0,3:0|0:0,0:0:0:0:
391,260,28077,2,0,L|386:192,1,50,0|0,0:0|0:0,0:0:0:0:
459,173,28254,1,10,3:0:0:0:
350,82,28430,2,0,L|409:73,1,50,2|2,0:0|0:0,0:0:0:0:
173,61,28607,6,0,L|55:49,1,100,8|0,3:0|0:0,0:0:0:0:
233,142,28960,2,0,L|343:132,1,100,8|0,3:0|0:0,0:0:0:0:
173,61,29313,2,0,L|55:49,1,100,8|0,3:0|0:0,0:0:0:0:
281,30,29666,1,8,3:0:0:0:
24,282,29842,6,0,L|147:289,1,100,2|0,1:0|0:0,0:0:0:0:
387,178,30195,2,0,L|176:198,1,200,0|0,0:0|0:0,0:0:0:0:
354,332,30724,2,0,L|366:252,1,50,8|0,3:0|0:0,0:0:0:0:
293,244,30901,1,0,0:0:0:0:
471,112,31077,2,0,L|454:235,1,100,8|0,3:0|0:0,0:0:0:0:
175,317,31430,6,0,P|105:290|80:261,1,100,8|0,3:0|0:0,0:0:0:0:
257,233,31783,2,0,P|318:216|349:179,1,100,8|0,3:0|0:0,0:0:0:0:
71,52,32136,6,0,L|48:100,2,50,8|0|0,3:0|0:0|0:0,0:0:0:0:
211,142,32489,2,0,L|227:192,2,50,8|0|0,3:0|0:0|0:0,0:0:0:0:
52,223,32842,2,0,L|31:273,1,50,2|0,0:0|0:0,0:0:0:0:
277,304,33019,6,0,L|329:304,1,50,2|0,0:0|0:0,0:0:0:0:
277,304,33195,2,0,L|204:304,1,50,2|0,0:0|0:0,0:0:0:0:
416,228,33371,2,0,L|470:228,1,50,2|0,0:0|0:0,0:0:0:0:
177,191,33548,6,0,L|172:130,1,50,2|0,1:0|0:0,0:0:0:0:
379,79,33724,2,0,L|451:72,1,50,2|0,1:0|0:0,0:0:0:0:
87,258,33901,6,0,L|82:197,1,50,2|0,1:0|0:0,0:0:0:0:
379,79,34077,2,0,L|451:72,1,50,2|0,1:0|0:0,0:0:0:0:
104,335,34254,5,12,1:0:0:0:
52,274,34342,1,0,0:0:0:0:
82,200,34430,1,0,0:0:0:0:
152,184,34518,1,2,0:0:0:0:
325,217,34607,2,0,L|375:227,2,50,8|0|0,3:0|0:0|0:0,0:0:0:0:
169,91,34960,6,0,L|175:146,1,50,2|0,1:0|0:0,0:0:0:0:
321,168,35136,2,0,L|326:229,1,50,0|2,0:0|1:0,0:0:0:0:
472,251,35313,2,0,L|474:313,1,50,0|0,0:0|0:0,0:0:0:0:
288,318,35489,6,0,L|62:320,1,200,2|2,1:0|0:0,0:0:0:0:
378,150,36019,1,8,3:0:0:0:
374,199,36107,1,0,0:0:0:0:
370,249,36195,1,0,0:0:0:0:
73,204,36371,6,0,L|86:150,1,50,2|0,1:0|0:0,0:0:0:0:
232,125,36548,2,0,L|253:65,1,50,0|2,0:0|1:0,0:0:0:0:
397,64,36724,2,0,L|415:16,1,50,0|0,0:0|0:0,0:0:0:0:
158,150,36901,6,0,L|391:172,1,200,2|2,1:0|0:0,0:0:0:0:
208,307,37430,1,8,3:0:0:0:
177,246,37518,1,0,0:0:0:0:
201,179,37606,1,0,0:0:0:0:
270,152,37694,1,0,0:0:0:0:
420,189,37783,2,0,L|471:193,1,50,8|0,1:0|0:0,0:0:0:0:
270,263,37960,2,0,L|336:269,1,50,8|0,1:0|0:0,0:0:0:0:
480,343,38136,1,8,1:0:0:0:
76,345,38313,6,0,L|217:345,1,100,6|0,1:0|0:0,0:0:0:0:
478,232,38666,2,0,L|308:231,1,150.000005722046,2|0,1:0|0:0,0:0:0:0:
27,131,39019,2,0,L|248:130,1,170.000003242493,2|0,1:0|0:0,0:0:0:0:
469,62,39371,6,0,L|56:61,2,400,2|2|2,0:0|3:0|0:0,0:0:0:0:
90,143,39901,5,12,1:0:0:0:
211,248,40077,2,0,L|229:192,1,50,0|2,0:0|0:0,0:0:0:0:
47,249,40254,1,8,3:0:0:0:
44,319,40342,1,0,0:0:0:0:
90,362,40430,1,0,0:0:0:0:
166,365,40518,1,0,0:0:0:0:
443,277,40607,6,0,L|376:273,1,50,2|0,1:0|0:0,0:0:0:0:
247,241,40783,2,0,L|154:235,1,50,0|2,0:0|1:0,0:0:0:0:
48,210,40960,2,0,L|-7:207,1,50,0|0,0:0|0:0,0:0:0:0:
201,109,41136,6,0,L|425:132,1,200,2|2,1:0|0:0,0:0:0:0:
241,268,41666,2,0,L|231:159,1,100,8|0,3:0|0:0,0:0:0:0:
452,249,42019,2,0,L|397:257,1,50,2|0,1:0|0:0,0:0:0:0:
253,272,42195,2,0,L|169:281,1,50,0|2,0:0|1:0,0:0:0:0:
53,278,42371,2,0,L|-14:284,1,50,0|0,0:0|0:0,0:0:0:0:
252,189,42548,2,0,L|339:182,1,50,2|0,1:0|0:0,0:0:0:0:
86,189,42724,6,0,L|64:59,1,100,14|2,1:0|0:0,0:0:0:0:
210,111,43077,2,0,L|332:102,1,100,8|0,3:0|0:0,0:0:0:0:
46,267,43430,2,0,L|190:250,2,100,14|2|12,1:0|0:0|3:0,0:0:0:0:
209,355,43960,2,0,L|218:303,1,50,0|0,0:0|0:0,0:0:0:0:
52,123,44136,6,0,L|166:134,1,100,14|2,1:0|0:0,0:0:0:0:
426,88,44489,2,0,L|320:97,1,100,14|0,1:0|0:0,0:0:0:0:
56,198,44842,6,0,L|50:232,2,25,10|0|0,1:0|0:0|0:0,0:0:0:0:
155,211,45019,6,0,L|149:245,2,25,10|0|0,1:0|0:0|0:0,0:0:0:0:
251,234,45195,6,0,L|245:268,2,25,10|0|0,1:0|0:0|0:0,0:0:0:0:
349,251,45371,6,0,L|343:285,2,25,10|0|0,1:0|0:0|0:0,0:0:0:0:
140,340,45548,6,0,L|134:284,1,50,12|0,1:0|0:0,0:0:0:0:
207,252,45724,2,0,L|202:191,1,50,0|0,0:0|0:0,0:0:0:0:
54,157,45901,1,8,3:0:0:0:
44,108,45989,1,0,0:0:0:0:
65,64,46077,1,0,0:0:0:0:
108,41,46165,1,0,0:0:0:0:
327,23,46254,6,0,L|385:23,1,50,2|0,1:0|0:0,0:0:0:0:
222,105,46430,2,0,L|275:105,1,50,0|2,0:0|1:0,0:0:0:0:
121,197,46607,2,0,L|188:200,1,50,0|0,0:0|0:0,0:0:0:0:
410,287,46783,6,0,L|199:286,1,200,2|2,1:0|0:0,0:0:0:0:
368,148,47313,1,8,3:0:0:0:
362,197,47401,1,0,0:0:0:0:
357,247,47489,1,0,0:0:0:0:
181,182,47666,6,0,L|123:182,1,50,2|0,1:0|0:0,0:0:0:0:
286,264,47842,2,0,L|233:264,1,50,0|2,0:0|1:0,0:0:0:0:
387,356,48019,2,0,L|320:359,1,50,0|0,0:0|0:0,0:0:0:0:
122,326,48195,6,0,P|104:258|197:172,1,200,2|2,1:0|0:0,0:0:0:0:
351,164,48724,2,0,L|411:170,1,50,8|0,3:0|0:0,0:0:0:0:
351,164,48901,2,0,L|278:157,1,50,0|0,0:0|0:0,0:0:0:0:
113,142,49077,1,10,3:0:0:0:
243,120,49254,1,0,0:0:0:0:
375,93,49430,1,8,3:0:0:0:
76,345,49607,6,0,L|217:345,1,100,2|0,1:0|0:0,0:0:0:0:
478,232,49960,2,0,L|308:231,1,150.000005722046,2|0,1:0|0:0,0:0:0:0:
27,131,50313,2,0,L|248:130,1,170.000003242493,2|0,1:0|0:0,0:0:0:0:
469,62,50666,6,0,L|56:61,2,400,2|2|2,0:0|3:0|0:0,0:0:0:0:
90,162,51195,5,12,1:0:0:0:
247,163,51371,2,0,L|304:164,1,50,2|0,0:0|0:0,0:0:0:0:
128,73,51548,2,0,L|76:73,1,50,8|0,3:0|0:0,0:0:0:0:
128,73,51724,2,0,L|188:73,1,50,0|0,0:0|0:0,0:0:0:0:
416,137,51901,6,0,L|401:189,1,50,2|0,1:0|0:0,0:0:0:0:
242,231,52077,2,0,L|257:288,1,50,0|2,0:0|1:0,0:0:0:0:
416,137,52254,2,0,L|401:189,1,50,0|0,0:0|0:0,0:0:0:0:
207,128,52430,6,0,L|75:128,1,100,2|0,1:0|0:0,0:0:0:0:
391,308,52783,2,0,L|416:192,1,100,0|0,0:0|0:0,0:0:0:0:
164,354,53136,2,0,L|391:342,1,200,0|0,0:0|0:0,0:0:0:0:
152,168,53666,2,0,L|169:234,1,50,0|0,0:0|0:0,0:0:0:0:
341,247,53842,2,0,L|351:308,1,50,2|0,1:0|0:0,0:0:0:0:
114,317,54019,6,0,L|-8:322,1,100,14|2,1:0|0:0,0:0:0:0:
271,182,54371,2,0,L|136:189,1,100,8|0,3:0|0:0,0:0:0:0:
439,63,54724,2,0,L|315:71,2,100,14|2|8,1:0|0:0|3:0,0:0:0:0:
176,137,55254,2,0,L|96:142,1,50,0|0,0:0|0:0,0:0:0:0:
428,334,55430,6,0,L|444:259,1,50,14|0,1:0|0:0,0:0:0:0:
222,105,55607,2,0,L|231:163,1,50,0|0,0:0|0:0,0:0:0:0:
296,188,55783,2,0,L|349:187,1,50,14|0,1:0|0:0,0:0:0:0:
104,308,55960,2,0,L|90:218,1,50,0|0,0:0|0:0,0:0:0:0:
397,189,56136,6,0,L|454:187,1,50,10|0,1:0|0:0,0:0:0:0:
246,133,56313,2,0,L|186:133,1,50,10|0,1:0|0:0,0:0:0:0:
17,63,56489,2,0,L|81:62,1,50,10|0,1:0|0:0,0:0:0:0:
334,67,56666,2,0,L|401:66,1,50,10|0,1:0|0:0,0:0:0:0:
151,39,56842,5,12,1:0:0:0:
200,35,56930,1,0,0:0:0:0:
250,32,57018,1,0,0:0:0:0:
300,28,57106,1,2,0:0:0:0:
108,195,57195,1,8,3:0:0:0:
100,145,57283,1,0,0:0:0:0:
93,95,57371,1,0,0:0:0:0:
269,216,57548,6,0,L|209:215,1,50,2|0,1:0|0:0,0:0:0:0:
50,293,57724,2,0,L|102:292,1,50,0|2,0:0|1:0,0:0:0:0:
269,216,57901,2,0,L|209:215,1,50,0|0,0:0|0:0,0:0:0:0:
30,70,58077,6,0,L|247:69,1,200,2|2,1:0|0:0,0:0:0:0:
421,149,58607,2,0,L|300:150,1,100,8|0,3:0|0:0,0:0:0:0:
185,218,58960,6,0,L|245:217,1,50,2|0,1:0|0:0,0:0:0:0:
404,295,59136,2,0,L|352:294,1,50,0|2,0:0|1:0,0:0:0:0:
185,218,59313,2,0,L|245:217,1,50,0|0,0:0|0:0,0:0:0:0:
442,93,59489,6,0,L|231:92,1,200,2|2,1:0|0:0,0:0:0:0:
370,203,60019,2,0,L|379:143,1,50,8|0,3:0|0:0,0:0:0:0:
283,97,60195,2,0,L|217:90,1,50,0|0,0:0|0:0,0:0:0:0:
456,283,60371,2,0,L|320:293,2,100,8|8|8,1:0|1:0|1:0,0:0:0:0:
76,345,60901,6,0,L|176:345,1,100,6|0,1:0|0:0,0:0:0:0:
478,232,61254,2,0,L|328:231,1,150.000005722046,6|0,1:0|0:0,0:0:0:0:
27,131,61607,2,0,L|196:130,1,170.000003242493,6|0,1:0|0:0,0:0:0:0:
469,62,61960,6,0,L|69:61,2,400,2|2|2,0:0|3:0|0:0,0:0:0:0:
151,116,62489,5,12,1:0:0:0:
307,194,62666,2,0,L|231:194,1,50,0|2,0:0|0:0,0:0:0:0:
59,282,62842,1,8,3:0:0:0:
109,282,62930,1,0,0:0:0:0:
159,282,63018,1,0,0:0:0:0:
209,282,63106,1,0,0:0:0:0:
438,307,63195,6,0,L|380:308,1,50,2|0,1:0|0:0,0:0:0:0:
217,213,63371,2,0,L|269:212,1,50,0|2,0:0|1:0,0:0:0:0:
110,95,63548,2,0,L|161:95,1,50,0|0,0:0|0:0,0:0:0:0:
384,29,63724,6,0,L|172:29,1,200,2|2,1:0|0:0,0:0:0:0:
331,158,64254,2,0,L|347:49,1,100,8|0,3:0|0:0,0:0:0:0:
172,291,64607,6,0,L|230:292,1,50,2|0,1:0|0:0,0:0:0:0:
393,197,64783,2,0,L|341:196,1,50,0|2,0:0|1:0,0:0:0:0:
499,78,64960,2,0,L|448:78,1,50,0|0,0:0|0:0,0:0:0:0:
181,28,65136,2,0,L|236:27,1,50,2|0,1:0|0:0,0:0:0:0:
457,149,65313,6,0,L|345:149,1,100,14|2,1:0|0:0,0:0:0:0:
229,235,65666,2,0,L|356:235,1,100,8|0,3:0|0:0,0:0:0:0:
54,124,66019,2,0,L|175:124,2,100,14|2|8,1:0|0:0|3:0,0:0:0:0:
215,67,66548,2,0,L|268:66,1,50,0|0,0:0|0:0,0:0:0:0:
59,308,66724,6,0,L|43:187,1,100,14|0,1:0|0:0,0:0:0:0:
351,171,67077,2,0,L|380:69,1,100,14|0,1:0|0:0,0:0:0:0:
186,95,67430,6,0,L|180:129,2,25,10|0|0,1:0|0:0|0:0,0:0:0:0:
291,126,67607,6,0,L|292:161,2,25,10|0|0,1:0|0:0|0:0,0:0:0:0:
171,178,67783,6,0,L|165:212,2,25,10|0|0,1:0|0:0|0:0,0:0:0:0:
276,200,67959,6,0,L|277:235,2,25,10|0|0,1:0|0:0|0:0,0:0:0:0:
71,327,68136,6,0,L|60:268,1,50,12|0,1:0|0:0,0:0:0:0:
140,234,68313,2,0,L|189:224,1,50,0|0,0:0|0:0,0:0:0:0:
384,128,68489,1,8,3:0:0:0:
334,124,68577,1,0,0:0:0:0:
284,121,68665,1,0,0:0:0:0:
334,124,68754,1,0,0:0:0:0:
168,64,68842,6,0,L|110:61,1,50,2|0,1:0|0:0,0:0:0:0:
274,188,69019,2,0,L|336:194,1,50,0|2,0:0|1:0,0:0:0:0:
99,130,69195,2,0,L|43:127,1,50,0|0,0:0|0:0,0:0:0:0:
322,264,69371,6,0,P|363:180|288:102,1,200,2|2,1:0|0:0,0:0:0:0:
124,58,69901,1,8,3:0:0:0:
173,54,69989,1,0,0:0:0:0:
223,50,70077,1,0,0:0:0:0:
361,35,70254,6,0,L|419:32,1,50,2|0,1:0|0:0,0:0:0:0:
255,159,70431,2,0,L|193:165,1,50,0|2,0:0|1:0,0:0:0:0:
430,101,70607,2,0,L|486:98,1,50,0|0,0:0|0:0,0:0:0:0:
208,268,70783,6,0,L|432:256,1,200,2|2,1:0|0:0,0:0:0:0:
252,147,71313,2,0,L|259:205,1,50,8|0,3:0|0:0,0:0:0:0:
339,224,71489,2,0,L|346:277,1,50,0|0,0:0|0:0,0:0:0:0:
131,315,71666,2,0,L|17:320,2,100,10|0|8,3:0|0:0|3:0,0:0:0:0:
436,345,72195,6,0,L|295:345,1,100,6|0,1:0|0:0,0:0:0:0:
34,232,72548,2,0,L|204:231,1,150.000005722046,6|0,1:0|0:0,0:0:0:0:
485,131,72901,2,0,L|264:130,1,170.000003242493,6|0,0:0|0:0,0:0:0:0:
43,62,73254,6,0,L|456:61,2,400,2|2|2,0:0|3:0|0:0,0:0:0:0:
374,122,73783,5,12,0:0:0:0:
237,174,73960,2,0,L|246:234,1,50,0|0,0:0|0:0,0:0:0:0:
449,320,74136,2,0,L|444:258,1,50,8|0,3:0|0:0,0:0:0:0:
374,237,74313,2,0,L|322:232,1,50,0|0,0:0|0:0,0:0:0:0:
82,258,74489,6,0,L|75:205,1,50,2|0,1:0|0:0,0:0:0:0:
236,172,74666,2,0,L|304:168,1,50,0|2,0:0|1:0,0:0:0:0:
463,257,74842,2,0,L|470:204,1,50,0|0,0:0|0:0,0:0:0:0:
203,89,75019,6,0,L|90:96,1,100,2|0,1:0|0:0,0:0:0:0:
391,246,75371,2,0,L|408:142,1,100,0|0,0:0|0:0,0:0:0:0:
143,330,75724,2,0,L|371:345,1,200,0|0,0:0|0:0,0:0:0:0:
241,229,76254,2,0,L|181:234,1,50,0|0,0:0|0:0,0:0:0:0:
388,120,76430,2,0,L|331:129,1,50,2|0,1:0|0:0,0:0:0:0:
35,39,76607,6,0,L|145:48,1,100,14|2,1:0|0:0,0:0:0:0:
379,192,76960,2,0,L|491:204,1,100,8|0,3:0|0:0,0:0:0:0:
21,275,77313,1,14,1:0:0:0:
255,248,77489,1,2,0:0:0:0:
496,221,77666,1,8,3:0:0:0:
255,248,77842,1,0,0:0:0:0:
496,221,78019,5,10,1:0:0:0:
164,137,78195,1,10,1:0:0:0:
449,136,78371,1,10,1:0:0:0:
32,138,78548,5,10,1:0:0:0:
226,137,78901,2,0,L|302:136,2,50,2|2|2,0:0|0:0|0:0,0:0:0:0:
88,136,79254,2,0,L|178:136,1,50,2|2,0:0|0:0,0:0:0:0:
