osu file format v14

[General]
AudioFilename: audio.mp3
AudioLeadIn: 0
PreviewTime: 33019
Countdown: 0
SampleSet: Soft
StackLeniency: 0.7
Mode: 2
LetterboxInBreaks: 0
WidescreenStoryboard: 0

[Editor]
DistanceSpacing: 3.8
BeatDivisor: 4
GridSize: 32
TimelineZoom: 1

[Metadata]
Title:WWW.BLONDE GIRL (MOMO MIX)
TitleUnicode:WWW.BLONDE GIRL (MOMO MIX)
Artist:JENNY ROM
ArtistUnicode:JENNY ROM
Creator:Ascendance
Version:Another
Source:DDRMAX -DanceDanceRevolution 6thMIX-
Tags:blond cute ddr dance dance revolution dancemania sanyi paranoid grapes spectator fii kaitlin -wwwww wonjae kaifin
BeatmapID:1512105
BeatmapSetID:715066

[Difficulty]
HPDrainRate:6
CircleSize:3.7
OverallDifficulty:7.8
ApproachRate:7.8
SliderMultiplier:2
SliderTickRate:2

[Events]
//Background and Video events
0,0,"ascendance blonde girl.png",0,0
//Break Periods
//Storyboard Layer 0 (Background)
//Storyboard Layer 1 (Fail)
//Storyboard Layer 2 (Pass)
//Storyboard Layer 3 (Foreground)
//Storyboard Sound Samples

[TimingPoints]
372,352.941176470588,4,2,0,40,1,0
372,-100,4,2,0,40,0,0
5489,-100,4,2,0,40,0,0
5842,-100,4,2,0,40,0,0
7430,-100,4,2,0,40,0,0
10607,-100,4,2,0,40,0,0
10960,-100,4,2,0,40,0,0
11666,-100,4,2,0,40,0,0
22960,-100,4,2,0,40,0,0
33548,-100,4,2,0,40,0,0
34254,-100,4,2,0,40,0,1
37960,-100,4,2,0,40,0,1
38136,-100,4,2,0,40,0,1
38313,-100,4,2,0,40,0,1
38666,-100,4,2,0,60,0,1
39019,-100,4,2,0,80,0,1
39371,-100,4,2,0,60,0,1
39901,-100,4,2,0,40,0,1
49607,-100,4,2,0,40,0,1
49960,-100,4,2,0,60,0,1
50313,-100,4,2,0,80,0,1
50666,-100,4,2,0,60,0,1
51195,-100,4,2,0,40,0,1
55430,-100,4,2,0,40,0,0
56842,-100,4,2,0,40,0,1
60548,-100,4,2,0,40,0,1
60724,-100,4,2,0,40,0,1
61254,-100,4,2,0,60,0,1
61607,-100,4,2,0,80,0,1
61960,-100,4,2,0,60,0,1
62489,-100,4,2,0,40,0,1
72195,-100,4,2,0,40,0,1
72548,-100,4,2,0,60,0,1
72901,-100,4,2,0,80,0,1
73254,-100,4,2,0,60,0,1
73783,-100,4,2,0,40,0,1
78019,-100,4,2,0,40,0,0

[Colours]
Combo1 : 128,0,64
Combo2 : 255,255,183
Combo3 : 255,168,255
Combo4 : 128,64,0

[HitObjects]
131,339,372,6,0,L|117:231,1,100,10|0,3:1|0:0,0:0:0:0:
249,255,724,1,8,3:0:0:0:
105,146,901,2,0,L|337:165,1,200,0|0,0:0|0:0,0:0:0:0:
442,256,1430,2,0,L|461:137,1,100,0|0,0:0|0:0,0:0:0:0:
200,220,1783,6,0,L|184:90,1,100,10|0,3:1|0:0,0:0:0:0:
320,142,2136,1,8,3:0:0:0:
185,324,2313,2,0,P|132:246|219:164,1,200,0|0,0:0|0:0,0:0:0:0:
311,167,2842,2,0,L|438:167,1,100,0|0,0:0|0:0,0:0:0:0:
109,344,3195,6,0,L|-1:363,1,100,10|0,3:1|0:0,0:0:0:0:
145,316,3548,1,8,3:0:0:0:
296,169,3724,2,0,L|71:184,1,200,0|0,0:0|0:0,0:0:0:0:
231,66,4254,2,0,L|345:78,1,100,0|0,0:0|0:0,0:0:0:0:
80,298,4607,6,0,L|67:182,1,100,8|0,3:0|0:0,0:0:0:0:
190,120,4960,2,0,L|75:105,1,100,8|0,3:0|0:0,0:0:0:0:
339,245,5313,2,0,L|450:237,2,100,10|2|0,3:1|0:1|0:0,0:0:0:0:
92,272,5842,1,6,0:1:0:0:
217,341,6019,6,0,L|224:235,1,100,8|0,3:0|0:0,0:0:0:0:
101,187,6371,1,8,3:0:0:0:
233,162,6548,2,0,L|453:176,1,200,0|0,0:0|0:0,0:0:0:0:
287,69,7077,2,0,L|172:82,1,100,0|0,0:0|0:0,0:0:0:0:
458,202,7430,6,0,L|354:217,2,100,8|0|8,3:0|0:0|3:0,0:0:0:0:
295,332,7960,2,0,P|241:252|328:181,1,200,0|0,0:0|0:0,0:0:0:0:
441,243,8489,2,0,L|455:126,1,100,0|0,0:0|0:0,0:0:0:0:
199,43,8842,6,0,P|102:44|125:232,1,300,10|0,3:1|0:0,0:0:0:0:
419,352,9548,2,0,P|462:291|322:145,1,300,10|0,3:1|0:0,0:0:0:0:
87,278,10254,6,0,L|74:165,1,100,10|0,3:1|0:0,0:0:0:0:
326,196,10607,2,0,L|338:81,1,100,10|0,3:1|0:0,0:0:0:0:
87,278,10960,2,0,L|74:165,1,100,10|10,3:1|3:1,0:0:0:0:
188,150,11313,1,8,3:0:0:0:
317,127,11489,1,8,3:0:0:0:
57,140,11666,6,0,L|46:33,1,100,8|0,3:0|0:0,0:0:0:0:
160,69,12019,1,8,3:0:0:0:
356,205,12195,2,0,L|375:97,1,100,0|0,0:0|0:0,0:0:0:0:
240,94,12548,1,2,0:0:0:0:
384,57,12724,2,0,L|447:57,2,50,8|0|0,3:0|0:0|0:0,0:0:0:0:
222,157,13077,6,0,L|209:52,1,100,8|0,3:0|0:0,0:0:0:0:
335,154,13430,2,0,L|445:155,1,100,8|0,3:0|0:0,0:0:0:0:
73,333,13783,2,0,P|30:252|127:167,1,200,8|8,1:0|1:0,0:0:0:0:
205,164,14313,1,0,0:0:0:0:
378,175,14489,6,0,L|483:175,2,100,8|0|8,3:0|0:0|3:0,0:0:0:0:
250,238,15019,2,0,L|463:237,1,200,0|2,0:0|0:0,0:0:0:0:
309,318,15548,1,8,3:0:0:0:
259,318,15636,1,0,0:0:0:0:
209,318,15724,1,0,0:0:0:0:
352,359,15901,6,0,L|368:253,1,100,8|0,3:0|0:0,0:0:0:0:
215,222,16254,2,0,L|102:218,1,100,8|0,3:0|0:0,0:0:0:0:
156,184,16519,1,0,0:0:0:0:
401,156,16607,2,0,L|514:152,1,100,10|0,1:0|0:0,0:0:0:0:
460,118,16872,1,0,0:0:0:0:
250,81,16960,2,0,L|124:82,1,100,10|0,1:0|0:0,0:0:0:0:
436,261,17313,6,0,L|450:142,1,100,8|0,3:0|0:0,0:0:0:0:
313,139,17666,1,8,3:0:0:0:
446,70,17842,2,0,L|235:79,1,200,0|2,0:0|0:0,0:0:0:0:
128,192,18371,1,8,3:0:0:0:
122,142,18459,1,0,0:0:0:0:
117,92,18547,1,0,0:0:0:0:
287,153,18724,5,8,3:0:0:0:
172,153,18901,1,0,0:0:0:0:
338,100,19077,1,8,3:0:0:0:
331,211,19254,1,0,0:0:0:0:
40,267,19430,2,0,L|249:279,1,200,8|8,1:0|1:0,0:0:0:0:
113,331,19960,1,0,0:0:0:0:
392,354,20136,6,0,L|383:241,1,100,8|0,3:0|0:0,0:0:0:0:
239,249,20489,1,8,3:0:0:0:
384,254,20666,2,0,L|504:254,2,100,0|0|2,0:0|0:0|0:0,0:0:0:0:
245,187,21195,1,8,3:0:0:0:
294,187,21283,1,0,0:0:0:0:
344,187,21371,1,0,0:0:0:0:
200,120,21548,6,0,L|132:121,2,50,8|0|0,3:0|0:0|0:0,0:0:0:0:
306,62,21901,2,0,L|184:62,1,100,8|0,3:0|0:0,0:0:0:0:
155,62,22166,1,0,0:0:0:0:
366,142,22254,2,0,L|471:142,1,100,10|0,1:0|0:0,0:0:0:0:
413,118,22519,1,0,0:0:0:0:
230,147,22607,2,0,L|121:147,1,100,10|0,1:0|0:0,0:0:0:0:
450,347,22960,6,0,L|474:243,1,100,12|0,3:0|0:0,0:0:0:0:
200,252,23313,2,0,L|177:147,1,100,8|0,3:0|0:0,0:0:0:0:
345,173,23666,2,0,L|447:175,1,100,8|0,3:0|0:0,0:0:0:0:
299,95,24019,1,8,3:0:0:0:
42,94,24195,1,2,1:0:0:0:
301,236,24548,6,0,L|91:220,1,200
285,322,25077,2,0,L|373:317,2,50,8|0|0,3:0|0:0|0:0,0:0:0:0:
149,358,25430,2,0,L|158:245,1,100,8|0,3:0|0:0,0:0:0:0:
447,222,25783,6,0,L|339:177,1,100,8|0,3:0|0:0,0:0:0:0:
113,193,26136,2,0,L|140:92,1,100,8|0,3:0|0:0,0:0:0:0:
288,76,26489,2,0,L|400:71,1,100,8|0,3:0|0:0,0:0:0:0:
360,217,26842,1,8,3:0:0:0:
79,279,27019,1,2,1:0:0:0:
310,134,27371,6,0,L|110:118,1,200
282,294,27901,1,8,3:0:0:0:
315,257,27989,1,0,0:0:0:0:
323,208,28077,1,0,0:0:0:0:
303,163,28165,1,0,0:0:0:0:
261,136,28253,1,10,3:0:0:0:
432,136,28430,1,2,0:0:0:0:
168,130,28607,6,0,L|62:114,1,100,8|0,3:0|0:0,0:0:0:0:
307,255,28960,2,0,L|410:245,1,100,8|0,3:0|0:0,0:0:0:0:
293,262,29313,2,0,L|183:254,1,100,8|0,3:0|0:0,0:0:0:0:
175,152,29666,1,8,3:0:0:0:
476,122,29842,1,2,1:0:0:0:
288,268,30195,6,0,P|242:200|344:120,1,200,0|0,0:0|0:0,0:0:0:0:
437,172,30724,1,8,3:0:0:0:
444,122,30812,1,0,0:0:0:0:
452,73,30900,1,0,0:0:0:0:
324,235,31077,2,0,L|463:226,1,100,8|0,3:0|0:0,0:0:0:0:
87,355,31430,6,0,P|52:277|157:194,1,200,8|8,3:0|3:0,0:0:0:0:
454,287,32136,2,0,P|493:233|421:132,1,200,8|8,3:0|3:0,0:0:0:0:
323,131,32666,1,0,0:0:0:0:
429,133,32842,5,2,0:0:0:0:
145,136,33019,2,0,L|32:136,2,100,2|2|2,0:0|0:0|0:0,0:0:0:0:
433,259,33548,2,0,L|463:151,1,100,2|2,1:0|1:0,0:0:0:0:
142,154,33901,2,0,L|127:46,1,100,2|2,1:0|1:0,0:0:0:0:
465,82,34254,6,0,L|366:95,1,100,12|0,1:0|0:0,0:0:0:0:
243,157,34607,2,0,L|118:175,1,100,8|0,3:0|0:0,0:0:0:0:
458,343,34960,1,2,1:0:0:0:
492,307,35048,1,0,0:0:0:0:
500,258,35136,1,0,0:0:0:0:
480,214,35224,1,2,1:0:0:0:
438,188,35312,1,0,0:0:0:0:
144,250,35489,6,0,P|115:156|222:94,1,200,2|2,1:0|0:0,0:0:0:0:
325,92,36019,2,0,L|450:92,1,100,8|0,3:0|0:0,0:0:0:0:
132,216,36371,1,2,1:0:0:0:
181,218,36459,1,0,0:0:0:0:
231,221,36547,1,0,0:0:0:0:
281,224,36635,1,0,0:0:0:0:
331,227,36723,1,0,0:0:0:0:
66,357,36901,6,0,P|23:272|101:198,1,200,2|2,1:0|0:0,0:0:0:0:
214,254,37430,2,0,L|220:141,1,100,8|0,3:0|0:0,0:0:0:0:
106,116,37783,1,8,1:0:0:0:
348,192,37960,2,0,L|450:181,1,100,8|8,1:0|1:0,0:0:0:0:
109,278,38313,6,0,L|95:168,1,100,6|0,1:0|0:0,0:0:0:0:
348,193,38666,2,0,L|446:178,1,100,2|0,1:0|0:0,0:0:0:0:
175,116,39019,2,0,L|45:101,1,100,2|0,1:0|0:0,0:0:0:0:
396,75,39371,2,0,L|501:57,2,100,2|2|2,0:0|3:0|0:0,0:0:0:0:
112,60,39901,6,0,L|124:163,1,100,12|0,1:0|0:0,0:0:0:0:
271,157,40254,2,0,L|283:265,1,100,8|0,3:0|0:0,0:0:0:0:
25,351,40607,1,2,1:0:0:0:
19,301,40695,1,0,0:0:0:0:
36,255,40783,1,0,0:0:0:0:
73,222,40871,1,2,1:0:0:0:
121,210,40959,1,0,0:0:0:0:
366,285,41136,6,0,P|423:199|347:127,1,200,2|2,1:0|0:0,0:0:0:0:
228,199,41666,2,0,L|217:84,1,100,8|0,3:0|0:0,0:0:0:0:
472,86,42019,2,0,L|482:5,2,50,2|0|0,1:0|0:0|0:0,0:0:0:0:
442,107,42283,2,0,L|392:111,1,50,2|0,1:0|0:0,0:0:0:0:
281,114,42548,1,2,1:0:0:0:
34,148,42724,6,0,L|138:147,1,100,14|2,1:0|0:0,0:0:0:0:
264,234,43077,2,0,L|279:127,1,100,8|0,3:0|0:0,0:0:0:0:
35,147,43430,2,0,L|149:136,1,100,14|2,1:0|0:0,0:0:0:0:
376,118,43960,1,0,0:0:0:0:
124,268,44136,6,0,L|103:147,1,100,14|2,1:0|0:0,0:0:0:0:
415,182,44489,2,0,L|432:71,1,100,14|0,1:0|0:0,0:0:0:0:
166,93,44842,1,10,1:0:0:0:
311,118,45019,1,10,1:0:0:0:
166,93,45195,1,10,1:0:0:0:
311,118,45371,1,10,1:0:0:0:
71,293,45548,6,0,L|58:179,1,100,12|0,1:0|0:0,0:0:0:0:
165,115,45901,2,0,L|32:90,1,100,8|0,3:0|0:0,0:0:0:0:
303,313,46254,1,2,1:0:0:0:
315,265,46342,1,0,0:0:0:0:
301,217,46430,1,0,0:0:0:0:
267,182,46518,1,2,1:0:0:0:
219,169,46606,1,0,0:0:0:0:
470,236,46783,6,0,P|507:158|408:78,1,200,2|2,1:0|0:0,0:0:0:0:
322,68,47313,2,0,L|434:68,1,100,8|0,3:0|0:0,0:0:0:0:
170,298,47666,2,0,L|105:286,1,50,2|0,1:0|0:0,0:0:0:0:
90,259,47842,2,0,L|86:185,1,50,0|2,0:0|1:0,0:0:0:0:
125,175,48019,1,0,0:0:0:0:
416,111,48195,6,0,L|212:93,1,200,2|2,1:0|0:0,0:0:0:0:
344,209,48724,2,0,L|456:195,2,100,8|0|10,3:0|0:0|3:0,0:0:0:0:
82,329,49254,2,0,L|136:236,1,100,0|8,0:0|3:0,0:0:0:0:
420,132,49607,6,0,L|316:127,1,100,2|0,1:0|0:0,0:0:0:0:
74,99,49960,2,0,L|191:105,1,100,2|0,1:0|0:0,0:0:0:0:
415,260,50313,2,0,L|433:151,1,100,2|0,1:0|0:0,0:0:0:0:
136,263,50666,2,0,L|21:270,2,100,2|2|2,0:0|3:0|0:0,0:0:0:0:
448,341,51195,6,0,L|454:238,1,100,12|2,1:0|0:0,0:0:0:0:
285,273,51548,2,0,L|169:265,1,100,8|0,3:0|0:0,0:0:0:0:
497,225,51901,1,2,1:0:0:0:
479,178,51989,1,0,0:0:0:0:
441,146,52077,1,0,0:0:0:0:
393,136,52165,1,2,1:0:0:0:
346,151,52253,1,0,0:0:0:0:
87,124,52430,6,0,L|203:130,1,100,2|0,1:0|0:0,0:0:0:0:
366,151,52783,2,0,L|473:131,2,100,0|0|0,0:0|0:0|0:0,0:0:0:0:
224,320,53313,5,0,0:0:0:0:
191,281,53401,1,0,0:0:0:0:
174,235,53489,1,0,0:0:0:0:
173,185,53577,1,0,0:0:0:0:
189,138,53665,1,0,0:0:0:0:
220,99,53754,1,0,0:0:0:0:
263,73,53842,1,2,1:0:0:0:
311,63,53930,1,0,0:0:0:0:
477,48,54019,6,0,L|471:159,1,100,14|2,1:0|0:0,0:0:0:0:
324,183,54371,2,0,L|196:193,1,100,8|0,3:0|0:0,0:0:0:0:
475,313,54724,2,0,L|351:321,3,100,14|2|8|0,1:0|0:0|3:0|0:0,0:0:0:0:
115,359,55430,5,14,1:0:0:0:
76,320,55518,1,0,0:0:0:0:
78,270,55606,1,0,0:0:0:0:
120,230,55694,1,0,0:0:0:0:
268,224,55783,5,14,1:0:0:0:
307,181,55871,1,0,0:0:0:0:
305,131,55959,1,0,0:0:0:0:
262,95,56047,1,0,0:0:0:0:
83,130,56136,6,0,L|64:27,1,100,10|10,1:0|1:0,0:0:0:0:
312,98,56489,2,0,L|430:80,1,100,10|10,1:0|1:0,0:0:0:0:
46,82,56842,6,0,L|145:95,1,100,12|0,1:0|0:0,0:0:0:0:
256,190,57195,2,0,L|143:214,1,100,8|0,3:0|0:0,0:0:0:0:
459,343,57548,1,2,1:0:0:0:
493,307,57636,1,0,0:0:0:0:
501,258,57724,1,0,0:0:0:0:
481,214,57812,1,2,1:0:0:0:
439,188,57900,1,0,0:0:0:0:
193,272,58077,6,0,P|140:196|247:134,1,200,2|2,1:0|0:0,0:0:0:0:
317,126,58607,2,0,L|417:126,1,100,8|0,3:0|0:0,0:0:0:0:
93,225,58960,2,0,L|36:239,1,50,2|0,1:0|0:0,0:0:0:0:
45,237,59136,1,0,0:0:0:0:
93,225,59224,1,2,1:0:0:0:
142,213,59312,1,0,0:0:0:0:
394,342,59489,6,0,P|437:257|359:183,1,200,2|2,1:0|0:0,0:0:0:0:
224,238,60018,2,0,L|218:125,1,100,8|0,3:0|0:0,0:0:0:0:
323,128,60371,1,8,1:0:0:0:
85,258,60548,2,0,L|106:140,1,100,8|8,1:0|1:0,0:0:0:0:
402,278,60901,6,0,L|416:168,1,100,6|0,1:0|0:0,0:0:0:0:
163,193,61254,2,0,L|65:178,1,100,6|0,1:0|0:0,0:0:0:0:
336,116,61607,2,0,L|466:101,1,100,6|0,1:0|0:0,0:0:0:0:
115,75,61960,2,0,L|10:57,2,100,2|2|2,0:0|3:0|0:0,0:0:0:0:
399,60,62489,6,0,L|387:163,1,100,12|0,1:0|0:0,0:0:0:0:
240,157,62842,2,0,L|228:265,1,100,8|0,3:0|0:0,0:0:0:0:
486,351,63195,1,2,1:0:0:0:
492,301,63283,1,0,0:0:0:0:
475,255,63371,1,0,0:0:0:0:
438,222,63459,1,2,1:0:0:0:
390,210,63547,1,0,0:0:0:0:
145,285,63724,6,0,P|88:199|164:127,1,200,2|2,1:0|0:0,0:0:0:0:
255,129,64254,2,0,L|134:134,1,100,8|0,3:0|0:0,0:0:0:0:
440,233,64607,1,2,1:0:0:0:
476,199,64695,1,0,0:0:0:0:
484,151,64783,1,0,0:0:0:0:
462,108,64871,1,2,1:0:0:0:
417,87,64959,1,0,0:0:0:0:
294,80,65136,1,2,1:0:0:0:
35,148,65312,6,0,L|139:147,1,100,14|2,1:0|0:0,0:0:0:0:
265,234,65665,2,0,L|280:127,1,100,8|0,3:0|0:0,0:0:0:0:
36,147,66018,2,0,L|150:136,1,100,14|2,1:0|0:0,0:0:0:0:
377,118,66548,1,0,0:0:0:0:
125,268,66724,6,0,L|104:147,1,100,14|0,1:0|0:0,0:0:0:0:
416,182,67077,2,0,L|433:71,1,100,14|0,1:0|0:0,0:0:0:0:
167,93,67430,1,10,1:0:0:0:
312,118,67607,1,10,1:0:0:0:
167,93,67783,1,10,1:0:0:0:
312,118,67959,1,10,1:0:0:0:
72,293,68136,6,0,L|59:179,1,100,12|0,1:0|0:0,0:0:0:0:
199,222,68489,2,0,L|299:205,1,100,8|0,3:0|0:0,0:0:0:0:
51,309,68842,1,2,1:0:0:0:
39,261,68930,1,0,0:0:0:0:
53,213,69018,1,0,0:0:0:0:
87,178,69106,1,0,0:0:0:0:
135,165,69194,1,0,0:0:0:0:
381,270,69371,6,0,P|418:192|319:112,1,200,2|2,1:0|0:0,0:0:0:0:
231,103,69901,2,0,L|119:103,1,100,8|0,3:0|0:0,0:0:0:0:
384,298,70254,2,0,L|449:286,1,50,2|0,1:0|0:0,0:0:0:0:
464,259,70430,2,0,L|468:185,1,50,0|2,0:0|1:0,0:0:0:0:
429,175,70607,1,0,0:0:0:0:
155,103,70783,6,0,L|359:85,1,200,2|2,1:0|0:0,0:0:0:0:
220,206,71313,2,0,L|108:192,2,100,8|0|10,3:0|0:0|3:0,0:0:0:0:
463,319,71842,2,0,L|426:215,1,100,0|8,0:0|3:0,0:0:0:0:
146,175,72195,6,0,L|250:170,1,100,6|0,1:0|0:0,0:0:0:0:
488,124,72548,2,0,L|462:26,1,100,6|0,1:0|0:0,0:0:0:0:
112,286,72901,2,0,L|136:175,1,100,6|0,0:0|0:0,0:0:0:0:
375,263,73254,2,0,L|490:270,2,100,2|2|2,0:0|3:0|0:0,0:0:0:0:
63,341,73783,6,0,L|57:238,1,100,12|0,0:0|0:0,0:0:0:0:
184,274,74136,2,0,L|300:266,1,100,8|0,3:0|0:0,0:0:0:0:
14,225,74489,1,2,1:0:0:0:
32,178,74577,1,0,0:0:0:0:
70,146,74665,1,0,0:0:0:0:
118,136,74753,1,0,0:0:0:0:
165,151,74841,1,0,0:0:0:0:
267,237,75018,6,0,L|283:131,1,100,2|0,1:0|0:0,0:0:0:0:
145,151,75371,2,0,L|38:131,2,100,0|0|0,0:0|0:0|0:0,0:0:0:0:
327,327,75901,5,0,0:0:0:0:
360,288,75989,1,0,0:0:0:0:
377,242,76077,1,0,0:0:0:0:
378,192,76165,1,0,0:0:0:0:
362,145,76253,1,0,0:0:0:0:
331,106,76342,1,0,0:0:0:0:
288,80,76430,1,2,1:0:0:0:
240,70,76518,1,0,0:0:0:0:
55,56,76607,6,0,L|61:167,1,100,14|2,1:0|0:0,0:0:0:0:
220,161,76959,2,0,L|347:187,1,100,8|0,3:0|0:0,0:0:0:0:
36,313,77312,2,0,L|160:321,3,100,14|2|8|0,1:0|0:0|3:0|0:0,0:0:0:0:
377,328,78019,6,0,L|491:336,2,100,10|10|10,1:0|1:0|1:0,0:0:0:0:
110,308,78548,1,10,1:0:0:0:
287,265,78901,1,2,0:0:0:0:
294,215,78989,1,2,0:0:0:0:
301,166,79077,1,2,0:0:0:0:
119,170,79254,2,0,L|108:107,1,50,2|2,0:0|0:0,0:0:0:0:
