osu file format v14

[General]
AudioFilename: audio.mp3
AudioLeadIn: 0
PreviewTime: 40469
Countdown: 0
SampleSet: Soft
StackLeniency: 0.6
Mode: 0
LetterboxInBreaks: 0
WidescreenStoryboard: 1

[Editor]
Bookmarks: 3681,21980,45050
DistanceSpacing: 1.4
BeatDivisor: 8
GridSize: 4
TimelineZoom: 2.699999

[Metadata]
Title:SOLO
TitleUnicode:SOLO
Artist:JENNIE
ArtistUnicode:JENNIE
Creator:Stixy
Version:browiec's Insane
Source:
Tags:BLACKPINK k-pop kpop korean pop 블랙핑크 김제니 kim yg entertainment short cut ver version edit browiec
BeatmapID:2205357
BeatmapSetID:959292

[Difficulty]
HPDrainRate:5
CircleSize:3.8
OverallDifficulty:8.2
ApproachRate:9
SliderMultiplier:1.6
SliderTickRate:1

[Events]
//Background and Video events
0,0,"bg.jpg",0,0
//Break Periods
2,80980,82153
//Storyboard Layer 0 (Background)
//Storyboard Layer 1 (Fail)
//Storyboard Layer 2 (Pass)
//Storyboard Layer 3 (Foreground)
//Storyboard Layer 4 (Overlay)
//Storyboard Sound Samples

[TimingPoints]
2575,631.578947368421,4,2,1,50,1,0
2575,-111.111111111111,4,2,1,50,0,0
22785,-66.6666666666667,4,2,1,60,0,0
40469,-83.3333333333333,4,2,1,50,0,0
42680,-125,4,2,1,70,0,0
42917,-125,4,2,1,5,0,0
42996,-50,4,2,1,70,0,1
50575,-55.5555555555556,4,2,1,70,0,1
52785,-125,4,2,1,70,0,1
53022,-125,4,2,1,5,0,1
53101,-50,4,2,1,70,0,1
60680,-62.5,4,2,1,60,0,0
61311,-83.3333333333333,4,2,1,40,0,0
61943,-125,4,2,1,20,0,0
63201,631.578947368421,4,2,1,50,1,0
63201,-76.9230769230769,4,2,1,50,0,0
73306,-66.6666666666667,4,2,1,60,0,0
83411,-83.3333333333333,4,2,1,50,0,0
85622,-125,4,2,1,70,0,0
85858,-125,4,2,1,5,0,0
85937,-50,4,2,1,70,0,1
93516,-62.5,4,2,1,70,0,1
96043,-50,4,2,1,70,0,1
103622,-100,4,2,1,70,0,0

[Colours]
Combo1 : 199,199,199
Combo2 : 0,163,240
Combo3 : 147,147,202
Combo4 : 128,191,191

[HitObjects]
268,312,2575,6,0,B|328:308|328:308|364:316|364:316|424:312,2,143.999995605469,2|10|2,1:2|0:2|1:2,0:0:0:0:
252,296,4469,2,0,P|242:270|241:242,1,53.9999983520508,10|2,0:2|0:0,0:0:0:0:
324,68,5101,6,0,P|380:60|436:148,2,143.999995605469,2|10|2,1:2|0:2|1:2,0:0:0:0:
308,83,6996,2,0,P|282:91|246:88,1,53.9999983520508,10|2,0:2|0:0,0:0:0:0:
112,0,7627,6,0,B|128:48|128:48|100:156,1,143.999995605469,2|8,1:2|0:2,0:0:0:0:
104,138,9522,2,0,P|100:182|111:200,1,53.9999983520508,10|2,0:2|0:0,0:0:0:0:
244,264,10153,6,0,B|340:260|284:308|392:300,1,143.999995605469,2|8,1:2|0:2,0:0:0:0:
378,300,12048,2,0,L|388:207,1,71.9999978027344,10|2,0:2|0:0,0:0:0:0:
336,64,12680,6,0,B|268:48|268:48|184:64,2,143.999995605469,2|10|2,1:2|0:2|1:2,0:0:0:0:
352,80,14575,2,0,L|356:146,1,53.9999983520508,10|2,0:2|0:0,0:0:0:0:
296,288,15206,6,0,B|260:296|228:276|228:276|184:292|180:336,2,143.999995605469,2|10|2,1:2|0:2|1:2,0:0:0:0:
312,272,17101,2,0,P|312:224|300:179,1,71.9999978027344,10|2,0:2|0:0,0:0:0:0:
216,76,17732,6,0,L|52:68,1,143.999995605469,2|8,1:2|0:2,0:0:0:0:
72,68,19627,2,0,P|57:115|62:161,1,71.9999978027344,10|2,0:2|0:0,0:0:0:0:
112,276,20259,6,0,B|164:256|164:256|260:284,1,143.999995605469,2|8,1:2|0:2,0:0:0:0:
248,280,21838,1,2,0:0:0:0:
360,368,22153,2,0,P|384:368|420:360,2,35.9999989013672,10|2|2,0:2|0:0|0:0,0:0:0:0:
152,244,22785,6,0,L|284:236,1,120.000004577637,6|0,1:2|0:0,0:0:0:0:
348,148,23259,1,2,0:0:0:0:
348,148,23417,2,0,L|268:140,1,60.0000022888184,8|0,0:0|0:0,0:0:0:0:
184,36,23732,6,0,P|140:12|108:112,1,180.000006866455,2|0,0:0|0:0,0:0:0:0:
176,216,24364,2,0,L|168:304,1,60.0000022888184
84,344,24680,2,0,L|76:255,1,60.0000022888184,8|0,0:0|0:0,0:0:0:0:
60,128,24996,1,2,0:2:0:0:
0,232,25153,1,2,0:2:0:0:
160,188,25311,6,0,P|204:180|240:184,1,60.0000022888184,2|2,1:2|0:2,0:0:0:0:
240,316,25627,2,0,P|211:281|196:248,1,60.0000022888184,2|2,0:2|0:2,0:0:0:0:
311,183,25943,2,0,P|295:225|274:254,1,60.0000022888184,10|2,0:2|0:2,0:0:0:0:
160,188,26259,2,0,P|175:145|196:116,1,60.0000022888184,2|0,0:2|0:0,0:0:0:0:
324,84,26575,6,0,L|256:92,1,60.0000022888184,2|0,1:2|0:0,0:0:0:0:
311,183,26890,2,0,L|379:191,1,60.0000022888184,2|0,0:2|0:0,0:0:0:0:
480,304,27206,2,0,B|432:272|432:272|292:296,1,180.000006866455,10|0,0:2|0:0,0:0:0:0:
148,360,27838,6,0,P|108:360|52:280,1,120.000004577637,6|0,1:2|0:0,0:0:0:0:
132,216,28311,1,2,0:0:0:0:
132,216,28469,2,0,P|136:264|132:296,1,60.0000022888184,8|0,0:0|0:0,0:0:0:0:
212,160,28785,6,0,B|328:156|252:216|384:208,1,180.000006866455,2|0,0:0|0:0,0:0:0:0:
472,144,29417,2,0,P|481:106|472:68,1,60.0000022888184
332,104,29732,2,0,P|369:114|407:105,1,60.0000022888184,8|0,0:0|0:0,0:0:0:0:
300,4,30048,1,2,0:2:0:0:
252,156,30206,1,2,0:2:0:0:
156,28,30364,6,0,L|84:24,1,60.0000022888184,2|0,1:2|0:0,0:0:0:0:
40,124,30680,2,0,L|112:120,1,60.0000022888184,2|0,0:2|0:0,0:0:0:0:
252,52,30996,2,0,B|268:96|268:96|228:188,1,120.000004577637,10|2,0:2|0:2,0:0:0:0:
188,264,31469,1,2,0:0:0:0:
324,196,31627,6,0,P|364:196|396:208,1,60.0000022888184,2|0,1:2|0:0,0:0:0:0:
416,316,31943,2,0,P|376:316|344:304,1,60.0000022888184,2|0,0:2|0:0,0:0:0:0:
224,184,32259,2,0,B|188:164|148:184|148:184|108:228|40:216,1,180.000006866455,10|0,0:0|0:0,0:0:0:0:
32,56,32890,6,0,P|80:44|152:92,1,120.000004577637,6|0,1:2|0:0,0:0:0:0:
224,184,33364,1,2,0:0:0:0:
224,184,33522,2,0,P|268:196|304:188,1,60.0000022888184,8|0,0:0|0:0,0:0:0:0:
364,72,33838,6,0,B|344:108|348:140|348:140|372:172|364:204,1,120.000004577637,2|0,0:0|1:0,0:0:0:0:
384,304,34311,1,0,0:0:0:0:
468,192,34469,2,0,P|472:236|472:268,1,60.0000022888184
388,363,34785,2,0,P|384:319|384:287,1,60.0000022888184,8|0,0:0|0:0,0:0:0:0:
324,156,35101,1,2,0:2:0:0:
276,288,35259,1,2,0:2:0:0:
216,128,35417,6,0,B|184:124|184:124|148:128,1,60.0000022888184,2|2,1:2|0:2,0:0:0:0:
156,268,35732,2,0,B|175:242|175:242|190:209,1,60.0000022888184,2|2,0:2|0:2,0:0:0:0:
64,146,36048,2,0,B|76:175|76:175|98:204,1,60.0000022888184,10|2,0:2|0:2,0:0:0:0:
216,128,36364,2,0,B|203:98|203:98|182:69,1,60.0000022888184,2|0,0:2|0:0,0:0:0:0:
186,216,36680,6,0,P|224:224|256:216,1,60.0000022888184,2|0,1:2|0:0,0:0:0:0:
328,304,36996,2,0,P|290:312|258:304,1,60.0000022888184,2|0,0:2|0:0,0:0:0:0:
372,220,37311,2,0,P|412:260|416:332,1,120.000004577637,8|0,0:0|0:0,0:0:0:0:
328,304,37785,1,0,0:0:0:0:
440,156,37943,6,0,L|512:152,1,60.0000022888184,14|8,0:0|0:0,0:0:0:0:
408,60,38259,2,0,L|336:56,1,60.0000022888184,8|10,0:0|0:0,0:0:0:0:
264,180,38575,2,0,L|336:176,1,60.0000022888184,8|8,0:0|0:0,0:0:0:0:
232,68,38891,2,0,L|160:64,1,60.0000022888184,10|10,0:0|0:0,0:0:0:0:
56,196,39206,5,10,0:0:0:0:
32,32,39364,1,10,0:0:0:0:
148,164,39522,2,0,P|152:212|144:244,1,60.0000022888184,10|0,0:0|0:0,0:0:0:0:
32,316,39838,2,0,P|71:288|103:279,1,60.0000022888184,10|0,0:0|0:0,0:0:0:0:
222,340,40153,2,0,P|178:319|154:296,1,60.0000022888184,10|0,0:0|0:0,0:0:0:0:
56,196,40469,5,2,0:0:0:0:
75,180,41101,1,2,0:0:0:0:
94,197,41732,1,2,0:0:0:0:
72,212,42364,1,10,0:0:0:0:
128,320,42680,6,0,L|184:312,1,48
252,264,42996,6,0,P|296:272|344:256,1,80,6|0,1:2|0:0,0:0:0:0:
328,100,43311,2,0,P|299:134|288:183,1,80,2|0,0:0|0:0,0:0:0:0:
432,247,43627,2,0,P|416:204|379:171,1,80,10|0,0:2|0:0,0:0:0:0:
252,264,43943,2,0,P|267:306|304:339,1,80,2|0,0:0|0:0,0:0:0:0:
289,167,44259,6,0,B|229:163|229:163|189:171|189:171|109:167,1,160,2|2,1:2|1:2,0:0:0:0:
0,16,44732,1,2,0:0:0:0:
40,192,44890,1,10,0:0:0:0:
116,24,45048,1,2,0:0:0:0:
180,208,45206,2,0,P|224:216|264:207,1,80,2|0,1:2|0:0,0:0:0:0:
412,312,45522,6,0,B|373:302|373:302|330:278,1,80,2|0,1:2|0:0,0:0:0:0:
443,131,45838,2,0,B|433:169|433:169|409:212,1,80,2|0,0:0|0:0,0:0:0:0:
262,100,46153,2,0,B|300:109|300:109|343:133,1,80,10|0,0:2|0:0,0:0:0:0:
231,281,46469,2,0,B|240:242|240:242|264:199,1,80,2|0,0:0|0:0,0:0:0:0:
392,28,46785,6,0,B|292:44|336:-8|228:8,1,160,2|2,1:2|1:2,0:0:0:0:
108,208,47259,1,2,0:0:0:0:
262,100,47417,1,10,0:0:0:0:
88,80,47575,1,2,0:0:0:0:
244,216,47732,2,0,L|332:220,1,80,2|0,1:2|0:0,0:0:0:0:
144,364,48048,6,0,P|88:364|48:340,1,80,2|0,1:2|0:0,0:0:0:0:
120,196,48364,2,0,L|116:284,1,80,2|0,0:0|0:0,0:0:0:0:
267,115,48680,2,0,P|211:115|171:139,1,80,10|0,0:2|0:0,0:0:0:0:
243,283,48996,2,0,L|239:195,1,80,2|0,0:0|0:0,0:0:0:0:
344,48,49311,6,0,B|372:96|372:96|336:196,1,160,2|2,1:2|1:2,0:0:0:0:
240,372,49785,1,2,0:0:0:0:
236,184,49943,1,10,0:0:0:0:
356,320,50101,1,2,0:0:0:0:
344,128,50259,2,0,P|336:184|340:224,1,80,2|0,1:2|0:0,0:0:0:0:
456,28,50575,6,0,B|400:40|400:40|308:24,1,143.999995605469,2|2,1:2|0:0,0:0:0:0:
196,80,51048,1,0,0:0:0:0:
196,80,51206,2,0,P|244:92|272:144,2,107.999996704102,10|2|0,0:0|0:0|0:0,0:0:0:0:
24,248,51838,6,0,L|12:172,1,71.9999978027344,2|0,1:2|0:0,0:0:0:0:
112,296,52153,2,0,L|52:344,1,71.9999978027344,0|0,1:2|0:0,0:0:0:0:
110,196,52469,2,0,L|181:223,1,71.9999978027344,10|0,0:0|0:0,0:0:0:0:
288,144,52785,6,0,P|260:168|248:188,1,48,0|0,1:2|0:0,0:0:0:0:
256,272,53101,6,0,B|300:280|300:280|352:272,1,80,6|0,1:2|0:0,0:0:0:0:
464,152,53417,2,0,B|420:144|420:144|368:152,1,80,2|0,0:0|0:0,0:0:0:0:
424,320,53732,2,0,L|424:232,1,80,10|0,0:2|0:0,0:0:0:0:
404,44,54048,1,2,0:0:0:0:
304,184,54206,1,0,0:0:0:0:
256,16,54364,6,0,P|196:0|116:68,1,160,2|2,1:2|1:2,0:0:0:0:
128,244,54838,1,2,0:0:0:0:
204,92,54996,1,10,0:0:0:0:
232,268,55153,1,2,0:0:0:0:
296,104,55311,2,0,P|331:85|370:84,1,80,2|0,1:2|0:0,0:0:0:0:
496,256,55627,6,0,L|408:264,1,80,2|0,1:2|0:0,0:0:0:0:
288,352,55943,2,0,L|376:360,1,80,2|0,0:0|0:0,0:0:0:0:
452,156,56259,2,0,L|364:164,1,80,10|0,0:2|0:0,0:0:0:0:
244,252,56575,2,0,L|332:260,1,80,2|0,0:0|0:0,0:0:0:0:
416,56,56890,6,0,B|368:40|312:64|312:64|296:92|264:108,1,160,2|2,1:2|1:2,0:0:0:0:
108,148,57364,1,2,0:0:0:0:
228,16,57522,1,10,0:0:0:0:
224,200,57680,1,2,0:0:0:0:
88,52,57838,2,0,P|48:68|20:104,1,80,2|0,1:2|0:0,0:0:0:0:
180,288,58153,6,0,B|224:296|224:296|284:284,1,80,2|0,1:2|0:0,0:0:0:0:
332,128,58469,2,0,L|320:220,1,80,2|0,0:0|0:0,0:0:0:0:
456,296,58785,2,0,B|412:304|412:304|352:292,1,80,10|0,0:2|0:0,0:0:0:0:
224,192,59101,1,2,0:0:0:0:
416,204,59259,1,0,0:0:0:0:
244,292,59417,6,0,B|136:300|200:252|76:264,1,160,2|2,1:2|1:2,0:0:0:0:
116,64,59890,1,2,0:0:0:0:
224,192,60048,1,10,0:0:0:0:
236,16,60206,1,2,0:0:0:0:
128,164,60364,2,0,P|88:160|48:132,1,80,2|0,1:2|0:0,0:0:0:0:
304,132,60680,6,0,B|320:196|320:196|296:264,1,128,6|2,1:2|0:0,0:0:0:0:
444,352,61311,6,0,B|432:307|432:307|449:260,1,95.9999970703126,10|2,0:0|0:0,0:0:0:0:
303,193,61943,6,0,B|310:222|310:222|299:253,1,64,2|2,0:0|0:0,0:0:0:0:
168,352,62575,6,0,L|68:356,1,96
11,177,63201,6,0,P|40:166|98:181,1,90.9999958343508,2|2,0:0|0:0,0:0:0:0:
168,244,63872,2,0,P|206:251|251:236,1,77.9999964294435,2|2,0:0|0:0,0:0:0:0:
328,176,64504,6,0,L|334:272,1,77.9999964294435,2|2,0:0|0:0,0:0:0:0:
420,316,65135,2,0,L|426:220,1,77.9999964294435,2|2,0:0|0:0,0:0:0:0:
372,88,65767,6,0,P|324:76|280:92,1,77.9999964294435,2|2,0:0|0:0,0:0:0:0:
220,152,66398,2,0,P|181:158|145:146,1,77.9999964294435,2|2,0:0|0:0,0:0:0:0:
56,60,67030,6,0,B|65:85|65:85|46:156,1,77.9999964294435,2|2,0:0|0:0,0:0:0:0:
24,256,67662,2,0,B|40:234|40:234|111:216,1,77.9999964294435,2|2,0:0|0:0,0:0:0:0:
224,284,68254,6,0,P|264:296|340:268,1,103.999995239258,2|2,0:0|0:0,0:0:0:0:
320,124,68925,2,0,P|280:112|204:140,1,103.999995239258,2|2,0:0|0:0,0:0:0:0:
152,204,69438,1,2,0:0:0:0:
137,220,69754,2,0,B|220:222|177:268|252:267,1,129.999994049073,2|0,0:0|0:0,0:0:0:0:
440,192,70464,2,0,P|396:196|364:188,1,51.999997619629,2|0,0:0|0:0,0:0:0:0:
284,64,70780,6,0,L|276:200,1,121.333327779134,2|2,0:0|0:0,0:0:0:0:
176,264,71464,2,0,L|168:164,1,86.6666626993817,2|2,0:0|0:0,0:0:0:0:
116,44,71964,2,0,P|68:44|11:108,1,129.999994049073,2|2,0:0|0:0,0:0:0:0:
22,108,73306,6,0,L|110:116,1,60.0000022888184,6|0,1:2|0:0,0:0:0:0:
160,184,73622,1,2,0:0:0:0:
160,184,73780,1,0,0:0:0:0:
252,80,73938,2,0,P|288:76|324:88,1,60.0000022888184,2|0,0:0|0:0,0:0:0:0:
376,176,74254,2,0,P|340:172|304:184,1,60.0000022888184,10|0,0:0|0:0,0:0:0:0:
260,312,74570,6,0,L|256:236,1,60.0000022888184,2|0,1:2|0:0,0:0:0:0:
200,176,74885,1,0,0:0:0:0:
200,176,75043,1,0,0:0:0:0:
132,280,75201,2,0,P|92:284|60:272,1,60.0000022888184,2|0,0:0|0:0,0:0:0:0:
76,144,75517,2,0,P|101:180|107:213,1,60.0000022888184,10|0,0:0|0:0,0:0:0:0:
204,344,75833,6,0,L|272:348,1,60.0000022888184,6|0,1:2|0:0,0:0:0:0:
336,288,76148,1,2,0:0:0:0:
336,288,76306,1,0,0:0:0:0:
200,216,76464,2,0,P|200:172|216:136,1,60.0000022888184,2|0,0:0|0:0,0:0:0:0:
284,72,76780,2,0,P|284:116|300:152,1,60.0000022888184,10|0,0:0|0:0,0:0:0:0:
432,160,77096,6,0,L|368:156,1,60.0000022888184,2|0,1:2|0:0,0:0:0:0:
308,224,77412,1,2,0:0:0:0:
308,224,77570,1,0,0:0:0:0:
432,308,77727,2,0,P|440:348|432:380,1,60.0000022888184,2|0,0:0|0:0,0:0:0:0:
300,316,78043,2,0,P|324:333|353:340,1,60.0000022888184,10|0,0:0|0:0,0:0:0:0:
488,220,78359,6,0,L|412:212,1,60.0000022888184,2|0,1:2|0:0,0:0:0:0:
332,132,78675,2,0,L|408:124,1,60.0000022888184,2|8,0:0|0:0,0:0:0:0:
248,76,78991,2,0,B|236:136|236:136|256:208,1,120.000004577637,2|2,1:2|0:0,0:0:0:0:
276,296,79464,1,8,0:0:0:0:
276,296,79622,6,0,P|240:280|196:280,1,60.0000022888184,2|0,1:2|0:0,0:0:0:0:
108,372,79938,2,0,P|139:348|161:310,1,60.0000022888184,2|8,0:0|0:0,0:0:0:0:
172,192,80254,2,0,P|124:172|52:200,1,120.000004577637,0|10,1:0|0:0,0:0:0:0:
20,320,80780,1,2,0:0:0:0:
56,196,83412,5,2,0:0:0:0:
75,180,84044,1,2,0:0:0:0:
94,197,84675,1,2,0:0:0:0:
72,212,85307,1,2,0:0:0:0:
20,320,85622,6,0,L|76:324,1,48
140,260,85938,6,0,P|192:272|240:260,1,80,6|0,1:2|0:0,0:0:0:0:
232,108,86254,2,0,P|195:147|182:194,1,80,2|0,0:0|0:0,0:0:0:0:
317,263,86570,2,0,P|301:211|267:176,1,80,10|0,0:0|0:0,0:0:0:0:
116,96,86885,1,2,1:2:0:0:
140,260,87043,1,2,0:0:0:0:
240,80,87201,6,0,L|328:72,1,80,2|0,1:2|0:0,0:0:0:0:
464,188,87517,1,2,1:2:0:0:
424,20,87675,1,2,0:0:0:0:
324,184,87833,2,0,L|236:176,1,80,10|0,0:0|1:2,0:0:0:0:
128,288,88148,2,0,L|216:280,1,80,2|0,0:0|1:2,0:0:0:0:
344,164,88464,5,2,1:2:0:0:
380,332,88622,1,2,0:0:0:0:
248,200,88780,2,0,P|244:152|260:108,1,80,2|0,0:0|0:0,0:0:0:0:
432,128,89096,1,10,0:0:0:0:
320,264,89254,1,2,0:0:0:0:
356,72,89412,1,2,1:2:0:0:
416,280,89570,2,0,P|395:323|359:353,1,80,2|0,0:0|1:2,0:0:0:0:
248,200,89885,6,0,B|240:164|240:164|252:100,2,80,2|2|2,0:0|1:2|0:0,0:0:0:0:
184,380,90359,1,10,0:0:0:0:
136,208,90517,1,2,0:0:0:0:
64,368,90675,2,0,P|60:320|64:276,1,80,2|0,1:2|0:0,0:0:0:0:
228,140,90991,6,0,B|224:184|224:184|232:240,1,80,6|0,1:2|0:0,0:0:0:0:
392,216,91306,2,0,B|355:190|355:190|303:169,1,80,2|0,0:0|0:0,0:0:0:0:
244,320,91622,2,0,B|284:301|284:301|328:266,1,80,10|0,0:0|0:0,0:0:0:0:
360,76,91938,1,2,1:2:0:0:
416,240,92096,1,2,0:0:0:0:
480,72,92254,6,0,P|480:124|472:164,1,80,2|0,1:2|0:0,0:0:0:0:
396,340,92570,1,2,1:2:0:0:
340,172,92727,1,2,0:0:0:0:
272,344,92885,2,0,P|224:352|184:336,1,80,10|0,0:0|1:2,0:0:0:0:
108,216,93201,2,0,P|156:224|196:208,1,80,2|0,0:0|1:2,0:0:0:0:
288,48,93517,6,0,B|216:40|216:40|172:52|172:52|84:44,1,192,2|0,1:2|0:0,0:0:0:0:
24,184,94148,1,10,0:0:0:0:
80,28,94306,1,0,0:0:0:0:
144,184,94464,2,0,P|188:188|224:180,1,64,0|0,1:2|0:0,0:0:0:0:
312,64,94780,6,0,L|308:136,1,64,2|0,1:2|0:0,0:0:0:0:
416,216,95096,2,0,L|412:152,1,64,0|0,1:2|0:0,0:0:0:0:
304,232,95412,2,0,L|300:304,1,64,10|0,0:0|1:2,0:0:0:0:
440,376,95727,1,0,0:0:0:0:
416,216,95885,1,0,1:2:0:0:
332,380,96043,6,0,P|284:384|236:360,1,80,6|0,1:2|0:0,0:0:0:0:
128,284,96359,2,0,P|176:288|224:264,1,80,2|0,0:0|0:0,0:0:0:0:
332,188,96675,2,0,P|284:192|236:168,1,80,10|0,0:0|0:0,0:0:0:0:
176,40,96991,1,2,1:2:0:0:
152,196,97148,1,2,0:0:0:0:
268,64,97306,6,0,L|356:60,1,80,2|0,1:2|0:0,0:0:0:0:
448,212,97622,1,2,1:2:0:0:
472,56,97779,1,2,0:0:0:0:
348,184,97938,2,0,L|260:180,1,80,10|0,0:0|1:2,0:0:0:0:
176,40,98254,1,2,0:0:0:0:
152,196,98411,1,0,1:2:0:0:
52,36,98570,6,0,P|52:76|60:120,1,80,2|2,1:2|0:0,0:0:0:0:
145,275,98885,2,0,P|145:235|153:191,1,80,2|0,0:0|0:0,0:0:0:0:
328,96,99201,1,10,0:0:0:0:
244,248,99359,1,2,0:0:0:0:
200,80,99517,1,2,1:2:0:0:
344,228,99675,2,0,L|432:236,1,80,2|0,0:0|1:2,0:0:0:0:
512,364,99991,6,0,L|424:372,2,80,2|2|2,0:0|1:2|0:0,0:0:0:0:
428,144,100464,1,10,0:0:0:0:
352,324,100622,1,2,0:0:0:0:
272,160,100780,2,0,P|220:148|172:160,1,80,2|0,1:2|0:0,0:0:0:0:
56,348,101096,6,0,B|94:338|94:338|137:314,1,80,6|0,1:2|0:0,0:0:0:0:
72,160,101412,2,0,B|61:198|61:198|60:247,1,80,2|0,0:0|0:0,0:0:0:0:
228,324,101727,2,0,B|238:285|238:285|239:236,1,80,10|2,0:0|0:0,0:0:0:0:
152,56,102043,1,2,1:2:0:0:
152,224,102201,1,2,0:0:0:0:
256,92,102359,6,0,P|308:84|344:96,1,80,2|0,1:2|0:0,0:0:0:0:
392,288,102675,1,2,1:2:0:0:
300,180,102833,1,2,0:0:0:0:
244,352,102991,2,0,L|160:364,1,80,10|0,0:0|1:2,0:0:0:0:
80,236,103306,2,0,L|164:248,1,80,2|2,0:0|1:2,0:0:0:0:
300,180,103622,6,0,P|328:192|296:188,1,80,6|2,1:2|0:0,0:0:0:0:
