osu file format v14

[General]
AudioFilename: audio.mp3
AudioLeadIn: 0
PreviewTime: 40469
Countdown: 0
SampleSet: Soft
StackLeniency: 0.5
Mode: 0
LetterboxInBreaks: 0
WidescreenStoryboard: 1

[Editor]
Bookmarks: 26085
DistanceSpacing: 1.4
BeatDivisor: 8
GridSize: 8
TimelineZoom: 2.5

[Metadata]
Title:SOLO
TitleUnicode:SOLO
Artist:JENNIE
ArtistUnicode:JENNIE
Creator:Stixy
Version:Hard
Source:
Tags:BLACKPINK k-pop kpop korean pop 블랙핑크 김제니 kim yg entertainment short cut ver version edit browiec
BeatmapID:2136409
BeatmapSetID:959292

[Difficulty]
HPDrainRate:5
CircleSize:3.8
OverallDifficulty:6
ApproachRate:8
SliderMultiplier:2.3
SliderTickRate:1

[Events]
//Background and Video events
0,0,"bg2.jpg",0,0
//Break Periods
2,63206,72556
2,80453,82153
//Storyboard Layer 0 (Background)
//Storyboard Layer 1 (Fail)
//Storyboard Layer 2 (Pass)
//Storyboard Layer 3 (Foreground)
//Storyboard Layer 4 (Overlay)
//Storyboard Sound Samples

[TimingPoints]
2575,631.578947368421,4,2,1,50,1,0
2575,-133.333333333333,4,2,1,50,0,0
22785,-100,4,2,1,60,0,0
40469,-100,4,2,1,50,0,0
42680,-100,4,2,1,70,0,0
42917,-100,4,2,1,5,0,0
42996,-83.3333333333333,4,2,1,70,0,1
60680,-83.3333333333333,4,2,1,60,0,0
61311,-100,4,2,1,40,0,0
61943,-181.818181818181,4,2,1,20,0,0
63201,631.578947368421,4,2,1,50,1,0
73306,-133.333333333333,4,2,1,60,0,0
83411,-100,4,2,1,50,0,0
85622,-100,4,2,1,70,0,0
85858,-100,4,2,1,5,0,0
85937,-83.3333333333333,4,2,1,70,0,1
103622,-100,4,2,1,70,0,0

[Colours]
Combo1 : 199,199,199
Combo2 : 0,163,240
Combo3 : 147,147,202
Combo4 : 128,191,191

[HitObjects]
75,73,2575,6,0,P|146:28|227:50,2,172.500006580353,2|10|2,1:2|0:0|1:2,0:0:0:0:
68,245,4469,2,0,L|79:315,1,64.6875024676324,10|2,0:0|0:0,0:0:0:0:
192,304,5101,6,0,B|298:279|246:355|355:327,2,172.500006580353,2|10|2,1:2|0:0|1:2,0:0:0:0:
180,131,6996,2,0,P|213:116|252:123,1,64.6875024676324,10|2,0:2|0:2,0:0:0:0:
320,46,7627,6,0,P|351:125|309:206,1,172.500006580353,2|8,1:2|0:0,0:0:0:0:
316,200,9522,2,0,L|324:280,1,64.6875024676324,10|2,0:0|0:0,0:0:0:0:
404,328,10153,6,0,B|431:287|431:287|419:156,1,172.500006580353,2|8,1:2|0:0,0:0:0:0:
419,164,12048,2,0,L|411:62,1,86.2500032901765,10|2,0:0|0:0,0:0:0:0:
334,40,12680,6,0,P|251:23|177:64,2,172.500006580353,2|10|2,1:2|0:0|1:2,0:0:0:0:
312,211,14575,2,0,L|298:293,1,64.6875024676324,10|2,0:0|0:0,0:0:0:0:
212,326,15206,6,0,B|150:319|150:319|116:343|116:343|42:330,2,172.500006580353,2|10|2,1:2|0:0|1:2,0:0:0:0:
270,163,17101,2,0,P|270:117|243:81,1,86.2500032901765,10|2,0:0|0:0,0:0:0:0:
168,50,17732,6,0,L|138:229,1,172.500006580353,2|8,1:2|0:0,0:0:0:0:
138,219,19627,2,0,P|181:223|217:201,1,86.2500032901765,10|2,0:0|0:0,0:0:0:0:
226,111,20259,6,0,P|269:42|372:33,1,172.500006580353,2|8,1:2|0:0,0:0:0:0:
354,27,21838,6,0,L|359:69,1,43.1250016450883,2|0,0:0|0:0,0:0:0:0:
422,114,22153,2,0,L|416:156,1,43.1250016450883,8|2,0:2|0:0,0:0:0:0:
354,201,22469,2,0,L|359:243,1,43.1250016450883,2|0,0:0|0:0,0:0:0:0:
421,341,22785,6,0,P|366:358|310:345,1,115,6|0,1:2|0:0,0:0:0:0:
241,285,23259,2,0,P|185:272|131:290,1,115,2|0,0:0|0:0,0:0:0:0:
65,355,23732,2,0,P|82:301|69:243,1,115,2|0,0:0|1:0,0:0:0:0:
24,164,24206,1,0,0:0:0:0:
116,166,24364,1,0,0:0:0:0:
13,72,24680,1,8,0:0:0:0:
153,37,24996,1,2,0:2:0:0:
153,37,25153,1,2,0:2:0:0:
205,122,25311,6,0,P|232:128|261:125,1,57.5,2|2,1:2|0:2,0:0:0:0:
309,58,25627,2,0,P|337:54|365:61,1,57.5,2|2,0:2|0:2,0:0:0:0:
426,122,25943,2,0,L|433:199,1,57.5,10|2,0:2|0:2,0:0:0:0:
494,239,26259,2,0,L|487:316,1,57.5,2|0,0:2|0:0,0:0:0:0:
424,357,26575,2,0,P|395:361|367:357,1,57.5,2|0,1:2|0:0,0:0:0:0:
294,304,26890,2,0,P|265:299|237:303,1,57.5,2|0,0:2|0:0,0:0:0:0:
178,373,27206,2,0,P|197:289|140:228,1,172.5,10|0,0:2|0:0,0:0:0:0:
43,207,27838,6,0,P|98:197|131:152,1,115,6|0,1:2|0:0,0:0:0:0:
213,115,28311,2,0,P|176:71|121:65,1,115,2|0,0:0|0:0,0:0:0:0:
49,17,28785,2,0,P|29:71|51:121,1,115,2|0,0:0|1:0,0:0:0:0:
131,151,29259,1,0,0:0:0:0:
213,115,29417,1,0,0:0:0:0:
143,235,29732,1,8,0:0:0:0:
281,168,30048,2,0,P|316:169|352:155,1,57.5,2|2,0:2|0:2,0:0:0:0:
396,91,30364,6,0,L|400:33,1,57.5,2|0,1:2|0:0,0:0:0:0:
480,82,30680,2,0,L|484:139,1,57.5,2|0,0:2|0:0,0:0:0:0:
490,240,30996,1,10,0:2:0:0:
410,361,31311,2,0,P|382:367|353:363,1,57.5,2|2,0:2|0:0,0:0:0:0:
287,302,31627,2,0,P|258:298|230:304,1,57.5,2|0,1:2|0:0,0:0:0:0:
168,372,31943,2,0,L|64:361,1,57.5,2|0,0:2|0:0,0:0:0:0:
37,284,32259,2,0,B|13:233|13:233|34:104,1,172.5,10|0,0:0|0:0,0:0:0:0:
67,11,32890,6,0,P|117:36|143:86,1,115,6|0,1:2|0:0,0:0:0:0:
112,168,33364,2,0,P|168:171|216:140,1,115,2|0,0:0|0:0,0:0:0:0:
233,44,33838,2,0,L|357:54,1,115,2|0,0:0|1:0,0:0:0:0:
439,56,34311,1,0,0:0:0:0:
393,132,34469,1,0,0:0:0:0:
486,233,34785,1,8,0:0:0:0:
423,343,35101,1,2,0:2:0:0:
423,343,35259,1,2,0:2:0:0:
339,280,35417,6,0,P|310:274|282:278,1,57.5,2|2,1:2|0:2,0:0:0:0:
221,343,35732,2,0,P|192:347|164:341,1,57.5,2|2,0:2|0:2,0:0:0:0:
107,272,36048,2,0,L|100:201,1,57.5,10|2,0:2|0:2,0:0:0:0:
89,122,36364,1,2,0:2:0:0:
245,191,36680,2,0,P|218:200|189:202,1,57.5,2|0,1:2|0:0,0:0:0:0:
205,113,36996,2,0,P|231:103|260:101,1,57.5,2|0,0:2|0:0,0:0:0:0:
332,159,37311,2,0,B|347:285,1,115,8|0,0:0|0:0,0:0:0:0:
356,363,37785,1,0,0:0:0:0:
435,265,37943,6,0,B|421:150,1,115,14|8,0:0|0:0,0:0:0:0:
473,72,38417,2,0,P|415:58|362:77,1,115,10|8,0:0|0:0,0:0:0:0:
294,164,38890,2,0,P|240:181|185:167,1,115,10|10,0:0|0:0,0:0:0:0:
118,104,39364,1,10,0:0:0:0:
96,228,39522,2,0,P|92:257|109:298,1,57.5,10|0,0:0|0:0,0:0:0:0:
229,270,39838,2,0,P|205:252|161:246,1,57.5,10|0,0:0|0:0,0:0:0:0:
127,364,40153,2,0,P|154:352|181:317,1,57.5,10|0,0:0|0:0,0:0:0:0:
259,353,40469,5,2,0:0:0:0:
455,326,41101,1,2,0:0:0:0:
428,155,41732,1,2,0:0:0:0:
240,195,42364,1,10,0:0:0:0:
288,331,42680,2,0,B|256:345|256:345|205:337,1,86.25
162,328,42996,6,0,P|160:293|170:258,1,68.9999978942872,6|0,1:2|0:0,0:0:0:0:
240,195,43311,2,0,P|242:160|232:125,1,68.9999978942872,2|0,0:0|0:0,0:0:0:0:
175,51,43627,1,10,0:2:0:0:
87,222,43943,1,2,0:0:0:0:
265,281,44259,2,0,B|313:267|313:267|353:281|353:281|410:267,1,137.999995788574,2|2,1:2|1:2,0:0:0:0:
486,239,44732,1,2,0:0:0:0:
512,150,44890,2,0,P|514:108|505:76,1,68.9999978942872,10|2,0:0|0:0,0:0:0:0:
439,11,45206,1,2,1:2:0:0:
355,177,45522,6,0,L|443:173,1,68.9999978942872,2|0,1:2|0:0,0:0:0:0:
397,270,45838,2,0,L|328:273,1,68.9999978942872,2|0,0:0|0:0,0:0:0:0:
236,305,46153,1,10,0:2:0:0:
298,108,46469,1,2,0:0:0:0:
97,153,46785,2,0,B|78:195|78:195|95:292,1,137.999995788574,2|2,1:2|1:2,0:0:0:0:
156,363,47259,1,2,0:0:0:0:
236,305,47417,2,0,P|273:297|307:309,1,68.9999978942872,10|2,0:0|0:0,0:0:0:0:
384,360,47732,1,2,1:2:0:0:
405,169,48048,6,0,L|410:81,1,68.9999978942872,2|0,1:2|0:0,0:0:0:0:
312,76,48364,2,0,L|306:-11,1,68.9999978942872,2|0,0:0|0:0,0:0:0:0:
210,1,48680,1,10,0:2:0:0:
52,115,48996,1,2,0:0:0:0:
106,297,49311,2,0,B|150:288|150:288|196:308|196:308|240:300,1,137.999995788574,2|2,1:2|1:2,0:0:0:0:
332,322,49785,1,2,0:0:0:0:
302,230,49943,2,0,P|300:196|306:162,1,68.9999978942872,10|2,0:0|0:0,0:0:0:0:
345,74,50259,1,2,1:2:0:0:
500,186,50575,6,0,P|470:223|381:250,1,137.999995788574,2|2,1:2|0:0,0:0:0:0:
203,314,51206,2,0,L|198:210,1,103.499996841431,10|2,0:0|0:0,0:0:0:0:
78,104,51838,2,0,P|99:39|155:1,1,137.999995788574,2|0,1:2|1:2,0:0:0:0:
132,192,52469,2,0,P|65:205|4:176,1,137.999995788574,10|0,0:0|1:2,0:0:0:0:
231,134,53101,6,0,B|247:183|247:183|227:267,1,137.999995788574,6|2,1:2|0:0,0:0:0:0:
200,356,53575,1,0,0:0:0:0:
288,331,53732,2,0,P|322:323|356:329,1,68.9999978942872,10|0,0:2|0:0,0:0:0:0:
436,368,54048,2,0,P|469:373|503:366,1,68.9999978942872,2|0,0:0|0:0,0:0:0:0:
512,270,54364,6,0,L|499:167,2,103.499996841431,2|2|2,1:2|0:0|0:0,0:0:0:0:
416,249,54996,2,0,L|403:146,2,103.499996841431,10|2|2,0:0|0:0|0:0,0:0:0:0:
355,328,55627,6,0,B|325:298|325:298|312:200,1,137.999995788574,2|2,1:2|0:0,0:0:0:0:
301,102,56101,1,0,0:0:0:0:
229,162,56259,2,0,L|142:170,1,68.9999978942872,10|0,0:2|0:0,0:0:0:0:
70,177,56575,1,2,0:0:0:0:
196,322,56890,6,0,B|244:355|244:355|347:329,1,137.999995788574,2|2,1:2|1:2,0:0:0:0:
407,292,57364,1,2,0:0:0:0:
328,238,57522,2,0,P|319:204|323:170,1,68.9999978942872,10|2,0:0|0:0,0:0:0:0:
383,96,57838,1,2,1:2:0:0:
383,96,57996,1,0,0:0:0:0:
287,91,58153,6,0,L|148:80,1,137.999995788574,2|2,1:2|0:0,0:0:0:0:
53,63,58627,1,0,0:0:0:0:
91,150,58785,2,0,P|94:187|85:221,1,68.9999978942872,10|0,0:2|0:0,0:0:0:0:
23,290,59101,2,0,P|20:327|29:361,1,68.9999978942872,2|0,0:0|0:0,0:0:0:0:
114,314,59417,2,0,L|247:326,2,103.499996841431,2|2|2,1:2|0:0|0:0,0:0:0:0:
86,217,60048,2,0,L|189:226,2,103.499996841431,8|2|2,0:0|0:0|0:0,0:0:0:0:
49,102,60680,6,0,L|186:114,1,137.999995788574,6|2,1:2|0:0,0:0:0:0:
330,41,61311,2,0,L|215:30,1,115,10|2,0:0|0:0,0:0:0:0:
279,121,61943,2,0,L|358:129,1,63.2500019302369,2|2,0:0|0:0,0:0:0:0:
42,343,73306,6,0,P|83:353|123:340,1,86.2500032901765,6|2,1:2|0:0,0:0:0:0:
187,236,73938,2,0,L|167:123,1,86.2500032901765,2|10,0:0|0:0,0:0:0:0:
57,110,74570,2,0,L|77:-3,1,86.2500032901765,2|2,1:2|0:0,0:0:0:0:
192,12,75201,2,0,P|231:4|277:20,1,86.2500032901765,2|10,0:0|0:0,0:0:0:0:
294,146,75833,6,0,L|308:236,1,86.2500032901765,2|2,1:2|0:0,0:0:0:0:
383,137,76464,2,0,L|396:51,1,86.2500032901765,2|10,0:0|0:0,0:0:0:0:
488,130,77096,2,0,L|501:215,1,86.2500032901765,2|2,1:2|0:0,0:0:0:0:
508,335,77727,2,0,P|462:331|428:306,1,86.2500032901765,2|10,0:0|0:0,0:0:0:0:
298,356,78359,6,0,B|205:318|225:386|131:357,1,172.500006580353,2|2,1:2|1:2,0:0:0:0:
158,123,79622,2,0,P|202:193|177:273,1,172.500006580353,2|0,1:2|1:0,0:0:0:0:
119,342,83412,5,2,0:0:0:0:
287,269,84043,1,2,0:0:0:0:
100,206,84675,1,2,0:0:0:0:
255,122,85306,1,2,0:0:0:0:
369,132,85622,2,0,B|381:156|381:156|370:230,1,86.25
353,259,85938,6,0,P|317:268|275:258,1,68.9999978942872,6|0,1:2|0:0,0:0:0:0:
190,220,86254,2,0,P|156:215|122:223,1,68.9999978942872,2|0,0:0|0:0,0:0:0:0:
41,296,86570,2,0,L|35:227,1,68.9999978942872,10|0,0:0|0:0,0:0:0:0:
29,129,86885,1,2,1:2:0:0:
29,129,87043,1,2,0:0:0:0:
111,64,87201,2,0,B|158:42|158:42|259:48,1,137.999995788574,2|2,1:2|1:2,0:0:0:0:
347,52,87675,1,2,0:0:0:0:
292,136,87833,2,0,L|298:215,1,68.9999978942872,10|0,0:0|1:2,0:0:0:0:
385,252,88148,2,0,L|378:320,1,68.9999978942872,2|0,0:0|1:2,0:0:0:0:
296,371,88464,5,2,1:2:0:0:
296,371,88622,1,2,0:0:0:0:
218,307,88780,2,0,P|184:299|151:307,1,68.9999978942872,2|0,0:0|0:0,0:0:0:0:
71,359,89096,1,10,0:0:0:0:
71,359,89254,1,2,0:0:0:0:
21,267,89412,1,2,1:2:0:0:
21,267,89570,2,0,L|30:168,1,68.9999978942872,2|0,0:0|1:0,0:0:0:0:
34,97,89885,1,2,0:0:0:0:
111,156,90043,2,0,P|146:160|182:153,1,68.9999978942872,2|2,1:2|0:0,0:0:0:0:
250,90,90359,2,0,P|283:83|324:91,1,68.9999978942872,10|2,0:0|0:0,0:0:0:0:
401,130,90675,1,2,1:2:0:0:
401,130,90833,1,0,0:0:0:0:
333,225,90991,6,0,L|316:83,1,137.999995788574,6|2,1:2|0:0,0:0:0:0:
378,2,91464,1,0,0:0:0:0:
468,62,91622,2,0,L|480:150,1,68.9999978942872,10|0,0:0|0:0,0:0:0:0:
497,223,91938,1,2,1:2:0:0:
497,223,92096,1,2,0:0:0:0:
448,310,92254,2,0,P|405:324|372:319,1,68.9999978942872,2|0,1:2|0:0,0:0:0:0:
301,267,92570,1,2,1:2:0:0:
301,267,92727,1,2,0:0:0:0:
208,218,92885,2,0,L|127:229,1,68.9999978942872,10|0,0:0|1:2,0:0:0:0:
109,320,93201,2,0,L|189:308,1,68.9999978942872,2|0,0:0|1:2,0:0:0:0:
53,247,93517,6,0,B|33:201|33:201|57:99,1,137.999995788574,2|0,1:2|0:0,0:0:0:0:
86,24,93991,1,0,0:0:0:0:
150,94,94148,2,0,P|184:101|219:94,1,68.9999978942872,10|0,0:0|0:0,0:0:0:0:
290,32,94464,2,0,P|325:26|358:31,1,68.9999978942872,0|0,1:2|0:0,0:0:0:0:
449,79,94780,2,0,B|479:114|479:114|482:213,1,137.999995788574,2|0,1:2|1:2,0:0:0:0:
475,296,95254,1,0,0:0:0:0:
401,236,95412,2,0,P|334:220|268:246,1,137.999995788574,10|0,0:0|0:0,0:0:0:0:
209,305,95885,1,0,1:2:0:0:
148,209,96043,6,0,L|141:121,1,68.9999978942872,6|0,1:2|0:0,0:0:0:0:
232,95,96359,2,0,L|226:163,1,68.9999978942872,2|0,0:0|0:0,0:0:0:0:
271,243,96675,1,10,0:0:0:0:
313,163,96833,1,2,0:0:0:0:
373,230,96991,1,2,1:2:0:0:
373,230,97148,1,2,0:0:0:0:
467,215,97306,6,0,L|472:337,2,103.499996841431,2|2|2,1:2|0:0|0:0,0:0:0:0:
373,230,97938,2,0,L|367:352,2,103.499996841431,10|2|2,0:0|0:0|1:2,0:0:0:0:
405,143,98570,6,0,P|348:108|281:116,1,137.999995788574,2|2,1:2|0:0,0:0:0:0:
206,180,99043,1,0,0:0:0:0:
198,82,99201,2,0,L|190:-7,1,68.9999978942872,10|2,0:0|0:0,0:0:0:0:
96,9,99517,1,2,1:2:0:0:
96,9,99675,1,2,0:0:0:0:
105,108,99833,2,0,L|113:197,1,68.9999978942872,0|2,1:0|0:0,0:0:0:0:
204,207,100148,2,0,L|196:296,1,68.9999978942872,2|2,1:2|0:0,0:0:0:0:
105,306,100464,2,0,L|113:395,1,68.9999978942872,10|2,0:2|0:0,0:0:0:0:
208,384,100780,1,2,1:2:0:0:
208,384,100938,1,0,0:0:0:0:
283,258,101096,6,0,L|297:100,1,137.999995788574,6|2,1:2|0:0,0:0:0:0:
329,31,101570,1,0,0:0:0:0:
392,112,101727,2,0,L|384:201,1,68.9999978942872,10|2,0:0|0:0,0:0:0:0:
455,254,102043,2,0,L|463:343,1,68.9999978942872,2|2,1:2|0:0,0:0:0:0:
378,378,102359,2,0,L|248:367,2,103.499996841431,2|2|2,1:2|0:0|0:0,0:0:0:0:
377,286,102991,2,0,L|273:277,2,103.499996841431,10|2|2,0:0|0:0|1:2,0:0:0:0:
461,322,103622,5,6,1:2:0:0:
