osu file format v14

[General]
AudioFilename: audio.mp3
AudioLeadIn: 0
PreviewTime: 40469
Countdown: 0
SampleSet: Soft
StackLeniency: 0.3
Mode: 0
LetterboxInBreaks: 0
WidescreenStoryboard: 0

[Editor]
DistanceSpacing: 1.3
BeatDivisor: 4
GridSize: 8
TimelineZoom: 4.199998

[Metadata]
Title:SOLO
TitleUnicode:SOLO
Artist:JENNIE
ArtistUnicode:JENNIE
Creator:Stixy
Version:BREAKUP
Source:
Tags:BLACKPINK k-pop kpop korean pop 블랙핑크 김제니 kim yg entertainment short cut ver version edit browiec
BeatmapID:2008402
BeatmapSetID:959292

[Difficulty]
HPDrainRate:5
CircleSize:4
OverallDifficulty:9
ApproachRate:9.2
SliderMultiplier:2.1
SliderTickRate:1

[Events]
//Background and Video events
0,0,"bg.jpg",0,0
//Break Periods
//Storyboard Layer 0 (Background)
//Storyboard Layer 1 (Fail)
//Storyboard Layer 2 (Pass)
//Storyboard Layer 3 (Foreground)
//Storyboard Layer 4 (Overlay)
//Storyboard Sound Samples

[TimingPoints]
2575,631.578947368421,4,2,1,50,1,0
2575,-111.111111111111,4,2,1,50,0,0
22785,-66.6666666666667,4,2,1,60,0,0
40469,-83.3333333333333,4,2,1,50,0,0
42680,-200,4,2,1,70,0,0
42917,-200,4,2,1,5,0,0
42996,-50,4,2,1,70,0,1
45443,-50,4,2,1,5,0,1
45522,-50,4,2,1,70,0,1
47969,-50,4,2,1,5,0,1
48048,-50,4,2,1,70,0,1
50575,-55.5555555555556,4,2,1,70,0,1
52785,-200,4,2,1,70,0,1
53022,-200,4,2,1,5,0,1
53101,-50,4,2,1,70,0,1
58075,-50,4,2,1,5,0,1
58153,-50,4,2,1,70,0,1
60680,-62.5,4,2,1,60,0,0
61311,-83.3333333333333,4,2,1,40,0,0
61943,-125,4,2,1,20,0,0
63201,631.578947368421,4,2,1,50,1,0
63201,-76.9230769230769,4,2,1,50,0,0
63398,-76.9230769230769,4,2,1,5,0,0
63477,-76.9230769230769,4,2,1,50,0,0
63793,-76.9230769230769,4,2,1,5,0,0
63872,-76.9230769230769,4,2,1,50,0,0
64029,-76.9230769230769,4,2,1,5,0,0
64108,-76.9230769230769,4,2,1,50,0,0
64424,-76.9230769230769,4,2,1,5,0,0
64503,-76.9230769230769,4,2,1,50,0,0
64661,-76.9230769230769,4,2,1,5,0,0
64740,-76.9230769230769,4,2,1,50,0,0
65056,-76.9230769230769,4,2,1,5,0,0
65135,-76.9230769230769,4,2,1,50,0,0
65293,-76.9230769230769,4,2,1,5,0,0
65372,-76.9230769230769,4,2,1,50,0,0
65687,-76.9230769230769,4,2,1,5,0,0
65766,-76.9230769230769,4,2,1,50,0,0
65924,-76.9230769230769,4,2,1,5,0,0
66003,-76.9230769230769,4,2,1,50,0,0
66319,-76.9230769230769,4,2,1,5,0,0
66398,-76.9230769230769,4,2,1,50,0,0
66556,-76.9230769230769,4,2,1,5,0,0
66635,-76.9230769230769,4,2,1,50,0,0
66951,-76.9230769230769,4,2,1,5,0,0
67029,-76.9230769230769,4,2,1,50,0,0
67187,-76.9230769230769,4,2,1,5,0,0
67266,-76.9230769230769,4,2,1,50,0,0
67819,-76.9230769230769,4,2,1,5,0,0
67898,-76.9230769230769,4,2,1,50,0,0
68174,-76.9230769230769,4,2,1,5,0,0
68253,-76.9230769230769,4,2,1,50,0,0
73306,-66.6666666666667,4,2,1,60,0,0
75437,-66.6666666666667,4,2,1,5,0,0
75516,-66.6666666666667,4,2,1,60,0,0
77964,-66.6666666666667,4,2,1,5,0,0
78043,-66.6666666666667,4,2,1,60,0,0
85622,-200,4,2,1,70,0,0
85858,-200,4,2,1,5,0,0
85937,-50,4,2,1,70,0,1
90911,-50,4,2,1,5,0,1
90990,-50,4,2,1,70,0,1
93516,-62.5,4,2,1,70,0,1
95727,-200,4,2,1,70,0,1
95964,-200,4,2,1,5,0,1
96043,-50,4,2,1,70,0,1
101016,-50,4,2,1,5,0,1
101095,-50,4,2,1,70,0,1
103622,-100,4,2,1,70,0,0

[Colours]
Combo1 : 199,199,199
Combo2 : 0,163,240
Combo3 : 147,147,202
Combo4 : 128,191,191

[HitObjects]
115,220,2575,6,0,P|171:148|153:59,2,188.999994232178,2|10|2,1:2|0:2|1:2,0:0:0:0:
114,220,4469,2,0,P|145:223|176:250,1,70.8749978370667,10|2,0:2|0:0,0:0:0:0:
271,318,5101,6,0,B|337:351|337:351|447:317,2,188.999994232178,2|10|2,1:2|0:2|1:2,0:0:0:0:
271,318,6996,2,0,L|261:228,1,70.8749978370667,10|2,0:2|0:0,0:0:0:0:
244,120,7627,6,0,P|191:165|121:162,1,141.749995674133,2|0,1:2|0:0,0:0:0:0:
41,122,8259,2,0,L|50:28,1,94.499997116089,8|0,0:2|0:0,0:0:0:0:
50,27,9522,2,0,L|36:117,1,70.8749978370667,10|2,0:2|0:0,0:0:0:0:
140,193,10153,6,0,B|155:85|155:85|167:97|182:105,1,141.749995674133,2|0,1:2|0:0,0:0:0:0:
256,154,10785,2,0,L|358:164,1,94.499997116089,8|0,0:2|0:0,0:0:0:0:
349,164,12048,2,0,L|242:154,1,94.499997116089,10|2,0:2|0:0,0:0:0:0:
177,233,12680,6,0,P|143:148|191:70,2,188.999994232178,2|10|2,1:2|0:2|1:2,0:0:0:0:
177,233,14575,2,0,L|185:310,1,70.8749978370667,10|2,0:2|0:0,0:0:0:0:
275,331,15206,6,0,B|371:300|357:389|452:359,2,188.999994232178,2|10|2,1:2|0:2|1:2,0:0:0:0:
275,331,17101,2,0,P|275:283|263:238,1,94.499997116089,10|2,0:2|0:0,0:0:0:0:
208,165,17732,6,0,P|144:197|76:181,1,141.749995674133,2|0,1:2|0:0,0:0:0:0:
8,125,18364,2,0,L|-1:232,1,94.499997116089,8|0,0:2|0:0,0:0:0:0:
0,219,19627,2,0,P|47:234|93:229,1,94.499997116089,10|2,0:2|0:0,0:0:0:0:
166,124,20259,6,0,B|168:176|168:176|189:205|189:205|193:258,1,141.749995674133,2|0,1:2|0:0,0:0:0:0:
212,358,20890,2,0,P|248:328|294:321,1,94.499997116089,8|0,0:2|0:0,0:0:0:0:
293,320,21838,1,2,0:0:0:0:
449,335,22153,5,10,0:2:0:0:
373,281,22311,1,2,0:0:0:0:
366,376,22469,1,2,0:0:0:0:
168,100,22785,6,0,P|242:78|308:118,1,157.500006008148,6|0,1:2|0:0,0:0:0:0:
235,256,23259,1,2,0:0:0:0:
235,256,23417,2,0,L|228:177,1,78.7500030040742,8|0,0:0|0:0,0:0:0:0:
308,310,23732,2,0,P|242:347|171:319,1,157.500006008148,2|0,0:0|1:0,0:0:0:0:
148,139,24206,1,0,0:0:0:0:
317,225,24364,2,0,L|405:217,1,78.7500030040742,0|0,0:0|0:0,0:0:0:0:
148,139,24680,2,0,L|59:131,1,78.7500030040742,8|0,0:0|0:0,0:0:0:0:
226,197,24996,1,2,0:2:0:0:
234,115,25153,1,2,0:2:0:0:
144,222,25311,5,2,1:2:0:0:
171,61,25469,1,2,0:2:0:0:
257,275,25627,1,2,0:2:0:0:
234,115,25785,1,2,0:2:0:0:
175,301,25943,1,10,0:2:0:0:
99,100,26101,1,2,0:2:0:0:
246,368,26259,2,0,P|285:362|317:340,1,78.7500030040742,2|0,0:2|0:0,0:0:0:0:
186,227,26575,2,0,P|169:261|175:302,1,78.7500030040742,2|0,1:2|0:0,0:0:0:0:
392,288,26890,2,0,P|336:249|252:278,2,157.500006008148,2|10|0,0:2|0:2|0:0,0:0:0:0:
455,368,27680,2,0,L|467:387,2,19.6875007510186
392,288,27838,6,0,B|370:233|370:233|391:123,1,157.500006008148,6|0,1:2|0:0,0:0:0:0:
504,80,28311,1,2,0:0:0:0:
504,80,28469,2,0,L|401:73,1,78.7500030040742,8|0,0:0|0:0,0:0:0:0:
198,24,28785,2,0,B|265:24|265:24|291:44|291:44|351:44,1,157.500006008148,2|0,0:0|1:0,0:0:0:0:
248,138,29259,1,0,0:0:0:0:
426,75,29417,2,0,P|435:37|426:-1,1,78.7500030040742
248,138,29732,2,0,P|238:175|247:213,1,78.7500030040742,8|0,0:0|0:0,0:0:0:0:
341,273,30048,1,2,0:2:0:0:
338,176,30206,1,2,0:2:0:0:
252,300,30364,6,0,L|244:378,1,78.7500030040742,2|0,1:2|0:0,0:0:0:0:
154,227,30680,2,0,L|161:305,1,78.7500030040742,2|0,0:2|0:0,0:0:0:0:
239,136,30996,2,0,B|249:163|249:163|247:214,1,78.7500030040742,10|0,0:2|0:0,0:0:0:0:
243,378,31311,1,2,0:2:0:0:
145,132,31469,1,2,0:0:0:0:
330,308,31627,2,0,P|368:302|400:280,1,78.7500030040742,2|0,1:2|0:0,0:0:0:0:
349,147,31943,2,0,P|334:183|338:222,1,78.7500030040742,2|0,0:2|0:0,0:0:0:0:
494,195,32259,2,0,L|397:204,1,78.7500030040742,10|0,0:0|0:0,0:0:0:0:
330,308,32575,1,0,0:0:0:0:
403,362,32732,2,0,L|422:364,2,19.6875007510186
244,320,32890,6,0,P|265:248|337:221,1,157.500006008148,6|0,1:2|0:0,0:0:0:0:
157,304,33364,1,2,0:0:0:0:
157,304,33522,2,0,B|137:314|137:314|69:296,1,78.7500030040742,8|0,0:0|0:0,0:0:0:0:
230,88,33838,2,0,B|230:219|230:219|208:203,1,157.500006008148,2|0,0:0|1:0,0:0:0:0:
123,25,34311,1,0,0:0:0:0:
208,203,34469,2,0,P|247:204|283:190,1,78.7500030040742,0|0,0:0|0:0,0:0:0:0:
117,128,34785,2,0,L|25:137,1,78.7500030040742,8|0,0:0|0:0,0:0:0:0:
115,211,35101,1,2,0:2:0:0:
214,116,35259,1,2,0:2:0:0:
200,288,35417,5,2,1:2:0:0:
117,128,35575,1,2,0:2:0:0:
284,189,35732,1,2,0:2:0:0:
116,291,35890,1,2,0:2:0:0:
214,116,36048,1,10,0:2:0:0:
257,348,36206,1,2,0:2:0:0:
117,128,36364,2,0,P|120:89|142:56,1,78.7500030040742,2|0,0:2|0:0,0:0:0:0:
169,196,36680,2,0,P|133:212|94:209,1,78.7500030040742,2|0,1:2|0:0,0:0:0:0:
214,116,36996,2,0,B|250:149|250:149|250:257,2,157.500006008148,2|8|0,0:2|0:0|0:0,0:0:0:0:
111,34,37785,2,0,L|111:5,2,19.6875007510186
38,135,37943,5,14,0:0:0:0:
99,268,38101,1,8,0:0:0:0:
214,116,38259,1,8,0:0:0:0:
15,235,38417,5,10,0:0:0:0:
29,55,38575,1,8,0:0:0:0:
99,268,38732,1,8,0:0:0:0:
198,21,38890,5,10,0:0:0:0:
190,300,39048,1,10,0:0:0:0:
114,78,39206,1,10,0:0:0:0:
342,135,39364,1,10,0:0:0:0:
83,176,39522,2,0,P|44:172|10:152,1,78.7500030040742,10|0,0:0|0:0,0:0:0:0:
261,264,39838,2,0,P|277:299|276:338,1,78.7500030040742,10|0,0:0|0:0,0:0:0:0:
249,66,40153,2,0,P|271:34|305:15,1,78.7500030040742,10|0,0:0|0:0,0:0:0:0:
202,176,40469,5,2,0:0:0:0:
202,176,41101,1,2,0:0:0:0:
202,176,41732,1,2,0:0:0:0:
202,176,42364,1,10,0:0:0:0:
354,250,42680,6,0,L|354:292,1,39.375
296,172,42996,6,0,P|343:152|395:160,1,105,6|0,1:2|0:0,0:0:0:0:
264,274,43311,2,0,P|216:293|164:285,1,105,2|0,0:0|0:0,0:0:0:0:
211,95,43627,2,0,L|201:216,1,105,10|0,0:2|0:0,0:0:0:0:
84,377,43943,2,0,L|75:272,1,105,2|0,0:0|0:0,0:0:0:0:
163,24,44259,2,0,P|212:9|263:27,1,105,2|0,1:2|0:0,0:0:0:0:
286,47,44496,1,2,0:0:0:0:
286,47,44575,1,2,1:2:0:0:
314,261,44732,1,2,0:0:0:0:
211,95,44890,1,10,0:0:0:0:
220,218,45048,1,2,0:0:0:0:
387,15,45206,2,0,P|455:51|471:126,1,157.5,2|0,1:2|0:0,0:0:0:0:
467,213,45522,6,0,L|456:341,1,105,2|0,1:2|0:0,0:0:0:0:
220,218,45838,2,0,L|209:90,1,105,2|0,0:0|0:0,0:0:0:0:
303,340,46153,2,0,P|257:365|205:368,1,105,10|0,0:2|0:0,0:0:0:0:
21,156,46469,2,0,L|125:166,1,105,2|0,0:0|0:0,0:0:0:0:
429,240,46785,2,0,L|324:250,1,105,2|0,1:2|0:0,0:0:0:0:
297,235,47022,1,2,0:0:0:0:
297,235,47101,1,2,1:2:0:0:
174,98,47259,1,2,0:0:0:0:
369,157,47417,1,10,0:0:0:0:
135,244,47575,1,2,0:0:0:0:
340,79,47732,2,0,B|407:79|407:79|431:96|431:96|493:97,1,157.5,2|0,1:2|0:0,0:0:0:0:
458,176,48048,6,0,P|463:227|493:270,1,105,2|0,1:2|0:0,0:0:0:0:
492,96,48364,2,0,P|486:44|456:1,1,105,2|0,0:0|0:0,0:0:0:0:
264,149,48680,2,0,L|368:156,1,105,10|0,0:2|0:0,0:0:0:0:
172,100,48996,2,0,L|68:107,1,105,2|0,0:0|0:0,0:0:0:0:
166,309,49311,2,0,L|175:200,1,105,2|0,1:2|0:0,0:0:0:0:
160,179,49548,1,2,0:0:0:0:
160,179,49627,1,2,1:2:0:0:
94,377,49785,1,2,0:0:0:0:
0,156,49943,1,10,0:0:0:0:
3,344,50101,1,2,0:0:0:0:
88,98,50259,2,0,P|134:75|186:77,1,105,2|0,1:2|0:0,0:0:0:0:
386,221,50575,5,2,1:2:0:0:
160,179,50732,1,0,0:0:0:0:
373,123,50890,2,0,L|467:130,1,94.499997116089,0|0,0:0|0:0,0:0:0:0:
319,49,51206,2,0,P|281:106|292:174,2,141.749995674133,10|2|0,0:0|0:0|0:0,0:0:0:0:
380,210,51838,2,0,P|305:262|219:235,1,188.999994232178,2|0,0:2|1:2,0:0:0:0:
54,374,52469,2,0,L|62:256,1,94.499997116089,10|0,0:0|0:0,0:0:0:0:
102,122,52785,6,0,L|97:81,1,39.375,0|0,1:2|0:0,0:0:0:0:
133,229,53101,6,0,P|143:279|189:315,1,105,6|0,1:2|0:0,0:0:0:0:
102,122,53417,2,0,P|51:113|0:135,1,105,2|0,0:0|0:0,0:0:0:0:
210,147,53732,1,10,0:2:0:0:
38,211,53890,1,0,0:0:0:0:
244,234,54048,1,2,0:0:0:0:
102,122,54206,1,0,0:0:0:0:
124,333,54364,2,0,L|134:214,1,105,2|0,1:2|0:0,0:0:0:0:
157,54,54680,1,2,1:2:0:0:
244,234,54838,1,2,0:0:0:0:
101,121,54996,2,0,P|74:78|77:26,1,105,10|2,0:0|0:0,0:0:0:0:
103,7,55232,1,0,0:0:0:0:
103,7,55311,1,2,1:2:0:0:
133,228,55469,1,0,0:0:0:0:
261,42,55627,6,0,L|156:53,1,105,2|0,1:2|0:0,0:0:0:0:
354,97,55943,2,0,L|458:108,1,105,2|0,0:0|0:0,0:0:0:0:
273,240,56259,2,0,L|262:111,1,105,10|0,0:2|0:0,0:0:0:0:
467,3,56575,2,0,L|458:107,1,105,2|0,0:0|0:0,0:0:0:0:
342,309,56890,2,0,P|295:330|243:328,1,105,2|0,1:2|0:0,0:0:0:0:
218,303,57127,1,2,0:0:0:0:
218,303,57206,1,2,1:2:0:0:
287,82,57364,1,2,0:0:0:0:
273,240,57522,1,10,0:0:0:0:
197,45,57680,1,2,0:0:0:0:
350,178,57838,2,0,B|394:203|394:203|499:186,1,157.5,2|0,1:2|0:0,0:0:0:0:
489,104,58153,6,0,L|476:-17,1,105,2|0,1:2|0:0,0:0:0:0:
350,179,58469,2,0,L|339:283,1,105,2|0,0:0|0:0,0:0:0:0:
398,88,58785,1,10,0:2:0:0:
436,260,58943,1,0,0:0:0:0:
246,178,59101,1,2,0:0:0:0:
350,179,59259,1,0,0:0:0:0:
188,107,59417,2,0,L|68:99,1,105,2|0,1:2|0:0,0:0:0:0:
192,250,59732,1,2,1:2:0:0:
299,105,59890,1,2,0:0:0:0:
100,248,60048,2,0,P|109:300|143:339,1,105,10|2,0:0|0:0,0:0:0:0:
180,339,60285,1,0,0:0:0:0:
180,339,60364,1,2,1:2:0:0:
188,107,60522,1,0,0:0:0:0:
275,291,60680,6,0,P|355:273|429:310,1,168,6|2,1:2|0:0,0:0:0:0:
366,362,61311,2,0,B|346:319|346:319|364:215,1,125.999996154785,10|2,0:0|0:0,0:0:0:0:
412,170,61943,2,0,P|371:162|338:136,1,84,2|2,0:0|0:0,0:0:0:0:
352,127,63201,6,0,L|343:222,1,85.3124960947039,2|0,0:0|0:0,0:0:0:0:
266,280,63477,2,0,L|251:141,1,136.499993751526,2|0,0:0|0:0,0:0:0:0:
256,57,63872,2,0,P|222:60|192:80,1,68.2499968757631,2|0,0:0|0:0,0:0:0:0:
168,160,64109,2,0,B|156:260|156:260|144:243|129:235,1,136.499993751526,2|0,0:0|0:0,0:0:0:0:
65,175,64504,2,0,L|58:94,1,68.2499968757631,2|0,0:0|0:0,0:0:0:0:
80,25,64741,2,0,P|146:29|193:77,1,136.499993751526,2|0,0:0|0:0,0:0:0:0:
254,144,65135,2,0,L|264:235,1,68.2499968757631,2|0,0:0|0:0,0:0:0:0:
336,277,65372,2,0,L|346:126,1,136.499993751526,2|0,0:0|0:0,0:0:0:0:
397,35,65767,6,0,P|423:55|440:85,1,68.2499968757631,2|0,0:0|0:0,0:0:0:0:
463,178,66004,2,0,L|451:320,1,136.499993751526,2|0,0:0|0:0,0:0:0:0:
370,369,66398,2,0,P|336:374|303:366,1,68.2499968757631,2|0,0:0|0:0,0:0:0:0:
221,324,66635,2,0,B|175:338|175:338|80:310,1,136.499993751526,2|0,0:0|0:0,0:0:0:0:
33,236,67030,2,0,L|42:140,1,68.2499968757631,2|0,0:0|0:0,0:0:0:0:
59,72,67267,2,0,P|112:50|188:91,1,136.499993751526,2|2,0:0|0:0,0:0:0:0:
227,162,67662,2,0,L|248:230,1,68.2499968757631,2|0,0:0|0:0,0:0:0:0:
298,312,67898,2,0,B|314:342|314:342|327:257,1,119.437494532585,2|0,0:0|0:0,0:0:0:0:
328,117,68254,6,0,P|394:125|438:175,1,136.499993751526,2|2,0:0|0:0,0:0:0:0:
438,175,68925,2,0,L|447:38,1,136.499993751526,2|2,0:0|0:0,0:0:0:0:
328,117,69438,2,0,L|247:111,1,68.2499968757631,2|0,0:0|0:0,0:0:0:0:
164,193,69754,2,0,P|232:241|312:220,1,170.624992189408,2|0,0:0|0:0,0:0:0:0:
311,220,70464,2,0,L|306:306,1,68.2499968757631,2|0,0:0|0:0,0:0:0:0:
67,219,70780,6,0,P|74:153|150:103,1,159.249992710114,2|2,0:0|0:0,0:0:0:0:
146,103,71464,2,0,L|15:93,1,113.749994792938,2|2,0:0|0:0,0:0:0:0:
244,26,71964,2,0,P|239:107|312:151,1,170.624992189408,2|2,0:0|0:0,0:0:0:0:
296,149,73306,6,0,P|332:163|370:159,1,78.7500030040742,6|0,1:2|0:0,0:0:0:0:
259,75,73622,1,2,0:0:0:0:
245,211,73780,1,0,0:0:0:0:
347,68,73938,2,0,P|336:30|308:3,1,78.7500030040742,2|0,0:0|0:0,0:0:0:0:
206,146,74254,2,0,P|216:183|244:210,1,78.7500030040742,10|0,0:0|0:0,0:0:0:0:
422,258,74570,2,0,L|343:248,1,78.7500030040742,2|0,1:2|0:0,0:0:0:0:
240,293,74885,1,0,0:0:0:0:
323,165,75043,1,0,0:0:0:0:
311,347,75201,2,0,P|261:377|203:373,1,118.125004506111,2|0,0:0|0:0,0:0:0:0:
188,363,75517,2,0,L|83:355,1,78.7500030040742,10|0,0:0|0:0,0:0:0:0:
235,214,75833,6,0,L|242:332,1,78.7500030040742,6|0,1:2|0:0,0:0:0:0:
343,248,76148,1,2,0:0:0:0:
323,165,76306,1,0,0:0:0:0:
161,287,76465,2,0,L|239:292,1,78.7500030040742,2|0,0:0|0:0,0:0:0:0:
219,133,76780,2,8,P|183:149|159:180,1,78.7500030040742,10|0,0:0|0:0,0:0:0:0:
343,248,77096,2,0,P|378:232|402:201,1,78.7500030040742,2|0,1:2|0:0,0:0:0:0:
323,165,77412,1,2,0:0:0:0:
235,214,77570,1,0,0:0:0:0:
466,139,77727,2,0,B|477:93|477:93|465:17,1,118.125004506111,2|0,0:0|0:0,0:0:0:0:
442,17,78043,2,0,L|351:9,1,78.7500030040742,10|0,0:0|0:0,0:0:0:0:
155,217,78359,6,0,P|121:237|82:238,1,78.7500030040742,2|0,1:2|0:0,0:0:0:0:
180,136,78675,2,0,P|214:154|234:187,1,78.7500030040742,2|8,0:0|0:0,0:0:0:0:
98,155,78991,2,0,L|103:72,1,78.7500030040742,2|0,1:2|0:0,0:0:0:0:
261,114,79306,1,2,0:0:0:0:
155,217,79464,1,10,0:0:0:0:
203,56,79622,2,0,P|236:36|275:35,1,78.7500030040742,0|0,1:2|0:0,0:0:0:0:
487,46,79938,2,0,B|437:82|437:82|341:83,1,157.500006008148,2|0,0:0|1:0,0:0:0:0:
148,269,80569,2,0,L|158:217,1,52.5000020027161,10|0,0:0|0:0,0:0:0:0:
260,113,80780,1,2,0:0:0:0:
260,113,83412,5,2,0:0:0:0:
260,113,84043,1,2,0:0:0:0:
260,113,84675,1,2,0:0:0:0:
260,113,85306,1,2,0:0:0:0:
181,297,85622,6,0,L|178:340,1,39.375
132,207,85938,6,0,P|181:192|232:205,1,105,6|0,1:2|0:0,0:0:0:0:
404,290,86254,2,0,P|355:305|304:292,1,105,2|0,0:0|0:0,0:0:0:0:
353,75,86570,2,0,L|346:193,1,105,10|0,0:0|0:0,0:0:0:0:
244,383,86885,1,2,1:2:0:0:
231,204,87043,1,2,0:0:0:0:
404,290,87201,2,0,L|514:301,1,105,2|0,1:2|0:0,0:0:0:0:
346,179,87517,1,2,1:2:0:0:
353,384,87675,1,2,0:0:0:0:
452,194,87833,2,0,P|442:143|410:101,1,105,10|0,0:0|1:0,0:0:0:0:
241,167,88148,2,0,L|383:182,1,105,2|0,0:0|1:0,0:0:0:0:
469,32,88464,5,2,1:2:0:0:
390,266,88622,1,2,0:0:0:0:
306,89,88780,2,0,L|424:102,1,105,2|0,0:0|0:0,0:0:0:0:
236,27,89096,1,10,0:0:0:0:
291,260,89254,1,2,0:0:0:0:
306,89,89412,1,2,1:2:0:0:
215,309,89570,2,0,L|110:318,1,105,2|0,0:0|1:0,0:0:0:0:
361,191,89885,1,2,0:0:0:0:
77,235,90043,1,2,1:2:0:0:
388,281,90201,1,2,0:0:0:0:
113,139,90359,1,10,0:0:0:0:
321,346,90517,1,2,0:0:0:0:
202,94,90675,2,0,P|144:44|68:51,1,157.5,2|0,1:2|0:0,0:0:0:0:
0,117,90991,6,0,L|11:244,1,105,6|0,1:2|0:0,0:0:0:0:
289,142,91306,2,0,L|298:37,1,105,2|0,0:0|0:0,0:0:0:0:
226,247,91622,2,0,P|274:265|326:258,1,105,10|0,0:0|0:0,0:0:0:0:
371,88,91938,1,2,1:2:0:0:
417,315,92096,1,2,0:0:0:0:
466,101,92254,2,0,P|481:51|508:7,1,105,2|0,1:2|0:0,0:0:0:0:
480,234,92570,1,2,1:2:0:0:
289,142,92727,1,2,0:0:0:0:
417,315,92885,2,0,P|461:339|524:336,1,105,10|0,0:0|1:2,0:0:0:0:
386,165,93201,2,0,P|342:141|279:144,1,105,2|0,0:0|1:2,0:0:0:0:
83,260,93517,6,0,B|210:204|212:309|326:257,1,252,2|0,1:2|0:0,0:0:0:0:
430,234,94148,2,0,P|432:275|417:314,1,84,10|0,0:0|0:0,0:0:0:0:
385,332,94385,1,2,0:0:0:0:
385,332,94464,2,0,L|276:346,1,84,0|0,1:2|0:0,0:0:0:0:
160,264,94780,2,0,L|268:278,1,84,2|0,1:2|0:0,0:0:0:0:
82,205,95096,2,0,P|65:243|64:285,1,84,0|0,1:2|0:0,0:0:0:0:
157,171,95412,2,0,P|132:139|94:122,1,84,10|0,0:0|1:2,0:0:0:0:
243,275,95727,6,0,P|262:273|282:276,1,39.375
373,354,96043,6,0,L|365:238,1,105,6|0,1:2|0:0,0:0:0:0:
303,36,96359,2,0,L|296:140,1,105,2|0,0:0|0:0,0:0:0:0:
282,276,96675,1,10,0:0:0:0:
199,73,96833,1,0,0:0:0:0:
398,107,96991,1,2,1:2:0:0:
185,198,97148,1,2,0:0:0:0:
387,224,97306,2,0,P|438:217|480:186,1,105,2|0,1:2|0:0,0:0:0:0:
303,36,97622,1,2,1:2:0:0:
281,275,97780,1,2,0:0:0:0:
199,71,97938,2,0,L|94:72,1,105,10|0,0:0|1:2,0:0:0:0:
77,91,98175,1,0,0:0:0:0:
77,91,98254,1,2,0:0:0:0:
267,175,98412,1,0,1:2:0:0:
57,274,98570,5,2,1:2:0:0:
199,71,98727,1,2,0:0:0:0:
158,321,98885,2,0,P|127:362|79:384,1,105,2|0,0:0|0:0,0:0:0:0:
180,155,99201,1,10,0:0:0:0:
263,348,99359,1,2,0:0:0:0:
57,274,99517,1,2,1:2:0:0:
283,237,99675,2,0,L|401:253,1,105,2|0,0:0|1:0,0:0:0:0:
180,155,99991,1,2,0:0:0:0:
263,348,100148,1,2,1:2:0:0:
298,117,100306,1,2,0:0:0:0:
178,275,100464,1,10,0:0:0:0:
178,39,100622,1,2,0:0:0:0:
283,237,100780,2,0,B|346:266|346:266|468:254,1,157.5,2|0,1:2|0:0,0:0:0:0:
475,177,101096,6,0,L|483:57,1,105,6|0,1:2|0:0,0:0:0:0:
170,170,101412,2,0,L|177:274,1,105,2|0,0:0|0:0,0:0:0:0:
284,113,101727,1,10,0:0:0:0:
338,306,101885,1,2,0:0:0:0:
170,170,102043,1,2,1:2:0:0:
382,196,102201,1,2,0:0:0:0:
177,274,102359,2,0,L|55:260,1,105,2|0,1:2|0:0,0:0:0:0:
269,226,102675,1,2,1:2:0:0:
238,360,102833,1,2,0:0:0:0:
169,169,102991,2,0,P|165:116|177:65,1,105,10|0,0:0|0:0,0:0:0:0:
212,65,103227,1,0,0:0:0:0:
212,65,103306,1,2,0:0:0:0:
269,226,103464,1,2,1:2:0:0:
322,29,103622,5,6,1:2:0:0:
