osu file format v14

[General]
AudioFilename: audio.mp3
AudioLeadIn: 0
PreviewTime: 50588
Countdown: 0
SampleSet: Soft
StackLeniency: 0.7
Mode: 0
LetterboxInBreaks: 0
EpilepsyWarning: 1
WidescreenStoryboard: 1

[Editor]
DistanceSpacing: 1.5
BeatDivisor: 4
GridSize: 16
TimelineZoom: 1

[Metadata]
Title:SilentNight
TitleUnicode:きよしこの夜
Artist:JEM777
ArtistUnicode:JEM777
Creator:-Sh1n1-
Version:Wishes
Source:
Tags:vocaloid christmas winter hatsune miku xmas shini
BeatmapID:1495937
BeatmapSetID:706662

[Difficulty]
HPDrainRate:4
CircleSize:3
OverallDifficulty:4
ApproachRate:5
SliderMultiplier:1.2
SliderTickRate:1

[Events]
//Background and Video events
0,0,"XmasBG.jpg",0,0
//Break Periods
//Storyboard Layer 0 (Background)
//Storyboard Layer 1 (Fail)
//Storyboard Layer 2 (Pass)
//Storyboard Layer 3 (Foreground)
//Storyboard Sound Samples

[TimingPoints]
188,600,3,2,1,50,1,0
93788,-100,3,2,1,10,0,0
95588,-100,3,2,1,5,0,0

[Colours]
Combo1 : 151,181,198
Combo2 : 38,138,123
Combo3 : 39,167,216

[HitObjects]
83,232,7388,6,0,B|93:155|93:155|83:113,1,120,2|0,2:3|0:0,0:0:0:0:
157,61,8288,1,0,0:0:0:0:
231,112,8588,2,0,B|218:170,1,60,0|0,0:0|0:0,0:0:0:0:
217,260,9188,6,0,P|252:254|274:240,1,60,2|0,0:0|0:0,0:0:0:0:
341,301,9788,2,0,P|360:270|363:244,1,60,0|0,0:0|0:0,0:0:0:0:
453,249,10388,2,0,P|449:213|436:190,1,60,0|0,0:0|0:0,0:0:0:0:
356,157,10988,6,0,B|314:149|314:149|233:160,1,120,2|0,2:3|0:0,0:0:0:0:
148,176,11888,1,0,0:0:0:0:
65,139,12188,2,0,L|61:72,1,60,0|0,0:0|0:0,0:0:0:0:
151,85,12788,6,0,L|154:24,2,60,2|0|0,0:0|0:0|0:0,0:0:0:0:
148,176,13688,1,0,0:0:0:0:
147,265,13988,2,0,L|208:258,1,60,0|0,0:0|0:0,0:0:0:0:
269,193,14588,6,0,L|402:212,1,120,2|0,2:3|0:0,0:0:0:0:
472,180,15488,1,0,0:0:0:0:
477,90,15788,2,0,P|467:63|437:33,1,60,0|0,0:0|0:0,0:0:0:0:
356,44,16388,2,0,B|315:54|315:54|236:44,2,120,2|0|0,0:0|0:0|0:0,0:0:0:0:
472,180,18188,6,0,P|493:244|476:295,1,120,2|0,0:3|0:0,0:0:0:0:
392,319,19088,1,0,0:0:0:0:
310,280,19388,2,0,L|247:276,1,60,0|0,0:0|0:0,0:0:0:0:
196,348,19988,6,0,L|133:352,2,60,2|0|0,0:0|0:0|0:0,0:0:0:0:
250,276,20888,1,0,0:0:0:0:
194,205,21188,2,0,L|183:132,1,60,0|0,0:0|0:0,0:0:0:0:
174,55,21788,6,0,B|211:60|211:60|304:43,1,120,2|0,2:3|0:0,0:0:0:0:
380,27,22688,1,0,0:0:0:0:
465,55,22988,2,0,P|471:92|461:120,1,60,0|0,0:0|0:0,0:0:0:0:
392,167,23588,6,0,P|375:221|393:284,1,120,2|0,0:0|0:0,0:0:0:0:
433,359,24488,1,0,0:0:0:0:
343,361,24788,2,0,L|283:354,1,60,0|0,0:0|0:0,0:0:0:0:
194,369,25388,6,0,L|66:353,1,120,2|0,2:3|0:0,0:0:0:0:
43,269,26288,1,0,0:0:0:0:
73,184,26588,2,0,L|68:112,1,60,0|0,0:0|0:0,0:0:0:0:
62,34,27188,6,0,L|129:46,1,60,2|0,0:0|0:0,0:0:0:0:
198,90,27788,2,0,L|265:78,1,60,0|0,0:0|0:0,0:0:0:0:
335,34,28388,2,0,L|402:46,1,60,0|0,0:0|0:0,0:0:0:0:
482,65,28988,6,0,L|475:189,1,120,2|0,2:3|0:0,0:0:0:0:
444,269,29888,1,0,0:0:0:0:
354,269,30188,2,0,P|325:286|305:310,1,60
232,257,30788,6,0,P|253:195|231:138,1,120,2|0,0:0|0:0,0:0:0:0:
156,104,31688,1,0,0:0:0:0:
67,121,31988,2,0,L|-11:106,1,60,0|0,0:0|0:0,0:0:0:0:
9,199,32588,6,0,B|79:213|79:213|130:191,1,120,2|0,0:3|0:0,0:0:0:0:
204,155,33488,1,0,0:0:0:0:
283,197,33788,2,0,P|289:234|281:266,1,60,0|0,0:0|0:0,0:0:0:0:
279,345,34388,6,0,P|312:345|344:325,2,60,2|0|0,0:0|0:0|0:0,0:0:0:0:
203,295,35288,1,0,0:0:0:0:
130,242,35588,2,0,L|56:256,1,60,0|0,0:0|0:0,0:0:0:0:
50,165,36188,6,0,L|185:139,1,120,2|0,0:3|0:3,0:0:0:0:
251,175,37088,1,0,0:0:0:0:
333,210,37388,2,0,L|391:198,1,60,0|0,0:0|0:0,0:0:0:0:
479,220,37988,6,0,P|503:280|487:339,1,120,2|0,0:0|0:0,0:0:0:0:
411,374,38888,1,0,0:0:0:0:
321,365,39188,2,0,L|260:359,1,60,0|0,0:0|0:0,0:0:0:0:
172,346,39788,6,0,B|183:307|183:307|167:215,2,120,2|0|0,0:3|0:0|0:0,0:0:0:0:
47,215,41588,2,0,B|33:136|33:136|44:97,2,120,2|0|0,0:0|0:0|0:0,0:0:0:0:
170,347,43388,6,0,P|204:339|237:341,1,60,2|0,0:3|0:0,0:0:0:0:
320,338,43988,2,0,L|309:275,1,60,0|0,0:0|0:0,0:0:0:0:
239,224,44588,2,0,L|250:161,1,60,0|0,0:0|0:0,0:0:0:0:
261,75,45188,2,0,B|180:88|180:88|128:74,2,120,2|0|0,0:0|0:0|0:0,0:0:0:0:
256,192,46988,12,2,48788,0:0:0:0:
144,209,50588,6,0,L|132:87,1,120,2|0,0:3|0:0,0:0:0:0:
202,33,51488,1,0,0:0:0:0:
283,71,51788,2,0,B|345:63,1,60,0|0,0:0|0:0,0:0:0:0:
427,93,52388,6,0,P|434:131|426:159,1,60,2|0,0:0|0:0,0:0:0:0:
361,211,52988,2,0,P|354:249|362:277,1,60,0|0,0:0|0:0,0:0:0:0:
382,356,53588,2,0,L|316:368,1,60,0|0,0:0|0:0,0:0:0:0:
241,329,54188,6,0,L|123:355,1,120,2|0,0:3|0:0,0:0:0:0:
35,369,55088,1,0,0:0:0:0:
21,280,55388,2,0,L|15:209,1,60,0|0,0:0|0:0,0:0:0:0:
75,152,55988,6,0,L|81:81,2,60,2|0|0,0:0|0:0|0:0,0:0:0:0:
139,214,56888,1,0,0:0:0:0:
227,197,57188,2,0,L|297:188,1,60,0|0,0:0|0:0,0:0:0:0:
376,185,57788,6,0,L|364:304,1,120,2|0,0:3|0:0,0:0:0:0:
439,356,58688,1,0,0:0:0:0:
512,304,58988,2,0,L|505:245,1,60,0|0,0:0|0:0,0:0:0:0:
461,165,59588,2,0,L|472:45,2,120,2|0|0,0:0|0:0|0:0,0:0:0:0:
331,289,61388,6,0,B|271:299|271:271|205:290,1,120,2|0,0:3|0:0,0:0:0:0:
126,317,62288,1,0,0:0:0:0:
36,307,62588,2,0,P|42:275|65:248,1,60,0|0,0:0|0:0,0:0:0:0:
64,163,63188,6,0,P|34:165|8:180,2,60,2|0|0,0:0|0:0|0:0,0:0:0:0:
137,214,64088,1,0,0:0:0:0:
223,188,64388,2,0,L|218:112,1,60,0|0,0:0|0:0,0:0:0:0:
300,89,64988,6,0,L|308:208,1,120,2|0,0:3|0:0,0:0:0:0:
396,228,65888,1,0,0:0:0:0:
453,158,66188,2,0,L|519:150,1,60,0|0,0:0|0:0,0:0:0:0:
503,61,66788,6,0,L|384:77,1,120,2|0,0:0|0:0,0:0:0:0:
294,88,67688,1,0,0:0:0:0:
204,98,67988,2,0,P|212:128|235:157,1,60,0|0,0:0|0:0,0:0:0:0:
161,211,68588,6,0,P|124:154|115:101,1,120,2|0,0:3|0:0,0:0:0:0:
153,21,69488,1,0,0:0:0:0:
63,30,69788,2,0,L|0:17,1,60,0|0,0:0|0:0,0:0:0:0:
18,106,70388,6,0,P|22:141|16:177,1,60,2|0,0:0|0:0,0:0:0:0:
4,254,70988,2,0,L|62:241,1,60,0|0,0:0|0:0,0:0:0:0:
137,191,71588,2,0,L|195:203,1,60,0|0,0:0|0:0,0:0:0:0:
284,219,72188,6,0,L|276:93,1,120,2|0,0:3|0:0,0:0:0:0:
365,84,73088,1,0,0:0:0:0:
437,136,73388,2,0,L|431:199,1,60,0|0,0:0|0:0,0:0:0:0:
457,282,73988,6,0,B|396:298|396:261|339:281,1,120,2|0,0:0|0:0,0:0:0:0:
255,312,74888,1,0,0:0:0:0:
170,342,75188,2,0,L|112:324,1,60,0|0,0:0|0:0,0:0:0:0:
30,361,75788,6,0,P|23:303|54:253,1,120,2|0,0:3|0:0,0:0:0:0:
138,220,76688,1,0,0:0:0:0:
227,216,76988,2,0,L|222:153,1,60,0|0,0:0|0:0,0:0:0:0:
312,151,77588,6,0,L|316:91,2,60,2|0|0,0:0|0:0|0:0,0:0:0:0:
395,184,78488,1,0,0:0:0:0:
479,151,78788,2,0,L|474:91,1,60,0|0,0:0|0:0,0:0:0:0:
401,37,79388,6,0,B|357:44|357:44|274:31,1,120,2|0,0:3|0:0,0:0:0:0:
193,20,80288,1,0,0:0:0:0:
113,62,80588,2,0,P|107:89|115:124,1,60,0|0,0:0|0:0,0:0:0:0:
179,181,81188,6,0,P|199:239|174:300,1,120,2|0,0:0|0:0,0:0:0:0:
96,325,82088,1,0,0:0:0:0:
12,292,82388,2,0,P|6:262|12:230,1,60,0|0,0:0|0:0,0:0:0:0:
69,164,82988,6,0,L|27:49,2,120,2|0|0,0:3|0:0|0:0,0:0:0:0:
245,197,84788,2,0,L|247:74,2,120,2|0|0,0:0|0:0|0:0,0:0:0:0:
342,348,86588,6,0,L|407:368,1,60,2|0,0:3|0:0,0:0:0:0:
485,334,87188,2,0,P|494:301|486:271,1,60,0|0,0:0|0:0,0:0:0:0:
430,208,87788,2,0,P|421:175|429:145,1,60,0|0,0:0|0:0,0:0:0:0:
458,66,88388,2,0,L|335:62,2,120,2|0|0,0:0|0:0|0:0,0:0:0:0:
324,187,90188,6,0,L|263:203,1,60,2|0,0:3|0:0,0:0:0:0:
203,139,90788,2,0,L|142:123,1,60
56,112,91388,2,0,P|60:139|57:187,1,60
52,262,91988,1,2,0:0:0:0:
256,192,92288,12,0,96788,0:0:0:0:
