osu file format v14

[General]
AudioFilename: audio.mp3
AudioLeadIn: 0
PreviewTime: 50588
Countdown: 0
SampleSet: Soft
StackLeniency: 0.7
Mode: 2
LetterboxInBreaks: 0
EpilepsyWarning: 1
WidescreenStoryboard: 1

[Editor]
DistanceSpacing: 1
BeatDivisor: 4
GridSize: 16
TimelineZoom: 0.5999999

[Metadata]
Title:SilentNight
TitleUnicode:きよしこの夜
Artist:JEM777
ArtistUnicode:JEM777
Creator:-Sh1n1-
Version:Cup
Source:
Tags:vocaloid christmas winter hatsune miku xmas shini
BeatmapID:1494168
BeatmapSetID:706662

[Difficulty]
HPDrainRate:3
CircleSize:2
OverallDifficulty:5
ApproachRate:5
SliderMultiplier:1
SliderTickRate:2

[Events]
//Background and Video events
0,0,"XmasBG.jpg",0,0
//Break Periods
//Storyboard Layer 0 (Background)
//Storyboard Layer 1 (Fail)
//Storyboard Layer 2 (Pass)
//Storyboard Layer 3 (Foreground)
//Storyboard Sound Samples

[TimingPoints]
188,600,3,2,1,50,1,0
93788,-100,3,2,1,10,0,0
95588,-100,3,2,1,5,0,0

[Colours]
Combo1 : 151,181,198
Combo2 : 38,138,123
Combo3 : 39,167,216

[HitObjects]
397,329,7388,6,0,P|463:263|378:248,1,200,2|0,2:3|0:0,0:0:0:0:
275,154,9188,1,2,0:0:0:0:
375,86,9788,1,0,0:0:0:0:
475,138,10388,1,0,0:0:0:0:
315,324,10988,6,0,L|116:325,1,200,2|0,2:3|0:0,0:0:0:0:
235,190,12788,2,0,L|234:90,1,100,2|0,0:0|0:0,0:0:0:0:
135,86,13988,1,0,0:0:0:0:
295,359,14588,6,0,P|361:293|276:278,1,200,2|0,2:3|0:0,0:0:0:0:
173,166,16388,2,0,L|275:166,1,100,2|0,0:0|0:0,0:0:0:0:
373,165,17588,1,0,0:0:0:0:
214,73,18188,6,0,L|6:73,1,200,2|0,0:3|0:0,0:0:0:0:
134,247,19988,1,2,0:0:0:0:
234,247,20588,1,0,0:0:0:0:
334,247,21188,1,0,0:0:0:0:
174,142,21788,6,0,P|108:76|193:61,1,200,2|0,2:3|0:0,0:0:0:0:
336,284,23588,2,0,P|402:218|317:203,1,200,2|0,0:0|0:0,0:0:0:0:
174,83,25388,6,0,B|227:99|227:99|371:84,1,200,2|0,2:3|0:0,0:0:0:0:
251,199,27188,1,2,0:0:0:0:
351,198,27788,1,0,0:0:0:0:
451,197,28388,1,0,0:0:0:0:
291,347,28988,6,0,B|244:359|244:359|142:338|142:338|89:352,1,200,2|0,2:3|0:0,0:0:0:0:
256,242,30788,2,0,L|347:163,1,100,2|0,0:0|0:0,0:0:0:0:
232,148,31988,1,0,0:0:0:0:
72,45,32588,6,0,P|167:55|270:45,1,200,2|0,0:3|0:0,0:0:0:0:
151,193,34388,2,0,L|36:189,2,100,2|0|0,0:0|0:0|0:0,0:0:0:0:
311,315,36188,6,0,L|86:315,1,200,2|0,0:3|0:0,0:0:0:0:
271,205,37988,2,0,P|337:139|252:124,1,200,2|0,0:0|0:0,0:0:0:0:
109,205,39788,6,0,P|43:139|128:124,1,200,2|0,0:3|0:0,0:0:0:0:
271,315,41588,2,0,L|46:315,1,200,2|0,0:0|0:0,0:0:0:0:
231,216,43388,6,0,L|331:215,2,100,2|0|0,0:3|0:0|0:0,0:0:0:0:
71,144,45188,2,0,P|5:78|90:63,1,200,2|0,0:0|0:0,0:0:0:0:
256,192,46988,12,2,48788,0:0:0:0:
296,333,50588,6,0,P|362:267|277:252,1,200,2|0,0:3|0:0,0:0:0:0:
174,178,52388,1,2,0:0:0:0:
274,110,52988,1,0,0:0:0:0:
374,162,53588,1,0,0:0:0:0:
214,359,54188,6,0,P|148:293|233:278,1,200,2|0,0:3|0:0,0:0:0:0:
336,183,55988,2,0,L|335:79,1,100,2|0,0:0|0:0,0:0:0:0:
235,85,57188,1,0,0:0:0:0:
75,322,57788,6,0,P|9:256|94:241,1,200,2|0,0:3|0:0,0:0:0:0:
197,205,59588,2,0,L|195:105,1,100,2|0,0:0|0:0,0:0:0:0:
95,42,60788,1,0,0:0:0:0:
255,65,61388,6,0,L|463:65,1,200,2|0,0:3|0:0,0:0:0:0:
335,239,63188,1,2,0:0:0:0:
235,239,63788,1,0,0:0:0:0:
135,239,64388,1,0,0:0:0:0:
295,134,64988,6,0,P|361:68|276:53,1,200,2|0,0:3|0:0,0:0:0:0:
134,276,66788,2,0,P|68:210|153:195,1,200,2|0,0:0|0:0,0:0:0:0:
296,75,68588,6,0,B|243:91|243:91|99:76,1,200,2|0,0:3|0:0,0:0:0:0:
219,191,70388,1,2,0:0:0:0:
119,190,70988,1,0,0:0:0:0:
19,189,71588,1,0,0:0:0:0:
179,339,72188,6,0,B|226:351|226:351|328:330|328:330|381:344,1,200,2|0,0:3|0:0,0:0:0:0:
214,224,73988,1,2,0:0:0:0:
314,183,74588,1,0,0:0:0:0:
195,129,75188,1,0,0:0:0:0:
355,107,75788,6,0,P|260:117|157:107,1,200,2|0,0:3|0:0,0:0:0:0:
276,211,77588,1,2,0:0:0:0:
175,106,78188,1,0,0:0:0:0:
295,211,78788,1,0,0:0:0:0:
135,106,79388,6,0,P|63:151|133:199,1,200,2|0,0:3|0:0,0:0:0:0:
293,309,81187,2,0,L|93:309,1,200,2|0,0:0|0:0,0:0:0:0:
253,255,82988,6,0,L|453:255,1,200,2|0,0:3|0:0,0:0:0:0:
292,51,84789,2,0,P|220:96|290:144,1,200,2|0,0:0|0:0,0:0:0:0:
449,273,86588,6,0,L|349:274,1,100,2|0,0:3|0:0,0:0:0:0:
469,205,87788,1,0,0:0:0:0:
309,180,88388,2,0,P|243:114|328:99,1,200,2|0,0:0|0:0,0:0:0:0:
411,86,90188,6,0,L|518:85,2,100,2|0|0,0:3|0:0|0:0,0:0:0:0:
251,86,91988,1,2,0:0:0:0:
256,192,92288,12,0,96788,0:0:0:0:
