osu file format v14

[General]
AudioFilename: audio.mp3
AudioLeadIn: 0
PreviewTime: 50588
Countdown: 0
SampleSet: Soft
StackLeniency: 0.7
Mode: 2
LetterboxInBreaks: 0
EpilepsyWarning: 1
WidescreenStoryboard: 1

[Editor]
DistanceSpacing: 1
BeatDivisor: 4
GridSize: 16
TimelineZoom: 1

[Metadata]
Title:SilentNight
TitleUnicode:きよしこの夜
Artist:JEM777
ArtistUnicode:JEM777
Creator:-Sh1n1-
Version:Salad
Source:
Tags:vocaloid christmas winter hatsune miku xmas shini
BeatmapID:1494169
BeatmapSetID:706662

[Difficulty]
HPDrainRate:4
CircleSize:3
OverallDifficulty:6
ApproachRate:6
SliderMultiplier:1.2
SliderTickRate:2

[Events]
//Background and Video events
0,0,"XmasBG.jpg",0,0
//Break Periods
//Storyboard Layer 0 (Background)
//Storyboard Layer 1 (Fail)
//Storyboard Layer 2 (Pass)
//Storyboard Layer 3 (Foreground)
//Storyboard Sound Samples

[TimingPoints]
188,600,3,2,1,50,1,0
93788,-100,3,2,1,10,0,0
95588,-100,3,2,1,5,0,0

[Colours]
Combo1 : 151,181,198
Combo2 : 38,138,123
Combo3 : 39,167,216

[HitObjects]
137,206,7388,6,0,P|95:178|147:169,1,120,2|0,2:3|0:0,0:0:0:0:
223,170,8288,1,0,0:0:0:0:
307,123,8588,2,0,B|378:124,1,60,0|0,0:0|0:0,0:0:0:0:
271,142,9188,5,2,0:0:0:0:
221,170,9488,1,0,0:0:0:0:
223,227,9788,1,0,0:0:0:0:
274,254,10088,1,0,0:0:0:0:
358,338,10388,2,0,L|282:337,1,60,0|0,0:0|0:0,0:0:0:0:
69,73,10988,6,0,P|28:113|91:123,1,120,2|0,2:3|0:0,0:0:0:0:
153,193,11888,1,0,0:0:0:0:
237,200,12188,2,0,L|300:197,1,60
201,239,12788,5,2,0:0:0:0:
151,267,13088,1,0,0:0:0:0:
153,324,13388,1,0,0:0:0:0:
204,351,13688,1,0,0:0:0:0:
288,295,13988,2,0,L|362:295,1,60,0|0,0:0|0:0,0:0:0:0:
120,206,14588,6,0,L|0:206,1,120,2|0,2:3|0:0,0:0:0:0:
84,122,15488,1,0,0:0:0:0:
168,98,15788,2,0,L|249:97,1,60
325,307,16388,6,0,L|205:307,2,120,2|0|0,0:0|0:0|0:0,0:0:0:0:
133,203,18188,6,0,L|79:92,1,120,2|0,0:3|0:0,0:0:0:0:
164,44,19088,1,0,0:0:0:0:
249,76,19388,2,0,L|325:76,1,60,0|0,0:0|0:0,0:0:0:0:
213,288,19988,6,0,L|137:290,2,60,2|0|0,0:0|0:0|0:0,0:0:0:0:
297,288,20888,1,0,0:0:0:0:
393,297,21188,2,0,L|394:222,1,60,0|0,0:0|0:0,0:0:0:0:
165,170,21788,6,0,P|132:122|171:121,1,120,2|0,2:3|0:0,0:0:0:0:
250,47,22688,1,0,0:0:0:0:
165,50,22988,2,0,L|92:51,1,60,0|0,0:0|0:0,0:0:0:0:
201,275,23588,6,0,L|337:273,1,120,2|0,0:0|0:0,0:0:0:0:
237,203,24488,1,0,0:0:0:0:
153,122,24788,2,0,L|91:120,1,60,0|0,0:0|0:0,0:0:0:0:
321,97,25388,6,0,P|350:100|317:59,1,120,2|0,2:3|0:0,0:0:0:0:
237,77,26288,1,0,0:0:0:0:
153,263,26588,2,0,L|155:191,1,60
251,280,27188,6,0,L|251:199,1,60,2|0,0:0|0:0,0:0:0:0:
347,306,27788,2,0,L|347:237,1,60
251,280,28388,2,0,L|251:199,1,60,0|0,0:0|0:0,0:0:0:0:
23,94,28988,6,0,L|152:98,1,120,2|0,2:3|0:0,0:0:0:0:
227,101,29888,1,0,0:0:0:0:
311,102,30188,2,0,L|311:163,1,60,0|0,0:0|0:0,0:0:0:0:
215,262,30788,6,0,P|186:265|219:224,1,120,2|0,0:0|0:0,0:0:0:0:
299,234,31688,1,0,0:0:0:0:
383,209,31988,2,0,L|304:206,1,60,0|0,0:0|0:0,0:0:0:0:
95,163,32588,6,0,L|8:65,1,120,2|0,0:3|0:0,0:0:0:0:
100,41,33488,1,0,0:0:0:0:
184,76,33788,2,0,L|193:147,1,60,0|0,0:0|0:0,0:0:0:0:
95,296,34388,6,0,L|14:297,2,60,2|0|0,0:0|0:0|0:0,0:0:0:0:
179,240,35288,1,0,0:0:0:0:
263,177,35588,2,0,L|181:161,1,60,0|0,0:0|0:0,0:0:0:0:
432,133,36188,6,0,P|461:136|428:95,1,120,2|0,0:3|0:3,0:0:0:0:
348,113,37088,1,0,0:0:0:0:
432,265,37388,2,0,L|501:248,1,60,0|0,0:0|0:0,0:0:0:0:
261,332,37988,6,0,L|145:287,1,120,2|0,0:0|0:0,0:0:0:0:
234,237,38888,1,0,0:0:0:0:
318,201,39188,2,0,L|320:132,1,60,0|0,0:0|0:0,0:0:0:0:
91,155,39788,6,0,L|0:77,2,120,2|0|0,0:3|0:0|0:0,0:0:0:0:
273,289,41588,2,0,L|386:239,2,120,2|0|0,0:0|0:0|0:0,0:0:0:0:
93,352,43388,6,0,L|73:283,1,60,2|0,0:3|0:0,0:0:0:0:
172,190,43988,2,0,L|192:259,1,60
93,352,44588,2,0,L|73:283,1,60
305,158,45188,6,0,L|441:160,2,120,2|0|0,0:0|0:0|0:0,0:0:0:0:
256,192,46988,12,2,48788,0:0:0:0:
186,268,50588,6,0,P|144:240|196:231,1,120,2|0,0:3|0:0,0:0:0:0:
272,212,51488,1,0,0:0:0:0:
356,165,51788,2,0,B|291:156,1,60,0|0,0:0|0:0,0:0:0:0:
200,123,52388,5,2,0:0:0:0:
150,151,52688,1,0,0:0:0:0:
152,208,52988,1,0,0:0:0:0:
203,235,53288,1,0,0:0:0:0:
287,304,53588,2,0,L|210:304,1,60,0|0,0:0|0:0,0:0:0:0:
455,331,54188,6,0,P|492:316|439:281,1,120,2|0,0:3|0:0,0:0:0:0:
369,187,55088,1,0,0:0:0:0:
453,180,55388,2,0,L|516:183,1,60,0|0,0:0|0:0,0:0:0:0:
417,141,55988,5,2,0:0:0:0:
367,113,56288,1,0,0:0:0:0:
369,56,56588,1,0,0:0:0:0:
420,29,56888,1,0,0:0:0:0:
505,61,57188,2,0,L|431:61,1,60,0|0,0:0|0:0,0:0:0:0:
217,268,57788,6,0,L|133:175,1,120,2|0,0:3|0:0,0:0:0:0:
221,140,58688,1,0,0:0:0:0:
305,114,58988,2,0,L|282:55,1,60,0|0,0:0|0:0,0:0:0:0:
187,307,59588,6,0,L|67:307,2,120,2|0|0,0:0|0:0|0:0,0:0:0:0:
379,203,61388,6,0,L|433:92,1,120,2|0,0:3|0:0,0:0:0:0:
347,45,62288,1,0,0:0:0:0:
263,76,62588,2,0,L|187:76,1,60,0|0,0:0|0:0,0:0:0:0:
299,288,63188,6,0,L|375:290,2,60,2|0|0,0:0|0:0|0:0,0:0:0:0:
215,288,64088,1,0,0:0:0:0:
119,297,64388,2,0,L|118:222,1,60,0|0,0:0|0:0,0:0:0:0:
347,170,64988,6,0,L|346:35,1,120,2|0,0:3|0:0,0:0:0:0:
262,47,65888,1,0,0:0:0:0:
178,49,66188,2,0,L|181:126,1,60,0|0,0:0|0:0,0:0:0:0:
277,329,66788,6,0,L|405:283,1,120,2|0,0:0|0:0,0:0:0:0:
305,180,67688,1,0,0:0:0:0:
389,122,67988,2,0,L|451:120,1,60,0|0,0:0|0:0,0:0:0:0:
221,97,68588,6,0,P|192:100|225:59,1,120,2|0,0:3|0:0,0:0:0:0:
305,77,69488,1,0,0:0:0:0:
389,263,69788,2,0,L|387:191,1,60,0|0,0:0|0:0,0:0:0:0:
291,197,70388,5,2,0:0:0:0:
237,179,70688,1,0,0:0:0:0:
238,123,70988,1,0,0:0:0:0:
292,108,71288,2,0,L|363:108,2,60
64,154,72188,6,0,P|25:122|74:100,1,120,2|0,0:3|0:0,0:0:0:0:
154,100,73088,1,0,0:0:0:0:
238,101,73388,2,0,L|206:158,1,60
112,261,73988,6,0,P|83:264|116:223,1,120,2|0,0:0|0:0,0:0:0:0:
196,233,74888,1,0,0:0:0:0:
280,208,75188,2,0,L|356:208,1,60
111,156,75788,6,0,L|16:71,1,120,2|0,0:3|0:0,0:0:0:0:
105,41,76688,1,0,0:0:0:0:
189,76,76988,2,0,L|190:142,1,60,0|0,0:0|0:0,0:0:0:0:
93,273,77588,6,0,L|12:274,2,60,2|0|0,0:0|0:0|0:0,0:0:0:0:
177,215,78488,1,0,0:0:0:0:
261,154,78788,2,0,L|179:138,1,60,0|0,0:0|0:0,0:0:0:0:
430,110,79388,6,0,P|459:113|426:72,1,120,2|0,0:3|0:0,0:0:0:0:
346,90,80288,1,0,0:0:0:0:
430,242,80588,2,0,L|499:225,1,60,0|0,0:0|0:0,0:0:0:0:
259,300,81188,6,0,L|143:255,1,120,2|0,0:0|0:0,0:0:0:0:
232,205,82088,1,0,0:0:0:0:
316,169,82388,2,0,L|318:100,1,60,0|0,0:0|0:0,0:0:0:0:
89,123,82988,6,0,L|0:42,2,120,2|0|0,0:3|0:0|0:0,0:0:0:0:
271,257,84788,2,0,L|176:182,2,120,2|0|0,0:0|0:0|0:0,0:0:0:0:
451,293,86588,6,0,L|473:223,1,60,2|0,0:3|0:0,0:0:0:0:
373,202,87188,2,0,L|353:271,1,60
451,293,87788,2,0,L|471:224,1,60
239,105,88388,6,0,L|103:103,2,120,2|0|0,0:0|0:0|0:0,0:0:0:0:
383,279,90188,6,0,L|366:221,1,60,2|0,0:3|0:0,0:0:0:0:
264,203,90788,2,0,L|247:145,1,60
355,75,91388,2,0,L|375:144,1,60
143,187,91988,5,2,0:0:0:0:
256,192,92288,12,0,96788,0:0:0:0:
