osu file format v14

[General]
AudioFilename: audio.mp3
AudioLeadIn: 0
PreviewTime: 50588
Countdown: 0
SampleSet: Soft
StackLeniency: 0.7
Mode: 0
LetterboxInBreaks: 0
EpilepsyWarning: 1
WidescreenStoryboard: 1

[Editor]
DistanceSpacing: 1.2
BeatDivisor: 4
GridSize: 16
TimelineZoom: 0.5999999

[Metadata]
Title:SilentNight
TitleUnicode:きよしこの夜
Artist:JEM777
ArtistUnicode:JEM777
Creator:-Sh1n1-
Version:Easy
Source:
Tags:vocaloid christmas winter hatsune miku xmas shini
BeatmapID:1495936
BeatmapSetID:706662

[Difficulty]
HPDrainRate:2
CircleSize:2
OverallDifficulty:2
ApproachRate:3
SliderMultiplier:1
SliderTickRate:1

[Events]
//Background and Video events
0,0,"XmasBG.jpg",0,0
//Break Periods
//Storyboard Layer 0 (Background)
//Storyboard Layer 1 (Fail)
//Storyboard Layer 2 (Pass)
//Storyboard Layer 3 (Foreground)
//Storyboard Sound Samples

[TimingPoints]
188,600,3,2,1,50,1,0
93788,-100,3,2,1,10,0,0
95588,-100,3,2,1,5,0,0

[Colours]
Combo1 : 151,181,198
Combo2 : 38,138,123
Combo3 : 39,167,216

[HitObjects]
73,84,7388,6,0,B|121:103|121:103|276:79,1,200,2|0,2:3|0:0,0:0:0:0:
387,73,9188,2,0,L|394:177,1,100,2|0,0:0|0:0,0:0:0:0:
404,292,10388,1,0,0:0:0:0:
294,242,10988,6,0,B|196:211|197:278|95:243,1,200,2|0,2:3|0:0,0:0:0:0:
149,135,12788,2,0,P|157:108|150:36,2,100,2|0|0,0:0|0:0|0:0,0:0:0:0:
98,244,14588,6,0,B|196:277|195:210|293:241,1,200,2|0,2:3|0:0,0:0:0:0:
413,232,16388,2,0,P|431:181|417:129,1,100,2|0,0:0|0:0,0:0:0:0:
335,53,17588,1,0,0:0:0:0:
223,98,18188,6,0,B|164:113|164:113|102:71|24:117,1,200,2|0,0:3|0:0,0:0:0:0:
100,211,19988,2,0,B|112:258|112:258|101:314,2,100,2|0|0,0:0|0:0|0:0,0:0:0:0:
206,154,21788,6,0,B|236:251|236:251|217:352,1,200,2|0,2:3|0:0,0:0:0:0:
337,341,23588,2,0,B|355:244|355:244|325:147,1,200,2|0,2:3|0:0,0:0:0:0:
258,47,25388,6,0,B|311:31|311:31|455:46,1,200,2|0,2:3|0:0,0:0:0:0:
427,162,27188,2,0,P|416:211|429:261,1,100,2|0,0:0|0:0,0:0:0:0:
487,362,28388,1,0,0:0:0:0:
367,358,28988,6,0,B|218:349|218:349|165:363,1,200,2|0,2:3|0:0,0:0:0:0:
48,362,30788,2,0,L|42:263,1,100,2|0,0:0|0:0,0:0:0:0:
42,142,31988,1,0,0:0:0:0:
148,198,32588,6,0,P|241:233|339:204,1,200,2|0,0:3|0:0,0:0:0:0:
435,141,34388,2,0,P|454:187|451:237,2,100,2|0|0,0:0|0:0|0:0,0:0:0:0:
332,78,36188,6,0,B|268:63|268:63|134:79,1,200,2|0,0:3|0:0,0:0:0:0:
62,174,37988,2,0,B|126:189|126:189|260:173,1,200,2|0,0:0|0:0,0:0:0:0:
378,185,39788,6,0,P|433:274|368:334,1,200,2|0,0:3|0:0,0:0:0:0:
260,358,41588,2,0,B|126:342|126:342|62:357,1,200,2|0,0:0|0:0,0:0:0:0:
38,239,43388,6,0,L|27:133,2,100,2|0|0,0:3|0:0|0:0,0:0:0:0:
158,235,45188,2,0,L|136:20,1,200,2|0,0:0|0:0,0:0:0:0:
256,192,46988,12,0,48788,0:0:0:0:
139,332,50588,6,0,P|178:258|136:154,1,200,2|0,0:3|0:0,0:0:0:0:
79,50,52388,2,0,B|113:59|113:59|181:50,1,100,2|0,0:0|0:0,0:0:0:0:
297,41,53588,1,0,0:0:0:0:
416,35,54188,6,0,B|433:178|433:178|420:239,1,200,2|0,0:3|0:0,0:0:0:0:
397,350,55988,2,0,L|500:358,2,100,2|0|0,0:0|0:0|0:0,0:0:0:0:
285,306,57788,6,0,L|85:320,1,200,2|0,0:3|0:0,0:0:0:0:
11,225,59588,2,0,P|0:175|16:128,1,100,2|0,0:0|0:0,0:0:0:0:
83,31,60788,1,0,0:0:0:0:
193,77,61388,6,0,B|240:92|240:92|395:74,1,200,2|0,0:3|0:0,0:0:0:0:
508,57,63188,1,2,0:0:0:0:
500,176,63788,1,0,0:0:0:0:
492,296,64388,1,0,0:0:0:0:
387,354,64988,6,0,B|289:385|290:318|188:353,1,200,2|0,0:3|0:0,0:0:0:0:
78,312,66788,2,0,B|63:248|63:248|79:114,1,200,2|0,0:0|0:0,0:0:0:0:
174,43,68588,6,0,B|189:107|189:107|173:241,1,200,2|0,0:3|0:0,0:0:0:0:
261,321,70388,2,0,L|369:309,1,100,2|0,0:0|0:0,0:0:0:0:
480,321,71588,1,0,0:0:0:0:
430,211,72188,6,0,P|426:117|456:12,1,200,2|0,0:3|0:0,0:0:0:0:
337,43,73988,2,0,L|231:40,1,100,2|0,0:0|0:0,0:0:0:0:
117,36,75188,1,0,0:0:0:0:
33,122,75788,6,0,P|11:219|37:324,1,200,2|0,0:3|0:0,0:0:0:0:
142,364,77588,1,2,0:0:0:0:
252,318,78188,1,0,0:0:0:0:
363,364,78788,1,0,0:0:0:0:
473,315,79388,6,0,P|494:218|472:121,1,200,2|0,0:3|0:0,0:0:0:0:
362,169,81187,2,0,B|306:188|306:188|162:169,1,200,2|0,0:0|0:0,0:0:0:0:
158,49,82988,6,0,B|297:67|297:67|353:48,1,200,2|0,0:3|0:0,0:0:0:0:
471,26,84789,2,0,P|490:119|472:226,1,200,2|0,0:0|0:0,0:0:0:0:
419,329,86588,6,0,L|317:312,1,100,2|0,0:3|0:0,0:0:0:0:
204,281,87788,1,0,0:0:0:0:
99,340,88388,2,0,B|83:295|83:295|101:137,1,200,2|0,0:0|0:0,0:0:0:0:
191,65,90188,6,0,L|308:58,2,100,2|0|0,0:3|0:0|0:0,0:0:0:0:
77,25,91988,1,2,0:0:0:0:
256,192,92288,12,0,96788,0:0:0:0:
