osu file format v14

[General]
AudioFilename: audio.mp3
AudioLeadIn: 0
PreviewTime: 83720
Countdown: 0
SampleSet: Normal
StackLeniency: 1
Mode: 0
LetterboxInBreaks: 0
WidescreenStoryboard: 0

[Editor]
Bookmarks: 84,14629,29174,43720,58265,72811,87356,101902,116447,130993,145538,160084,174629,189174,203720,218265,232811
DistanceSpacing: 1
BeatDivisor: 4
GridSize: 4
TimelineZoom: 2.2

[Metadata]
Title:Lucid Dream
TitleUnicode:Lucid Dream
Artist:JBroadway
ArtistUnicode:JBroadway
Creator:gamescreator
Version:Dreamer
Source:Beat da Beat
Tags:
BeatmapID:1060101
BeatmapSetID:498053

[Difficulty]
HPDrainRate:8
CircleSize:4.5
OverallDifficulty:7
ApproachRate:9
SliderMultiplier:1.6
SliderTickRate:1

[Events]
//Background and Video events
0,0,"maxresdefault.jpg",0,0
//Break Periods
//Storyboard Layer 0 (Background)
//Storyboard Layer 1 (Fail)
//Storyboard Layer 2 (Pass)
//Storyboard Layer 3 (Foreground)
//Storyboard Sound Samples

[TimingPoints]
84,454.545454545455,4,1,0,100,1,0
87356,-200,4,1,0,100,0,0
88038,-50,4,1,0,100,0,0
89061,-100,4,1,0,100,0,0
90765,-200,4,1,0,100,0,0
91674,-50,4,1,0,100,0,0
92697,-100,4,1,0,100,0,0
94402,-200,4,1,0,100,0,0
95311,-50,4,1,0,100,0,0
96447,-100,4,1,0,100,0,0
98265,-200,4,1,0,100,0,0
99174,-50,4,1,0,100,0,0
100084,-100,4,1,0,100,0,0
101902,-200,4,1,0,100,0,0
102811,-50,4,1,0,100,0,0
105538,-200,4,1,0,100,0,0
106447,-50,4,1,0,100,0,0
107356,-100,4,1,0,100,0,0
109174,-200,4,1,0,100,0,0
110084,-50,4,1,0,100,0,0
110993,-100,4,1,0,100,0,0
112811,-200,4,1,0,100,0,0
113720,-50,4,1,0,100,0,0
114629,-100,4,1,0,100,0,0
115538,-133.333333333333,4,1,0,100,0,0
145084,-100,4,1,0,100,0,0
145538,-200,4,1,0,100,0,0
146447,-50,4,1,0,100,0,0
149174,-200,4,1,0,100,0,0
150084,-50,4,1,0,100,0,0
150993,-200,4,1,0,100,0,0
153720,-66.6666666666667,4,1,0,100,0,0
154629,-100,4,1,0,100,0,0
156447,-200,4,1,0,100,0,0
157356,-100,4,1,0,100,0,0
157924,-50,4,1,0,100,0,0
160084,-200,4,1,0,100,0,0
160993,-50,4,1,0,100,0,0
161902,-100,4,1,0,100,0,0
164629,-50,4,1,0,100,0,0
165538,-100,4,1,0,100,0,0
167356,-200,4,1,0,100,0,0
168265,-66.6666666666667,4,1,0,100,0,0
169174,-100,4,1,0,100,0,0
170993,-200,4,1,0,100,0,0
171902,-100,4,1,0,100,0,0
174629,-200,4,1,0,100,0,0
175538,-50,4,1,0,100,0,0
178265,-200,4,1,0,100,0,0
179174,-50,4,1,0,100,0,0

[Colours]
Combo1 : 128,128,255
Combo2 : 0,0,255

[HitObjects]
20,36,84,5,0,0:0:0:0:
336,80,538,1,0,0:0:0:0:
76,268,993,2,0,P|96:300|168:312,1,80
284,264,1447,1,0,0:0:0:0:
192,384,1674,1,0,0:0:0:0:
140,232,1902,1,0,0:0:0:0:
120,212,2811,1,0,0:0:0:0:
456,40,3720,6,0,P|416:76|368:92,2,80
456,40,5538,5,0,0:0:0:0:
456,40,6447,1,0,0:0:0:0:
24,336,7356,5,0,0:0:0:0:
332,252,7811,1,0,0:0:0:0:
40,120,8265,2,0,P|76:88|120:80,1,80
236,176,8720,1,0,0:0:0:0:
76,200,8947,1,0,0:0:0:0:
12,52,9174,1,0,0:0:0:0:
456,228,10084,1,0,0:0:0:0:
16,352,10993,6,0,P|20:300|48:252,2,80
16,352,12811,5,0,0:0:0:0:
16,352,13720,1,0,0:0:0:0:
456,232,14629,5,0,0:0:0:0:
216,241,14970,2,0,P|260:261|274:285,1,40
400,190,15311,1,0,0:0:0:0:
327,47,15538,2,0,P|283:67|269:91,1,40
290,60,15765,1,0,0:0:0:0:
145,129,15993,2,0,P|185:153|245:154,2,80
202,85,16788,5,0,0:0:0:0:
202,85,17129,1,0,0:0:0:0:
345,154,17356,2,0,P|323:169|296:177,1,40
99,288,17811,1,0,0:0:0:0:
243,219,18038,1,0,0:0:0:0:
83,204,18265,2,0,P|130:202|167:222,2,80
111,268,18947,5,0,0:0:0:0:
339,194,19288,1,0,0:0:0:0:
108,128,19629,1,0,0:0:0:0:
233,227,19856,1,0,0:0:0:0:
295,79,20084,2,0,P|260:105|200:107,2,80
234,43,20765,6,0,P|183:43|143:31,1,80
155,35,21106,1,0,0:0:0:0:
155,35,21447,1,0,0:0:0:0:
305,90,21674,1,0,0:0:0:0:
436,181,21902,5,0,0:0:0:0:
202,234,22243,2,0,P|221:223|245:223,1,40
238,221,22584,1,0,0:0:0:0:
353,110,22811,2,0,P|369:129|369:147,1,40
369,143,23038,1,0,0:0:0:0:
415,296,23265,2,0,B|369:285|326:329|316:331,2,80
394,364,24061,5,0,0:0:0:0:
148,176,24402,1,0,0:0:0:0:
218,35,24629,2,0,P|190:55|168:57,1,40
185,56,25084,1,0,0:0:0:0:
74,171,25311,1,0,0:0:0:0:
164,302,25538,2,0,P|199:271|208:221,2,80
138,236,26220,5,0,0:0:0:0:
224,48,26561,1,0,0:0:0:0:
153,59,26902,2,0,P|175:100|233:113,1,80
268,115,27356,2,0,P|261:72|209:50,2,80
415,224,28265,1,0,0:0:0:0:
102,292,28720,2,0,P|121:259|188:257,1,80
163,314,29174,5,0,0:0:0:0:
396,252,29515,2,0,P|392:228|360:212,1,40
381,217,29856,1,0,0:0:0:0:
336,64,30084,2,0,P|320:88|296:96,1,40
310,92,30311,1,0,0:0:0:0:
152,88,30538,2,0,P|200:112|216:168,2,80
148,160,31334,6,0,P|120:176|120:192,1,40
119,180,31674,1,0,0:0:0:0:
172,332,31902,2,0,P|192:324|208:304,1,40
400,172,32356,2,0,L|384:132,1,40
304,120,32584,2,0,L|318:157,1,40
340,236,32811,2,0,P|288:232|264:208,2,80
320,172,33493,5,0,0:0:0:0:
164,140,33720,2,0,P|160:160|184:196,1,40
368,304,34174,1,0,0:0:0:0:
432,156,34402,1,0,0:0:0:0:
296,240,34629,2,0,P|256:272|248:328,2,80
316,306,35311,1,0,0:0:0:0:
462,370,35538,6,0,P|473:351|477:308,1,40
442,95,35993,2,0,L|431:138,1,40
353,150,36220,2,0,L|362:111,1,40
385,34,36447,5,0,0:0:0:0:
148,80,36788,2,0,P|168:92|208:96,1,40
183,96,37129,1,0,0:0:0:0:
216,252,37356,2,0,L|272:228,1,40
320,284,37584,2,0,L|283:299,1,40
208,328,37811,1,0,0:0:0:0:
368,352,38038,1,0,0:0:0:0:
348,192,38265,5,0,0:0:0:0:
112,240,38606,2,0,P|131:235|151:238,1,40
151,238,38947,1,0,0:0:0:0:
212,92,39174,2,0,P|212:108|228:128,1,40
226,126,39629,1,0,0:0:0:0:
372,188,39856,1,0,0:0:0:0:
284,320,40084,6,0,P|248:296|240:240,1,80
304,256,40538,1,0,0:0:0:0:
176,160,40765,2,0,B|192:128|192:128|244:132|268:88,1,120
204,60,41447,1,0,0:0:0:0:
356,104,41674,1,0,0:0:0:0:
248,224,41902,2,0,P|280:252|348:244,2,80
308,188,42811,5,0,0:0:0:0:
308,188,43265,2,0,L|308:284,1,80
308,268,43720,5,0,0:0:0:0:
20,184,44061,2,0,P|44:172|76:172,1,40
56,170,44402,1,0,0:0:0:0:
236,84,44629,1,0,0:0:0:0:
332,260,44856,1,0,0:0:0:0:
388,68,45084,1,0,0:0:0:0:
232,196,45311,1,0,0:0:0:0:
428,168,45538,1,0,0:0:0:0:
168,320,45879,6,0,P|184:320|207:311,1,40
206,311,46220,1,0,0:0:0:0:
400,272,46447,2,0,L|388:220,1,40
140,68,46902,1,0,0:0:0:0:
272,220,47129,1,0,0:0:0:0:
312,276,47356,6,0,P|340:236|324:184,2,80
272,220,48038,2,0,B|256:200|256:200|184:208|160:136,1,120
236,128,48720,1,0,0:0:0:0:
180,320,48947,1,0,0:0:0:0:
180,320,49174,2,0,P|212:344|268:344,2,80
236,280,49856,1,0,0:0:0:0:
420,200,50084,6,0,P|400:184|388:156,1,40
104,88,50538,2,0,L|144:96,1,40
200,180,50765,2,0,L|160:172,1,40
160,172,50993,5,0,0:0:0:0:
456,136,51334,2,0,P|436:120|396:128,1,40
422,117,51674,1,0,0:0:0:0:
336,240,51902,1,0,0:0:0:0:
268,284,52129,1,0,0:0:0:0:
408,268,52356,1,0,0:0:0:0:
264,208,52584,1,0,0:0:0:0:
316,160,52811,1,0,0:0:0:0:
316,160,53265,2,0,P|276:132|220:136,1,80
260,196,53720,1,0,0:0:0:0:
260,196,54174,5,0,0:0:0:0:
72,128,54402,1,0,0:0:0:0:
260,60,54629,2,0,B|280:56|280:56|300:76|340:76,1,80
404,264,55084,2,0,B|369:264|349:244|349:244|329:248,1,80
404,264,55538,1,0,0:0:0:0:
404,264,55993,5,0,0:0:0:0:
244,172,56220,1,0,0:0:0:0:
316,188,56447,2,0,P|296:228|236:244,2,80
248,176,57129,1,0,0:0:0:0:
80,68,57356,1,0,0:0:0:0:
140,304,57811,2,0,B|160:260|160:260|224:252,1,80
380,188,58265,5,0,0:0:0:0:
184,144,58493,1,0,0:0:0:0:
240,336,58720,1,0,0:0:0:0:
308,148,58947,1,0,0:0:0:0:
160,284,59174,1,0,0:0:0:0:
160,284,59629,5,0,0:0:0:0:
356,236,59856,1,0,0:0:0:0:
380,172,60084,2,0,P|328:172|296:208,2,80
300,180,60993,1,0,0:0:0:0:
300,180,61447,2,0,B|272:188|272:188|264:204|216:208,1,80
226,206,61902,5,0,0:0:0:0:
156,148,62129,1,0,0:0:0:0:
224,88,62356,1,0,0:0:0:0:
164,264,62584,1,0,0:0:0:0:
248,304,62811,1,0,0:0:0:0:
312,272,63265,5,0,0:0:0:0:
480,164,63493,1,0,0:0:0:0:
488,364,63720,1,0,0:0:0:0:
488,364,64174,6,0,L|400:308,1,80
276,297,64629,2,0,L|344:340,1,80
344,256,65084,2,0,L|256:200,1,80
288,304,65538,5,0,0:0:0:0:
200,180,65765,2,0,B|192:192|144:184|144:184|128:200,1,80
152,268,66220,2,0,B|168:252|168:252|216:260|256:232,1,80
224,248,66902,1,0,0:0:0:0:
412,184,67129,1,0,0:0:0:0:
464,232,67356,2,0,P|480:192|464:136,2,80
412,184,68265,1,0,0:0:0:0:
412,184,68720,2,0,B|376:196|376:196|332:168,1,80
340,173,69174,5,0,0:0:0:0:
152,240,69402,1,0,0:0:0:0:
104,192,69629,2,0,P|144:168|192:184,1,80
175,172,70084,1,0,0:0:0:0:
175,172,70538,5,0,0:0:0:0:
340,284,70765,1,0,0:0:0:0:
328,84,70993,1,0,0:0:0:0:
328,84,71447,6,0,L|220:100,1,80
56,152,71902,2,0,L|164:168,1,80
328,212,72356,2,0,L|220:228,1,80
248,223,72811,5,0,0:0:0:0:
76,280,73038,1,0,0:0:0:0:
60,156,73265,1,0,0:0:0:0:
188,224,73493,1,0,0:0:0:0:
204,100,73720,1,0,0:0:0:0:
204,100,74174,5,0,0:0:0:0:
396,156,74402,1,0,0:0:0:0:
460,136,74629,2,0,P|460:180|428:216,2,80
460,136,75538,1,0,0:0:0:0:
460,136,75993,2,0,B|440:128|440:128|408:144|368:144,1,80
383,143,76447,5,0,0:0:0:0:
196,80,76674,1,0,0:0:0:0:
280,164,76902,1,0,0:0:0:0:
84,204,77129,1,0,0:0:0:0:
0,120,77357,1,0,0:0:0:0:
0,120,77811,6,0,L|52:212,1,80
39,189,78265,1,0,0:0:0:0:
436,228,78720,6,0,P|392:196|384:220,1,80
380,296,79174,6,0,P|429:273|412:254,1,80
340,216,79629,6,0,P|334:270|359:265,1,80
380,248,80084,5,0,0:0:0:0:
188,196,80311,1,0,0:0:0:0:
372,116,80538,1,0,0:0:0:0:
472,288,80765,1,0,0:0:0:0:
304,176,80993,1,0,0:0:0:0:
304,176,81447,5,0,0:0:0:0:
120,256,81674,1,0,0:0:0:0:
304,172,81902,1,0,0:0:0:0:
304,176,82356,5,0,0:0:0:0:
360,68,82584,1,0,0:0:0:0:
304,176,82811,5,0,0:0:0:0:
369,278,83039,1,0,0:0:0:0:
304,176,83265,5,0,0:0:0:0:
182,181,83493,1,0,0:0:0:0:
182,181,83720,5,0,0:0:0:0:
440,72,83947,1,0,0:0:0:0:
160,104,84174,1,0,0:0:0:0:
350,309,84401,1,0,0:0:0:0:
80,236,84629,1,0,0:0:0:0:
352,172,84856,1,0,0:0:0:0:
108,36,85084,1,0,0:0:0:0:
176,308,85311,1,0,0:0:0:0:
336,80,85538,2,0,B|312:96|312:96|312:116|288:128|288:128|276:172,2,80
288,140,86447,1,0,0:0:0:0:
288,140,86902,2,0,B|260:152|260:152|248:184|216:200,1,80
230,191,87356,6,0,P|179:175|205:221,1,120
280,352,88265,6,0,B|308:352|308:352|384:276,1,80
304,312,88493,6,0,B|328:298|328:298|356:194,1,80
304,264,88720,6,0,B|328:250|328:250|356:146,1,80
304,217,88948,6,0,B|318:192|318:192|290:88,1,80
280,172,89174,6,0,P|248:184|176:148,1,120
236,116,89856,1,0,0:0:0:0:
236,116,90084,6,0,P|201:162|211:220,1,120
268,176,90765,1,0,0:0:0:0:
268,176,90993,6,0,P|272:232|240:204,1,120
242,215,91902,6,0,P|180:220|168:180,1,80
212,200,92129,6,0,P|150:187|148:145,1,80
188,172,92357,6,0,P|131:144|141:103,1,80
169,142,92584,6,0,P|121:100|141:63,1,80
160,100,92811,6,0,B|188:104|188:104|168:44|276:112,1,120
248,95,93493,1,0,0:0:0:0:
344,180,93720,6,0,B|316:184|316:184|336:124|228:192,1,120
255,175,94402,1,0,0:0:0:0:
255,175,94629,6,0,B|252:184|252:184|256:192|256:192|252:200|252:200|256:208|256:208|252:216|252:216|256:224|256:224|252:232|252:232|256:240|256:240|252:248|252:248|256:256|256:256|252:264|252:264|256:272|256:272|252:280|252:280|256:288|256:288|256:300,1,120
253,282,95538,6,0,B|308:288|308:288|292:264,1,80
252,248,95765,6,0,B|197:254|197:254|213:230,1,80
252,208,95993,6,0,B|307:214|307:214|291:190,1,80
251,174,96220,6,0,B|196:180|196:180|212:156,1,80
252,144,96447,6,0,P|222:113|246:48,2,120
252,144,97356,6,0,P|279:193|246:240,2,120
252,144,98265,6,0,P|264:96|232:120,1,120
252,144,99174,6,0,P|208:152|156:216,1,80
227,254,99402,6,0,P|235:215|260:184,1,80
288,200,99629,6,0,P|296:244|360:296,1,80
399,222,99857,6,0,P|360:215|328:192,1,80
304,116,100084,6,0,B|260:120|260:120|224:140|224:140|168:136,1,120
189,137,100765,1,0,0:0:0:0:
167,252,100993,6,0,B|171:208|171:208|191:172|191:172|187:116,1,120
164,252,101674,1,0,0:0:0:0:
164,252,101902,6,0,B|104:236|104:236|116:296,1,120
204,316,102811,6,0,B|248:292|248:292|260:236,1,80
176,252,103038,6,0,B|146:245|146:245|122:201,1,80
196,180,103265,6,0,B|220:224|220:224|249:230,1,80
272,188,103492,6,0,B|278:158|278:158|322:134,1,80
364,192,103720,5,0,0:0:0:0:
152,80,104061,1,0,0:0:0:0:
168,320,104402,1,0,0:0:0:0:
140,164,104629,5,0,0:0:0:0:
352,52,104970,1,0,0:0:0:0:
336,292,105311,1,0,0:0:0:0:
196,192,105538,6,0,B|232:200|268:180|324:192,1,120
392,240,106447,6,0,L|296:232,1,80
276,188,106674,6,0,L|355:194,1,80
120,240,106902,6,0,L|216:232,1,80
236,188,107129,6,0,L|156:194,1,80
220,120,107356,6,0,B|212:80|232:52|132:80,2,120
292,120,108265,6,0,B|300:80|280:52|380:80,2,120
256,280,109174,6,0,B|248:256|248:256|256:240|256:240|248:220|248:220|256:200|256:200|248:180|248:180|256:160,1,120
156,92,110084,6,0,B|180:112|208:112|208:112|240:124,1,80
352,128,110311,6,0,B|328:148|300:148|300:148|268:160,1,80
156,160,110538,6,0,B|180:180|208:180|208:180|240:192,1,80
352,196,110765,6,0,B|328:216|300:216|300:216|268:228,1,80
168,364,110993,6,0,B|196:344|196:308|196:308|192:284|216:252,2,120
344,364,111902,6,0,B|316:344|316:308|316:308|320:284|296:252,2,120
256,64,112811,6,0,L|256:196,1,120
192,328,113720,6,0,B|176:288|176:288|176:250,1,80
244,252,113947,6,0,B|228:292|228:292|228:329,1,80
283,329,114174,6,0,B|284:292|284:292|268:252,1,80
335,250,114401,6,0,B|336:288|336:288|320:328,1,80
100,152,114629,5,0,0:0:0:0:
388,64,114970,1,0,0:0:0:0:
300,352,115311,1,0,0:0:0:0:
216,184,115538,6,0,P|288:160|256:240,1,180.000006866455
80,88,116447,6,0,P|124:84|152:96,1,60.0000022888184
208,144,116902,1,0,0:0:0:0:
128,184,117129,1,0,0:0:0:0:
140,260,117356,2,0,L|188:280,1,30.0000011444092
264,232,117811,2,0,L|209:206,1,60.0000022888184
96,232,118265,5,0,0:0:0:0:
200,176,118493,1,0,0:0:0:0:
84,148,118720,1,0,0:0:0:0:
200,176,118947,1,0,0:0:0:0:
312,224,119174,2,0,P|312:164|292:104,1,120.000004577637
293,107,119856,1,0,0:0:0:0:
218,107,120084,6,0,P|199:164|196:192,1,60.0000022888184
192,232,120538,1,0,0:0:0:0:
280,208,120765,1,0,0:0:0:0:
360,248,120993,2,0,L|348:208,1,30.0000011444092
388,88,121447,2,0,L|404:156,1,60.0000022888184
436,232,121902,5,0,0:0:0:0:
356,272,122129,1,0,0:0:0:0:
268,260,122356,1,0,0:0:0:0:
436,232,122584,1,0,0:0:0:0:
443,202,122811,2,0,L|431:250,1,30.0000011444092
436,232,123265,5,0,0:0:0:0:
284,176,123493,1,0,0:0:0:0:
284,176,123720,2,0,P|248:176|220:188,1,60.0000022888184
152,236,124174,1,0,0:0:0:0:
88,300,124402,1,0,0:0:0:0:
152,236,124629,6,0,L|144:200,1,30.0000011444092
200,84,125084,2,0,L|216:152,1,60.0000022888184
200,84,125538,5,0,0:0:0:0:
316,120,125765,1,0,0:0:0:0:
372,228,125993,1,0,0:0:0:0:
256,192,126220,1,0,0:0:0:0:
227,181,126447,2,0,L|259:193,1,30.0000011444092
376,252,126902,1,0,0:0:0:0:
228,272,127129,1,0,0:0:0:0:
228,272,127356,6,0,P|208:240|212:192,1,60.0000022888184
260,100,127811,1,0,0:0:0:0:
264,104,128038,2,0,P|258:133|241:157,1,60.0000022888184
32,216,128720,1,0,0:0:0:0:
84,288,128947,1,0,0:0:0:0:
141,276,129174,2,0,P|110:287|69:284,2,60.0000022888184
136,276,130084,1,0,0:0:0:0:
196,184,130538,2,0,B|200:220|200:220|216:252,1,60.0000022888184
300,264,130993,6,0,B|289:242|289:242|285:206,1,60.0000022888184
344,140,131447,1,0,0:0:0:0:
288,96,131674,2,0,P|360:72|416:152,1,180.000006866455
296,280,132811,1,0,0:0:0:0:
164,208,133038,1,0,0:0:0:0:
180,280,133265,1,0,0:0:0:0:
220,136,133493,1,0,0:0:0:0:
160,96,133720,2,0,P|212:68|280:96,1,120.000004577637
272,88,134402,1,0,0:0:0:0:
344,144,134629,6,0,P|308:160|268:168,1,60.0000022888184
208,204,135084,1,0,0:0:0:0:
352,240,135311,1,0,0:0:0:0:
336,265,135538,2,0,L|360:225,1,30.0000011444092
464,164,135993,2,0,L|432:216,1,60.0000022888184
432,215,136447,5,0,0:0:0:0:
376,144,136674,1,0,0:0:0:0:
312,280,136902,1,0,0:0:0:0:
368,208,137129,1,0,0:0:0:0:
304,144,137356,2,0,L|164:164,1,120.000004577637
185,160,138038,1,0,0:0:0:0:
128,228,138265,6,0,L|208:240,1,60.0000022888184
187,236,138720,1,0,0:0:0:0:
276,240,138947,2,0,P|352:256|304:200,1,180.000006866455
224,64,140084,1,0,0:0:0:0:
76,84,140311,1,0,0:0:0:0:
88,240,140538,1,0,0:0:0:0:
224,64,140765,1,0,0:0:0:0:
309,114,140993,2,0,P|239:103|229:38,1,120.000004577637
309,114,141674,1,0,0:0:0:0:
358,142,141902,6,0,P|326:116|290:116,2,60.0000022888184
358,142,142584,2,0,P|356:240|448:248,1,180.000006866455
408,192,143493,1,0,0:0:0:0:
192,214,143720,2,0,B|208:216|208:216|224:208|236:212|236:212|252:208,2,60.0000022888184
120,216,144629,1,0,0:0:0:0:
105,145,145084,2,0,P|101:193|127:220,1,80
256,348,145538,6,0,P|256:336|256:216,1,120
48,40,146447,6,0,B|72:52|72:52|104:48|104:48|144:64,1,80
211,147,146674,6,0,B|192:140|192:140|160:144|160:144|136:132,1,80
300,147,146902,6,0,B|320:140|320:140|352:144|352:144|376:132,1,80
464,40,147129,6,0,B|440:52|440:52|408:48|408:48|388:55,1,80
148,276,147356,5,0,0:0:0:0:
256,44,147697,1,0,0:0:0:0:
360,276,148038,1,0,0:0:0:0:
148,108,148265,5,0,0:0:0:0:
256,340,148606,1,0,0:0:0:0:
360,108,148947,1,0,0:0:0:0:
284,212,149174,6,0,P|248:168|280:172,1,120
140,304,150084,6,0,B|176:308|176:308|216:288,1,80
208,212,150311,6,0,B|212:176|212:176|192:136,1,80
320,136,150538,6,0,B|300:176|300:176|304:212,1,80
296,288,150765,6,0,B|336:308|336:308|372:304,1,80
140,304,150993,5,0,0:0:0:0:
256,264,151334,1,0,0:0:0:0:
372,304,151674,1,0,0:0:0:0:
372,80,151902,5,0,0:0:0:0:
256,120,152243,1,0,0:0:0:0:
140,80,152583,1,0,0:0:0:0:
316,192,152811,6,0,L|196:192,1,120
196,132,153720,6,0,L|196:208,3,60.0000022888184
316,252,154174,6,0,L|316:176,3,60.0000022888184
196,192,154629,6,0,L|328:192,2,120
316,128,155538,2,0,L|196:128,2,120
256,64,156447,2,0,L|256:192,1,120
292,292,157356,2,0,P|228:264|228:316,1,120
152,232,157924,2,0,P|256:176|372:280,1,240
136,140,158606,1,0,0:0:0:0:
372,92,158947,1,0,0:0:0:0:
256,200,159174,1,0,0:0:0:0:
256,56,159515,1,0,0:0:0:0:
256,296,159856,1,0,0:0:0:0:
256,124,160084,6,0,L|256:252,1,120
108,112,160993,6,0,B|148:112|148:112|192:124,1,80
404,168,161220,6,0,B|364:168|364:168|320:180,1,80
108,216,161447,6,0,B|148:216|148:216|186:205,1,80
404,272,161674,6,0,B|364:272|364:272|325:261,1,80
256,352,161902,6,0,L|256:224,1,120
256,160,162584,1,0,0:0:0:0:
204,108,162811,2,0,P|240:88|320:116,1,120
256,228,163493,1,0,0:0:0:0:
144,280,163720,2,0,P|256:324|368:276,1,240
148,192,164629,6,0,L|244:176,1,80
228,152,164856,6,0,L|216:72,1,80
296,72,165084,6,0,L|284:152,1,80
285,178,165311,6,0,L|363:191,1,80
388,256,165538,6,0,P|332:288|256:292,1,120
256,192,166220,1,0,0:0:0:0:
124,128,166447,2,0,P|180:96|256:92,1,120
256,192,167129,1,0,0:0:0:0:
256,312,167356,2,0,L|256:188,1,120
288,192,168265,6,0,P|328:188|380:196,3,60.0000022888184
224,192,168720,6,0,P|184:196|132:188,3,60.0000022888184
312,244,169174,6,0,B|296:212|296:212|324:164|324:164|312:124,2,120
200,140,170084,6,0,B|216:172|216:172|188:220|188:220|200:260,2,120
292,304,170993,6,0,P|228:332|220:304,1,120
212,200,171902,6,0,B|252:216|264:228|284:232|300:228|312:224|264:64,1,240
168,84,172811,5,0,0:0:0:0:
392,170,173152,1,0,0:0:0:0:
206,321,173493,1,0,0:0:0:0:
256,192,173720,5,0,0:0:0:0:
256,192,174174,5,0,0:0:0:0:
256,192,174629,6,0,P|180:204|180:180,1,120
72,52,175538,6,0,B|96:56|96:56|124:52|124:52|164:60,1,80
148,128,175765,6,0,B|172:124|172:124|200:128|200:128|240:120,1,80
220,48,175993,6,0,B|244:52|244:52|272:48|272:48|312:56,1,80
296,124,176220,6,0,B|320:120|320:120|348:124|348:124|388:116,1,80
391,189,176447,5,0,0:0:0:0:
190,310,176788,1,0,0:0:0:0:
185,75,177129,1,0,0:0:0:0:
120,194,177356,5,0,0:0:0:0:
326,308,177697,1,0,0:0:0:0:
321,73,178038,1,0,0:0:0:0:
256,192,178265,6,0,P|332:180|332:204,1,120
440,332,179174,6,0,B|416:328|416:328|388:332|388:332|348:324,1,80
364,256,179401,6,0,B|340:260|340:260|312:256|312:256|272:264,1,80
292,336,179629,6,0,B|268:332|268:332|240:336|240:336|200:328,1,80
216,260,179856,6,0,B|192:264|192:264|164:260|164:260|124:268,1,80
