osu file format v14

[General]
AudioFilename: audio.mp3
AudioLeadIn: 0
PreviewTime: 48925
Countdown: 0
SampleSet: Soft
StackLeniency: 0.7
Mode: 0
LetterboxInBreaks: 0
WidescreenStoryboard: 1

[Editor]
Bookmarks: 0,1606886628,8,6619236,6357094,7078005,2949236
DistanceSpacing: 1.2
BeatDivisor: 8
GridSize: 16
TimelineZoom: 3

[Metadata]
Title:Best Thing
TitleUnicode:Best Thing
Artist:JAWNY
ArtistUnicode:JAWNY
Creator:Kataryn
Version:vastly's Insane
Source:
Tags:english hip-hop pop rap indie alternative the story of hugo bluirre blarpblarp monsieursebas vastly
BeatmapID:3962066
BeatmapSetID:1917250

[Difficulty]
HPDrainRate:4.7
CircleSize:3.7
OverallDifficulty:7.2
ApproachRate:8.5
SliderMultiplier:2.8
SliderTickRate:1

[Events]
//Background and Video events
0,0,"love is a social construct made by the government to sell more flowers or something.jpg",0,0
//Break Periods
//Storyboard Layer 0 (Background)
//Storyboard Layer 1 (Fail)
//Storyboard Layer 2 (Pass)
//Storyboard Layer 3 (Foreground)
//Storyboard Layer 4 (Overlay)
//Storyboard Sound Samples

[TimingPoints]
175,625,4,2,1,45,1,0
800,-100,4,2,1,45,0,0
1502,-100,4,2,1,5,0,0
1581,-100,4,2,1,45,0,0
2909,-100,4,2,1,5,0,0
2987,-100,4,2,1,45,0,0
9550,-100,4,2,1,75,0,0
10018,-64.5161290322581,4,2,1,75,0,0
10800,-95.2380952380952,4,2,1,75,0,0
12518,-64.5161290322581,4,2,1,75,0,0
16425,-95.2380952380952,4,2,1,75,0,0
17518,-76.9230769230769,4,2,1,75,0,1
17831,-64.5161290322581,4,2,1,75,0,1
18300,-64.5161290322581,4,2,1,75,0,0
18768,-76.9230769230769,4,2,1,75,0,1
19081,-64.5161290322581,4,2,1,75,0,1
19550,-64.5161290322581,4,2,1,75,0,0
20175,-62.5,4,2,1,75,0,0
21425,-76.9230769230769,4,2,1,75,0,0
22050,-57.1428571428571,4,2,1,75,0,0
22675,-62.5,4,2,1,75,0,0
23925,-95.2380952380952,4,2,1,75,0,0
24550,-57.1428571428571,4,2,1,75,0,0
25175,-62.5,4,2,1,75,0,0
26268,-83.3333333333333,4,2,1,75,0,0
27518,-76.9230769230769,4,2,1,75,0,1
27831,-64.5161290322581,4,2,1,75,0,1
28300,-64.5161290322581,4,2,1,75,0,0
28768,-76.9230769230769,4,2,1,75,0,1
29081,-64.5161290322581,4,2,1,75,0,1
29550,-64.5161290322581,4,2,1,75,0,0
29940,-64.5161290322581,4,2,1,75,0,0
30175,-83.3333333333333,4,2,1,75,0,0
30331,-83.3333333333333,4,2,1,5,0,0
30409,-83.3333333333333,4,2,1,5,0,0
30487,-83.3333333333333,4,2,1,75,0,0
30643,-83.3333333333333,4,2,1,5,0,0
30721,-83.3333333333333,4,2,1,5,0,0
30800,-83.3333333333333,4,2,1,75,0,0
30956,-83.3333333333333,4,2,1,5,0,0
31034,-83.3333333333333,4,2,1,5,0,0
31112,-83.3333333333333,4,2,1,75,0,0
31581,-83.3333333333333,4,2,1,5,0,0
31659,-83.3333333333333,4,2,1,75,0,0
31815,-83.3333333333333,4,2,1,5,0,0
31893,-83.3333333333333,4,2,1,75,0,0
32128,-83.3333333333333,4,2,1,75,0,0
32206,-83.3333333333333,4,2,1,5,0,0
32284,-83.3333333333333,4,2,1,5,0,0
32362,-83.3333333333333,4,2,1,75,0,0
34081,-83.3333333333333,4,2,1,5,0,0
34159,-83.3333333333333,4,2,1,75,0,0
34315,-83.3333333333333,4,2,1,5,0,0
34393,-83.3333333333333,4,2,1,75,0,0
34471,-83.3333333333333,4,2,1,5,0,0
34550,-83.3333333333333,4,2,1,75,0,0
34784,-83.3333333333333,4,2,1,5,0,0
34862,-83.3333333333333,4,2,1,75,0,0
35096,-83.3333333333333,4,2,1,5,0,0
35175,-83.3333333333333,4,2,1,75,0,0
36581,-83.3333333333333,4,2,1,5,0,0
36659,-83.3333333333333,4,2,1,75,0,0
36815,-83.3333333333333,4,2,1,5,0,0
36893,-83.3333333333333,4,2,1,75,0,0
36971,-83.3333333333333,4,2,1,5,0,0
37050,-83.3333333333333,4,2,1,75,0,0
37909,-83.3333333333333,4,2,1,5,0,0
37987,-83.3333333333333,4,2,1,75,0,0
38925,-76.9230769230769,4,2,1,75,0,0
39029,-76.9230769230769,4,2,1,5,0,0
39133,-76.9230769230769,4,2,1,75,0,0
39237,-76.9230769230769,4,2,1,5,0,0
39341,-76.9230769230769,4,2,1,75,0,0
39445,-76.9230769230769,4,2,1,5,0,0
39550,-76.9230769230769,4,2,1,75,0,0
40175,-83.3333333333333,4,2,1,75,0,0
40409,-83.3333333333333,4,2,1,5,0,0
40487,-83.3333333333333,4,2,1,75,0,0
41503,-83.3333333333333,4,2,1,5,0,0
41581,-83.3333333333333,4,2,1,75,0,0
42362,-66.6666666666667,4,2,1,75,0,0
43925,-83.3333333333333,4,2,1,75,0,0
44003,-83.3333333333333,4,2,1,5,0,0
44081,-83.3333333333333,4,2,1,75,0,0
46503,-83.3333333333333,4,2,1,5,0,0
46581,-83.3333333333333,4,2,1,75,0,0
48846,-83.3333333333333,4,2,1,5,0,0
48925,-83.3333333333333,4,2,1,75,0,0
49081,-64.5161290322581,4,2,1,75,0,0
51581,-83.3333333333333,4,2,1,75,0,0
52518,-64.5161290322581,4,2,1,75,0,0
54081,-83.3333333333333,4,2,1,75,0,0
55018,-64.5161290322581,4,2,1,75,0,0
56581,-83.3333333333333,4,2,1,75,0,0
57518,-76.9230769230769,4,2,1,75,0,1
57831,-64.5161290322581,4,2,1,75,0,1
58300,-64.5161290322581,4,2,1,75,0,0
58768,-76.9230769230769,4,2,1,75,0,1
59081,-64.5161290322581,4,2,1,75,0,1
59550,-66.6666666666667,4,2,1,75,0,0
60175,-74.0740740740741,4,2,1,75,0,0
60643,-58.8235294117647,4,2,1,5,0,0
60800,-58.8235294117647,4,2,1,75,0,0
61425,-83.3333333333333,4,2,1,75,0,0
62050,-74.0740740740741,4,2,1,75,0,0
62675,-66.6666666666667,4,2,1,75,0,0
63143,-62.5,4,2,1,5,0,0
63300,-62.5,4,2,1,75,0,0
64550,-74.0740740740741,4,2,1,75,0,0
65175,-66.6666666666667,4,2,1,75,0,0
66268,-83.3333333333333,4,2,1,75,0,0
67518,-76.9230769230769,4,2,1,75,0,1
67831,-64.5161290322581,4,2,1,75,0,1
68300,-64.5161290322581,4,2,1,75,0,0
68768,-76.9230769230769,4,2,1,75,0,1
69081,-64.5161290322581,4,2,1,75,0,1
69550,-64.5161290322581,4,2,1,75,0,0
70487,-64.5161290322581,4,2,1,5,0,0
70800,-58.8235294117647,4,2,1,75,0,0
71034,-58.8235294117647,4,2,1,5,0,0
71112,-83.3333333333333,4,2,1,75,0,0
79003,-83.3333333333333,4,2,1,5,0,0
79081,-83.3333333333333,4,2,1,75,0,0
80175,-64.5161290322581,4,2,1,75,0,0
80409,-64.5161290322581,4,2,1,5,0,0
80487,-64.5161290322581,4,2,1,75,0,0
81425,-83.3333333333333,4,2,1,75,0,0
82675,-64.5161290322581,4,2,1,75,0,0
82909,-64.5161290322581,4,2,1,5,0,0
82987,-64.5161290322581,4,2,1,75,0,0
83925,-83.3333333333333,4,2,1,75,0,0
85175,-64.5161290322581,4,2,1,75,0,0
85409,-64.5161290322581,4,2,1,5,0,0
85487,-64.5161290322581,4,2,1,75,0,0
86425,-83.3333333333333,4,2,1,75,0,0
89003,-83.3333333333333,4,2,1,5,0,0
89081,-83.3333333333333,4,2,1,75,0,0
90175,-400,4,2,1,45,0,0
91112,-400,4,2,1,5,0,0
91268,-200,4,2,1,45,0,0
92675,-400,4,2,1,45,0,0
93690,-400,4,2,1,5,0,0
93768,-200,4,2,1,45,0,0
95175,-400,4,2,1,45,0,0
96190,-400,4,2,1,5,0,0
96268,-200,4,2,1,45,0,0
97518,-125,4,2,1,45,0,0
98768,-90.9090909090909,4,2,1,45,0,0
99550,-90.9090909090909,4,2,1,75,0,0
100018,-64.5161290322581,4,2,1,75,0,0
101581,-83.3333333333333,4,2,1,75,0,0
102518,-64.5161290322581,4,2,1,75,0,0
104081,-83.3333333333333,4,2,1,75,0,0
105018,-64.5161290322581,4,2,1,75,0,0
106581,-83.3333333333333,4,2,1,75,0,0
107518,-76.9230769230769,4,2,1,75,0,1
107831,-64.5161290322581,4,2,1,75,0,1
108300,-64.5161290322581,4,2,1,75,0,0
108768,-76.9230769230769,4,2,1,75,0,1
109081,-64.5161290322581,4,2,1,75,0,1
109550,-250,4,2,1,75,0,0
110175,-166.666666666667,4,2,1,75,0,0
110643,-62.5,4,2,1,5,0,0
110800,-62.5,4,2,1,75,0,0
111425,-83.3333333333333,4,2,1,75,0,0
112050,-76.9230769230769,4,2,1,75,0,0
112675,-66.6666666666667,4,2,1,75,0,0
113143,-62.5,4,2,1,5,0,0
113300,-62.5,4,2,1,75,0,0
113925,-83.3333333333333,4,2,1,75,0,0
114550,-76.9230769230769,4,2,1,75,0,0
115175,-66.6666666666667,4,2,1,75,0,0
115643,-62.5,4,2,1,5,0,0
115800,-62.5,4,2,1,75,0,0
116268,-83.3333333333333,4,2,1,75,0,0
117518,-76.9230769230769,4,2,1,75,0,1
117831,-64.5161290322581,4,2,1,75,0,1
118300,-64.5161290322581,4,2,1,75,0,0
118768,-76.9230769230769,4,2,1,75,0,1
119081,-64.5161290322581,4,2,1,75,0,1
119550,-64.5161290322581,4,2,1,75,0,0
120175,-100,4,2,1,45,0,0
127518,-86.9565217391304,4,2,1,45,0,0

[Colours]
Combo1 : 241,56,190
Combo2 : 14,132,250
Combo3 : 252,125,50
Combo4 : 83,244,112

[HitObjects]
496,222,800,6,0,B|490:256|490:256|485:256|485:256|478:299,2,70,2|2|0,0:2|0:2|0:2,0:2:0:0:
467,137,1268,6,0,L|352:65,1,105,2|0,0:2|0:0,0:2:0:0:
362,136,1581,2,0,L|204:169,1,140,2|0,0:2|0:2,0:2:0:0:
165,88,2050,1,2,0:2:0:0:
165,88,2206,2,0,P|171:52|206:30,2,70,2|0|0,0:2|0:2|0:2,0:2:0:0:
124,182,2675,6,0,P|96:138|38:122,1,105,2|0,0:2|0:0,0:2:0:0:
17,149,2987,2,1,L|29:235,1,70,2|0,0:2|0:2,0:0:0:0:
49,350,3300,1,2,0:2:0:0:
106,290,3456,2,0,L|178:301,1,70,2|0,0:2|0:2,0:2:0:0:
320,360,3768,6,0,P|321:327|294:291,1,70,2|0,0:2|0:2,0:2:0:0:
232,207,4081,2,0,L|384:230,1,140,2|0,0:2|0:2,0:2:0:0:
450,180,4550,1,2,0:2:0:0:
450,180,4706,2,0,P|452:148|427:112,2,70,2|0|0,0:2|0:2|0:2,0:2:0:0:
420,22,5175,6,0,B|337:-7|345:54|289:59,1,140,2|2,0:2|0:2,0:2:0:0:
232,127,5643,1,0,0:2:0:0:
196,37,5800,1,2,0:2:0:0:
196,37,5956,2,0,B|169:23|165:22|127:48,1,70,2|0,0:2|0:2,0:2:0:0:
104,119,6268,6,0,L|38:161,1,70,2|0,0:2|0:2,0:2:0:0:
119,123,6581,2,0,L|-4:199,1,140,2|0,0:2|0:2,0:2:0:0:
0,303,7050,2,0,P|24:326|70:328,2,70,2|2|0,0:2|0:2|0:2,0:2:0:0:
216,194,7518,6,0,P|185:203|152:230,1,70,2|0,0:2|0:2,0:2:0:0:
219,207,7831,2,0,P|164:231|138:303,1,140,2|0,0:2|0:2,0:2:0:0:
205,371,8300,2,0,B|235:366|235:366|243:361|243:361|284:355,2,70,2|2|0,0:2|0:2|0:2,0:2:0:0:
387,339,8768,6,0,B|368:339|355:353|355:353|358:336|345:314,1,70,2|0,0:2|0:2,0:2:0:0:
490,250,9081,2,0,B|464:278|466:314|466:314|457:279|412:259,1,140,2|0,0:2|0:2,0:2:0:0:
439,163,9550,2,1,L|426:86,2,70,10|2|2,0:2|0:2|0:2,0:0:0:0:
253,26,10018,6,0,P|304:20|332:63,1,108.500000827789,2|4,0:2|1:2,0:2:0:0:
297,137,10331,2,0,P|245:142|217:99,1,108.500000827789,2|0,0:2|1:2,0:2:0:0:
253,26,10643,1,2,0:2:0:0:
123,68,10800,2,1,L|146:218,1,146.999995513916,10|2,0:2|0:2,0:0:0:0:
167,315,11268,5,0,1:2:0:0:
237,239,11425,2,1,L|152:225,2,73.4999977569581,2|2|0,0:2|1:2|1:2,0:0:0:0:
306,303,11893,1,2,0:2:0:0:
276,155,12050,2,1,L|372:137,2,73.4999977569581,10|2|2,0:2|0:2|0:2,0:0:0:0:
496,246,12518,6,0,L|513:136,1,108.500000827789,2|0,0:2|1:2,0:2:0:0:
427,173,12831,2,0,L|444:63,1,108.500000827789,2|0,0:2|1:2,0:2:0:0:
504,259,13143,1,2,0:2:0:0:
435,306,13300,5,10,0:2:0:0:
467,384,13456,1,2,0:2:0:0:
419,306,13612,2,1,L|300:287,1,108.500000827789,2|0,0:2|1:2,0:0:0:0:
244,378,13925,6,1,P|235:327|185:296,2,108.500000827789,2|2|0,0:2|1:2|1:2,0:0:0:0:
40,368,14393,1,2,0:2:0:0:
27,281,14550,1,10,0:2:0:0:
114,267,14706,1,2,0:2:0:0:
127,354,14862,1,2,0:2:0:0:
72,184,15018,6,0,L|182:201,1,108.500000827789,2|0,0:2|1:2,0:2:0:0:
76,105,15331,2,0,L|186:122,1,108.500000827789,2|0,0:2|1:2,0:2:0:0:
264,200,15643,2,1,P|264:248|218:281,2,108.500000827789,2|10|2,0:2|0:2|0:2,0:0:0:0:
191,129,16112,5,2,0:2:0:0:
256,64,16268,1,2,1:2:0:0:
352,80,16425,2,1,L|431:92,2,73.4999977569581,2|2|0,0:2|1:2|1:2,0:0:0:0:
416,264,16893,1,2,0:2:0:0:
502,251,17050,1,10,0:2:0:0:
489,164,17206,1,2,0:2:0:0:
402,178,17362,1,2,0:2:0:0:
308,280,17518,6,0,P|344:305|362:349,1,90.9999958343508,2|0,0:1|1:2,0:2:0:0:
278,356,17831,2,2,L|315:118,1,217.000001655579,2|0,0:1|0:2,0:1:0:0:
404,97,18300,2,1,B|466:108|448:141|507:153,2,108.500000827789,10|2|2,0:2|0:2|0:2,0:0:0:0:
231,68,18768,6,0,P|188:81|159:122,1,90.9999958343508,2|0,1:1|0:2,0:2:0:0:
257,70,19081,2,2,L|19:32,1,217.000001655579,2|0,1:1|0:2,0:1:0:0:
130,236,19550,2,0,B|180:215|184:161|116:181|127:13|284:43|239:101|296:112|338:64,1,325.500002483368,10|0,0:2|1:2,0:0:0:0:
444,3,20175,6,0,P|416:101|401:229,1,224,6|2,1:2|1:2,0:2:0:0:
316,273,20643,1,0,0:2:0:0:
245,228,20800,5,8,0:2:0:0:
402,239,20956,5,0,0:2:0:0:
416,260,21112,5,2,0:2:0:0:
415,274,21268,5,2,1:2:0:0:
459,384,21425,2,0,P|481:348|516:310,1,90.9999958343508,2|0,0:2|1:2,0:2:0:0:
500,226,21737,1,2,1:2:0:0:
500,226,21893,1,2,0:2:0:0:
440,141,22050,6,0,B|444:155|527:103|527:103|504:104|476:68|419:122|383:91|383:91|386:9|354:-1|373:55|397:26|425:63|419:91,1,367.500003504753,10|0,0:2|0:2,0:2:0:0:
265,25,22675,2,0,B|287:36|337:75|320:156|246:183|194:122|235:76,1,224,2|2,1:2|1:2,0:2:0:0:
226,92,23143,1,0,0:2:0:0:
164,44,23300,5,8,0:2:0:0:
112,62,23456,5,0,0:2:0:0:
96,92,23612,5,2,0:2:0:0:
101,107,23768,5,2,1:2:0:0:
141,195,23925,2,0,L|54:184,1,73.4999977569581,2|0,0:2|1:2,0:2:0:0:
132,287,24237,1,2,1:2:0:0:
132,287,24393,1,2,0:2:0:0:
267,312,24550,6,0,B|257:261|313:252|312:201|202:146|202:146|240:193|217:235|190:227|202:268|235:284,1,367.500003504753,10|0,0:2|0:2,0:2:0:0:
323,372,25175,2,0,B|362:346|389:371|370:339|403:306|403:306|364:331|333:302|356:338|323:372,1,224,2|2,1:2|1:2,0:2:0:0:
375,225,25643,1,0,0:2:0:0:
375,225,25800,2,1,B|385:91|292:145|276:62|331:2,1,224,10|2,0:2|0:2,0:0:0:0:
408,59,26268,6,0,B|354:143|327:91|278:199,2,167.999994873047,2|2|2,1:2|1:2|0:2,0:2:0:0:
289,26,27050,1,10,0:2:0:0:
232,81,27206,1,2,0:2:0:0:
164,46,27362,1,2,0:2:0:0:
100,197,27518,6,0,P|107:148|134:108,1,90.9999958343508,2|0,0:1|1:2,0:2:0:0:
27,0,27831,2,2,P|73:96|87:210,1,217.000001655579,2|0,0:1|0:2,0:1:0:0:
191,376,28300,1,10,0:2:0:0:
194,291,28456,1,2,0:2:0:0:
261,243,28612,1,2,0:2:0:0:
184,295,28768,6,0,P|184:241|160:198,1,90.9999958343508,2|0,1:1|0:2,0:1:0:0:
340,248,29081,2,2,P|243:280|188:378,1,217.000001655579,2|0,1:1|0:2,0:1:0:0:
427,266,29550,2,1,B|445:156|326:127|318:184|213:174|218:45,1,325.500002483368,10|2,0:2|1:2,0:0:0:0:
374,47,30175,6,0,P|332:49|296:87,1,83.9999974365236,6|0,1:2|0:0,0:2:0:0:
245,0,30487,2,0,P|220:33|225:85,1,83.9999974365236,2|0,1:2|0:0,0:2:0:0:
135,80,30800,2,0,P|144:120|187:149,1,83.9999974365236,10|0,0:2|0:0,0:2:0:0:
307,158,31112,1,2,0:2:0:0:
307,158,31268,1,2,1:2:0:0:
395,132,31425,2,0,P|354:171|356:242,2,125.999996154785,2|2|2,0:2|0:2|0:2,0:2:0:0:
507,110,32050,2,1,P|500:75|450:61,1,83.9999974365236,8|0,0:2|0:0,0:0:0:0:
383,17,32362,2,0,P|402:17|448:68,1,83.9999974365236,2|0,0:2|0:2,0:2:0:0:
478,238,32675,5,2,1:2:0:0:
456,226,32831,1,2,0:2:0:0:
351,260,32987,5,2,1:2:0:0:
322,275,33143,1,2,0:2:0:0:
243,190,33300,5,10,0:2:0:0:
203,176,33456,1,2,0:2:0:0:
74,248,33612,5,2,0:2:0:0:
33,212,33768,1,2,1:2:0:0:
38,160,33925,2,0,B|47:67,1,83.9999974365236,2|0,0:2|1:2,0:2:0:0:
67,59,34159,2,0,B|58:142,1,83.9999974365236,2|0,0:2|0:2,0:2:0:0:
70,151,34393,2,0,B|74:109,1,41.9999987182618,2|0,0:2|0:2,0:2:0:0:
91,101,34550,6,0,B|236:77,1,125.999996154785,10|0,0:2|0:2,0:2:0:0:
230,101,34862,2,0,B|375:77,1,125.999996154785,2|0,0:2|0:0,0:2:0:0:
431,29,35175,5,2,1:2:0:0:
442,55,35331,1,2,0:2:0:0:
390,154,35487,5,2,1:2:0:0:
405,191,35643,1,2,0:2:0:0:
487,251,35800,5,10,0:2:0:0:
455,293,35956,1,2,0:2:0:0:
342,355,36112,5,2,0:2:0:0:
361,278,36268,1,2,1:2:0:0:
332,364,36425,2,0,B|268:373|280:338|207:347,2,125.999996154785,2|2|2,0:2|0:2|0:2,0:2:0:0:
106,300,37050,2,0,L|117:386,1,83.9999974365236,10|0,0:2|0:2,0:2:0:0:
187,248,37362,1,2,0:2:0:0:
187,248,37518,1,2,0:2:0:0:
124,175,37675,6,0,L|-22:195,1,125.999996154785,2|0,1:2|0:2,0:2:0:0:
26,108,37987,1,2,1:2:0:0:
26,108,38143,1,2,0:2:0:0:
112,92,38300,5,10,0:2:0:0:
102,48,38456,1,2,0:2:0:0:
179,0,38612,5,2,0:2:0:0:
189,48,38768,1,2,1:2:0:0:
272,34,38925,6,0,B|274:83|274:83|259:101|259:101|261:167,2,136.499993751526,2|2|2,0:2|0:2|0:2,0:2:0:0:
357,174,39550,2,0,B|401:71|401:71|368:4,1,181.999991668702,10|2,0:2|1:2,0:0:0:0:
424,81,40018,1,0,1:2:0:0:
496,0,40175,6,0,L|505:129,1,125.999996154785,4|0,1:2|0:2,0:2:0:0:
512,205,40487,1,2,1:2:0:0:
512,205,40643,1,2,0:2:0:0:
435,283,40800,2,0,B|456:297|456:297|481:395,2,111.999996582031,10|2|2,0:2|0:0|0:0,0:2:0:0:
354,302,41425,5,2,0:2:0:0:
340,297,41581,2,0,B|351:211,1,83.9999974365236,2|0,1:2|1:2,0:2:0:0:
172,297,41893,2,0,B|160:211,2,83.9999974365236,2|8|0,0:2|0:0|0:2,0:2:0:0:
258,144,42362,2,0,B|258:191|258:191|254:195|254:195|254:252,1,105.000004005432,2|0,0:2|0:2,0:2:0:0:
255,384,42675,5,2,1:2:0:0:
323,324,42831,1,2,0:2:0:0:
172,279,42987,1,2,1:2:0:0:
249,258,43143,1,2,0:2:0:0:
326,237,43300,5,10,0:2:0:0:
344,160,43456,5,2,0:2:0:0:
271,126,43612,5,2,0:2:0:0:
262,106,43768,5,2,1:2:0:0:
340,75,43925,6,0,P|360:40|404:-2,2,83.9999974365236,2|2|0,0:2|1:2|1:2,0:2:0:0:
200,182,44393,2,0,P|190:145|158:106,1,83.9999974365236,2|8,0:2|0:0,0:2:0:0:
37,17,44862,1,2,0:2:0:0:
24,99,45018,1,2,0:2:0:0:
122,86,45175,5,2,1:2:0:0:
129,112,45331,1,2,0:2:0:0:
214,57,45487,1,2,1:2:0:0:
217,37,45643,1,2,0:2:0:0:
298,41,45800,5,10,0:2:0:0:
344,102,45956,1,2,0:2:0:0:
435,15,46112,1,2,0:2:0:0:
421,88,46268,1,2,1:2:0:0:
511,190,46425,6,0,B|476:197|476:197|467:195|467:195|414:204,2,83.9999974365236,2|2|0,0:2|1:2|1:2,0:2:0:0:
449,284,46893,2,0,B|276:246,1,167.999994873047,2|0,0:2|0:2,0:2:0:0:
254,177,47362,1,2,0:2:0:0:
280,257,47518,1,2,0:2:0:0:
188,250,47675,5,2,1:2:0:0:
241,187,47831,1,2,0:2:0:0:
147,158,47987,1,2,1:2:0:0:
192,266,48143,1,2,0:2:0:0:
90,235,48300,5,10,0:2:0:0:
160,151,48456,1,2,0:2:0:0:
83,248,48612,1,2,0:2:0:0:
18,146,48768,6,0,L|5:60,1,83.9999974365236,2|0,1:2|0:0,0:2:0:0:
133,12,49081,2,0,B|144:34|144:34|111:0|53:6,1,108.500000827789,0|0,0:2|0:2,0:2:0:0:
372,9,49550,1,2,0:2:0:0:
376,24,49706,1,2,0:2:0:0:
380,39,49862,1,2,0:2:0:0:
480,22,50018,6,0,L|465:133,1,108.500000827789,2|4,0:2|1:2,0:2:0:0:
489,39,50331,2,0,L|475:147,1,108.500000827789,2|0,0:2|1:2,0:2:0:0:
371,192,50643,1,0,0:2:0:0:
458,220,50800,5,10,0:2:0:0:
422,248,50956,5,0,0:2:0:0:
465,236,51112,5,2,0:2:0:0:
429,264,51268,5,0,1:2:0:0:
428,344,51425,1,2,0:2:0:0:
351,366,51581,2,0,L|267:352,1,83.9999974365236,2|0,1:2|1:2,0:2:0:0:
105,319,51893,1,2,0:2:0:0:
112,343,52050,1,10,0:2:0:0:
183,313,52206,1,2,0:2:0:0:
155,232,52362,1,2,0:2:0:0:
66,233,52518,6,0,P|75:181|115:126,1,108.500000827789,2|0,0:2|1:2,0:2:0:0:
54,227,52831,2,0,P|63:175|103:120,1,108.500000827789,2|0,0:2|1:2,0:2:0:0:
105,134,53143,1,2,0:2:0:0:
25,153,53300,5,10,0:2:0:0:
11,108,53456,1,2,0:2:0:0:
128,16,53612,5,2,0:2:0:0:
142,61,53768,1,0,1:2:0:0:
259,111,53925,2,1,L|275:-9,2,108.500000827789,2|2|0,0:2|1:2|1:2,0:0:0:0:
343,182,54393,1,2,0:2:0:0:
327,179,54550,1,10,0:2:0:0:
370,103,54706,1,2,0:2:0:0:
448,128,54862,1,2,0:2:0:0:
436,212,55018,6,0,P|426:263|387:320,1,108.500000827789,2|0,0:2|1:2,0:2:0:0:
426,206,55331,2,0,P|416:257|377:314,1,108.500000827789,2|0,0:2|1:2,0:2:0:0:
310,360,55643,1,2,0:2:0:0:
214,327,55800,5,10,0:2:0:0:
220,288,55956,5,2,0:2:0:0:
124,347,56112,5,2,0:2:0:0:
133,371,56268,5,2,1:2:0:0:
53,307,56425,1,2,0:2:0:0:
64,280,56581,2,0,L|56:187,1,83.9999974365236,2|0,1:2|1:2,0:2:0:0:
15,110,56893,1,2,0:2:0:0:
113,123,57050,1,10,0:2:0:0:
83,31,57206,1,2,0:2:0:0:
125,139,57362,1,2,0:2:0:0:
206,62,57518,6,0,P|249:48|282:18,1,90.9999958343508,2|0,0:1|1:2,0:2:0:0:
392,150,57831,2,2,P|312:91|191:74,1,217.000001655579,2|0,0:1|0:2,0:1:0:0:
350,65,58300,1,10,0:2:0:0:
425,77,58456,1,2,0:2:0:0:
483,28,58612,1,2,0:2:0:0:
495,209,58768,6,0,P|454:188|420:148,1,90.9999958343508,2|2,1:1|0:2,0:2:0:0:
301,280,59081,2,2,P|387:230|508:225,1,217.000001655579,2|0,1:1|0:2,0:1:0:0:
340,352,59550,2,1,B|417:309|398:203|325:142|266:232|201:145|223:70,1,367.500014019013,10|0,0:2|0:0,0:0:0:0:
298,64,60175,2,0,B|359:91|350:173|298:224|248:158|203:229|224:286,1,283.500001081467,2|0,0:2|0:0,0:2:0:0:
90,373,60800,5,8,0:2:0:0:
109,328,60956,5,0,0:2:0:0:
95,293,61112,5,2,0:2:0:0:
74,282,61268,5,2,1:2:0:0:
58,285,61425,2,0,L|44:195,1,83.9999974365236,2|0,0:2|1:2,0:2:0:0:
35,124,61737,1,2,1:2:0:0:
35,124,61893,1,2,0:2:0:0:
108,23,62050,2,0,B|164:-31|249:12|282:89|190:117|247:193|317:195,1,330.750001261711,10|0,0:2|0:0,0:2:0:0:
362,133,62675,2,0,B|366:54|277:18|197:45|237:132|141:140|94:88,1,315.000012016297,2|0,0:2|0:0,0:2:0:0:
307,8,63300,5,8,0:2:0:0:
336,47,63456,5,0,0:2:0:0:
373,53,63612,5,2,0:2:0:0:
393,40,63768,5,2,1:2:0:0:
399,25,63925,2,0,L|511:65,1,112,2|0,0:2|1:2,0:2:0:0:
486,138,64237,1,2,1:2:0:0:
486,138,64393,1,2,0:2:0:0:
450,278,64550,6,0,B|464:182|425:224|403:157|403:157|368:207|396:259|404:220|441:240|450:276,1,283.500001081467,10|0,0:2|0:2,0:2:0:0:
389,359,65175,2,0,B|380:283|359:323|329:277|329:277|312:322|344:355|342:324|374:332|388:357,1,210.000008010865,2|2,1:2|1:2,0:2:0:0:
404,157,65643,1,0,0:2:0:0:
394,172,65800,2,1,L|176:134,1,210.000008010865,10|2,0:2|0:2,0:0:0:0:
14,31,66268,6,0,P|87:51|44:107,2,167.999994873047,2|2|2,1:2|1:2|0:2,0:2:0:0:
30,187,67050,1,10,0:2:0:0:
120,171,67206,1,2,0:2:0:0:
169,248,67362,1,2,0:2:0:0:
20,300,67518,6,0,P|60:279|94:239,1,90.9999958343508,2|0,0:1|1:2,0:2:0:0:
214,367,67831,2,2,P|127:317|6:312,1,217.000001655579,2|0,0:1|0:2,0:1:0:0:
169,248,68300,1,10,0:2:0:0:
247,285,68456,1,2,0:2:0:0:
323,252,68612,1,2,0:2:0:0:
441,184,68768,6,0,P|461:224|501:258,1,90.9999958343508,2|0,1:1|0:2,0:2:0:0:
374,378,69081,2,2,P|423:291|428:170,1,217.000001655579,2|0,1:1|0:2,0:1:0:0:
256,192,69550,5,8,0:2:0:0:
256,192,69628,12,0,70487,0:2:0:0:
26,0,70800,6,0,B|18:21|18:21|6:20|6:20|-25:94|39:162,1,178.500003404617,0|0,0:2|0:2,0:2:0:0:
33,239,71112,2,0,P|74:238|120:275,1,83.9999974365236,2|0,0:2|1:2,0:2:0:0:
36,233,71425,2,0,P|77:231|112:253,1,83.9999974365236,2|0,0:2|1:2,0:2:0:0:
178,324,71737,2,0,P|203:291|261:280,1,83.9999974365236,2|0,1:2|0:2,0:2:0:0:
323,213,72050,2,0,B|336:232|336:232|392:262,1,83.9999974365236,10|0,0:2|0:2,0:2:0:0:
431,332,72362,2,0,B|522:307,1,83.9999974365236,2|0,0:2|0:2,0:2:0:0:
462,199,72675,6,0,B|475:99,2,83.9999974365236,2|0|2,1:2|0:2|1:2,0:2:0:0:
433,49,73143,1,0,0:2:0:0:
332,106,73300,5,10,0:2:0:0:
259,117,73456,5,0,0:2:0:0:
219,89,73612,5,2,0:2:0:0:
219,60,73768,5,0,1:2:0:0:
231,45,73925,2,0,P|200:22|143:19,1,83.9999974365236,2|0,0:2|1:2,0:2:0:0:
100,94,74237,2,0,P|74:61|24:44,1,83.9999974365236,2|0,1:2|0:2,0:2:0:0:
171,180,74550,2,0,P|133:185|89:223,1,83.9999974365236,10|0,0:2|0:2,0:2:0:0:
133,306,74862,2,0,P|95:311|51:349,1,83.9999974365236,2|0,0:2|0:2,0:2:0:0:
235,384,75175,6,0,B|243:282,1,83.9999974365236,2|0,1:2|0:2,0:2:0:0:
254,298,75487,2,1,B|246:400,1,83.9999974365236,2|0,1:2|0:2,0:0:0:0:
340,325,75800,5,10,0:2:0:0:
343,288,75956,1,0,0:2:0:0:
422,338,76112,5,2,0:2:0:0:
419,375,76268,1,0,1:2:0:0:
495,289,76425,2,0,P|465:258|417:249,1,83.9999974365236,2|0,0:2|1:2,0:2:0:0:
502,139,76737,2,0,P|469:166|420:170,1,83.9999974365236,2|0,1:2|0:2,0:2:0:0:
270,192,77050,2,0,L|356:206,2,83.9999974365236,10|0|2,0:2|0:2|0:2,0:2:0:0:
186,214,77518,6,0,B|197:253|197:253|159:384,1,167.999994873047,0|0,0:2|0:2,0:2:0:0:
94,306,77987,2,0,L|68:219,1,83.9999974365236,2|0,1:2|0:2,0:2:0:0:
79,78,78300,1,10,0:2:0:0:
84,99,78456,2,0,P|56:131|15:141,1,83.9999974365236,0|2,0:2|0:2,0:2:0:0:
116,8,78768,6,0,L|208:29,1,83.9999974365236,0|0,1:2|0:0,0:2:0:0:
262,97,79081,1,0,1:2:0:0:
287,93,79237,1,2,1:2:0:0:
311,69,79393,1,0,0:2:0:0:
412,0,79550,5,10,0:2:0:0:
391,77,79706,5,0,0:2:0:0:
436,155,79862,5,2,1:2:0:0:
415,232,80018,5,0,1:2:0:0:
334,284,80175,6,0,B|499:257,1,162.750001241684,6|0,1:2|0:2,0:2:0:0:
512,270,80487,1,2,1:2:0:0:
473,336,80643,1,0,0:2:0:0:
488,343,80800,5,10,0:2:0:0:
405,311,80956,5,0,0:2:0:0:
385,344,81112,5,2,0:2:0:0:
387,372,81268,5,0,1:2:0:0:
257,302,81425,2,0,B|271:388,1,83.9999974365236,2|0,0:2|1:2,0:2:0:0:
176,357,81737,2,0,B|161:270,1,83.9999974365236,2|0,1:2|0:2,0:2:0:0:
231,137,82050,2,0,B|245:223,1,83.9999974365236,10|0,0:2|0:2,0:2:0:0:
150,192,82362,2,0,B|135:105,1,83.9999974365236,2|0,0:2|0:2,0:2:0:0:
219,48,82675,6,0,B|393:75,1,162.750001241684,2|0,1:2|0:2,0:2:0:0:
394,88,82987,1,2,1:2:0:0:
315,114,83143,1,0,0:2:0:0:
333,34,83300,5,10,0:2:0:0:
369,8,83456,5,0,0:2:0:0:
404,7,83612,5,2,0:2:0:0:
428,14,83768,5,0,1:2:0:0:
490,95,83925,2,0,L|467:179,1,83.9999974365236,2|0,0:2|1:2,0:2:0:0:
410,236,84237,2,0,L|432:320,1,83.9999974365236,2|0,1:2|0:2,0:2:0:0:
501,98,84550,2,0,L|478:182,1,83.9999974365236,10|0,0:2|0:2,0:2:0:0:
421,239,84862,2,0,L|443:323,1,83.9999974365236,2|0,0:2|0:2,0:2:0:0:
308,384,85175,6,0,B|335:209,1,162.750001241684,2|0,1:2|0:2,0:2:0:0:
335,211,85487,1,2,1:2:0:0:
360,297,85643,1,0,0:2:0:0:
243,253,85800,5,10,0:2:0:0:
208,271,85956,5,0,0:2:0:0:
196,307,86112,5,2,0:2:0:0:
204,332,86268,5,0,1:2:0:0:
108,246,86425,2,0,B|18:231,1,83.9999974365236,2|0,0:2|1:2,0:2:0:0:
113,263,86737,2,0,B|13:247,1,83.9999974365236,2|0,1:2|0:2,0:2:0:0:
0,150,87050,2,0,B|38:143|38:143|40:140|40:140|96:130,2,83.9999974365236,10|0|2,0:2|0:2|0:2,0:2:0:0:
70,45,87518,6,0,B|179:6|167:92|231:88,1,167.999994873047,0|0,0:2|0:2,0:2:0:0:
364,24,87987,2,0,P|321:28|284:59,1,83.9999974365236,2|0,1:2|0:2,0:2:0:0:
224,196,88300,1,10,0:2:0:0:
238,186,88456,2,0,L|224:101,1,83.9999974365236,0|2,0:2|0:2,0:2:0:0:
352,137,88768,6,0,L|338:223,1,83.9999974365236,0|0,1:2|0:0,0:2:0:0:
276,278,89081,1,0,1:2:0:0:
276,278,89237,1,2,1:2:0:0:
414,251,89393,1,0,0:2:0:0:
409,354,89550,6,1,L|499:371,3,83.9999974365236,10|0|2|0,0:2|0:2|1:2|1:2,0:0:0:0:
394,350,90175,6,0,P|365:334|394:346,1,105,2|0,0:2|0:0,0:2:0:0:
283,382,91268,2,0,P|255:359|227:332,2,70,2|2|0,0:2|0:2|0:2,0:2:0:0:
152,360,92050,1,2,0:2:0:0:
144,356,92206,1,2,0:2:0:0:
140,348,92362,1,2,0:2:0:0:
144,340,92518,1,2,0:2:0:0:
56,288,92675,6,0,P|58:253|53:287,1,105,2|0,0:2|0:0,0:2:0:0:
34,175,93768,2,0,P|27:140|22:102,2,70,2|2|0,0:2|0:2|0:2,0:2:0:0:
94,50,94550,1,2,0:2:0:0:
92,41,94706,1,2,0:2:0:0:
86,34,94862,1,2,0:2:0:0:
77,35,95018,1,2,0:2:0:0:
159,105,95175,6,0,B|215:85|218:100|262:92,1,105,2|0,0:2|0:0,0:2:0:0:
371,30,96268,2,0,P|337:23|300:19,2,70,2|2|0,0:2|0:2|0:2,0:2:0:0:
485,16,97050,1,2,0:2:0:0:
477,21,97206,1,2,0:2:0:0:
474,30,97362,1,2,0:2:0:0:
473,157,97518,6,0,P|486:181|509:200,1,56,0|0,0:2|0:2,0:2:0:0:
401,112,97831,2,0,P|389:168|357:214,1,112,0|0,0:2|0:2,0:2:0:0:
507,199,98300,6,0,P|486:181|473:157,2,56,0|0|0,0:2|0:2|0:2,0:2:0:0:
362,231,98768,6,0,P|326:261|303:302,1,77.0000023498536,0|0,0:2|0:2,0:2:0:0:
235,239,99081,2,0,P|264:301|273:390,1,154.000004699707,0|0,0:2|0:2,0:2:0:0:
100,280,99550,2,1,P|138:280|175:299,2,77.0000023498536,10|2|2,0:2|0:2|0:2,0:0:0:0:
19,236,100018,6,0,P|10:182|40:132,1,108.500000827789,2|4,0:2|1:2,0:2:0:0:
6,230,100331,2,0,P|-3:176|27:126,1,108.500000827789,2|0,0:2|1:2,0:2:0:0:
34,136,100643,1,2,0:2:0:0:
117,176,100800,5,10,0:2:0:0:
166,154,100956,5,0,0:2:0:0:
183,118,101112,5,2,0:2:0:0:
180,88,101268,5,0,1:2:0:0:
254,0,101425,1,2,0:2:0:0:
316,59,101581,2,0,L|293:143,1,83.9999974365236,2|0,1:2|1:2,0:2:0:0:
491,222,101893,1,2,0:2:0:0:
409,254,102050,1,10,0:2:0:0:
374,164,102206,1,2,0:2:0:0:
456,133,102362,1,2,0:2:0:0:
409,263,102518,6,0,L|392:373,1,108.500000827789,2|0,0:2|1:2,0:2:0:0:
419,277,102831,2,0,L|402:387,1,108.500000827789,2|0,0:2|1:2,0:2:0:0:
317,331,103143,1,2,0:2:0:0:
251,377,103300,5,10,0:2:0:0:
198,317,103456,1,2,0:2:0:0:
101,384,103612,2,0,P|80:281|40:157,1,217.000001655579,2|2,0:2|0:2,0:0:0:0:
154,216,104081,2,0,P|130:252|108:295,1,83.9999974365236,2|0,1:2|1:2,0:2:0:0:
17,247,104393,1,2,0:2:0:0:
78,96,104550,5,10,0:2:0:0:
167,130,104706,1,2,0:2:0:0:
46,174,104862,1,2,0:2:0:0:
153,39,105018,6,0,L|271:70,1,108.500000827789,2|0,0:2|1:2,0:2:0:0:
160,27,105331,2,0,L|278:58,1,108.500000827789,2|0,0:2|1:2,0:2:0:0:
352,22,105643,1,2,0:2:0:0:
504,73,105800,5,10,0:2:0:0:
432,44,105956,1,2,0:2:0:0:
431,33,106112,1,2,0:2:0:0:
378,99,106268,5,2,1:2:0:0:
476,153,106425,1,2,0:2:0:0:
417,262,106581,2,0,L|400:174,1,83.9999974365236,2|0,1:2|1:2,0:2:0:0:
388,354,106893,1,2,0:2:0:0:
336,300,107050,1,10,0:2:0:0:
265,321,107206,1,2,0:2:0:0:
213,267,107362,1,2,0:2:0:0:
276,134,107518,6,0,P|234:149|201:188,1,90.9999958343508,2|0,0:1|1:2,0:2:0:0:
196,85,107831,2,2,P|107:66|-2:-3,1,217.000001655579,2|0,0:1|0:2,0:1:0:0:
52,139,108300,1,10,0:2:0:0:
9,214,108456,1,2,0:2:0:0:
59,148,108612,1,2,0:2:0:0:
272,52,108768,6,0,P|316:37|343:-1,1,90.9999958343508,2|0,1:1|0:2,0:2:0:0:
512,209,109081,2,2,P|423:151|311:123,1,217.000001655579,2|0,1:1|0:2,0:1:0:0:
432,197,109550,6,0,P|395:203|378:248,1,84,2|0,0:2|0:2,0:2:0:0:
407,311,110175,6,0,P|469:331|495:396,1,125.999996154785,2|0,0:2|0:0,0:2:0:0:
268,289,110800,5,8,0:2:0:0:
312,320,110956,5,0,0:2:0:0:
324,359,111112,5,2,0:2:0:0:
315,377,111268,5,2,1:2:0:0:
185,316,111425,2,0,P|194:275|202:230,1,83.9999974365236,2|0,0:2|1:2,0:2:0:0:
217,150,111737,1,2,1:2:0:0:
217,150,111893,1,2,0:2:0:0:
136,141,112050,6,0,B|128:111|151:90|151:90|102:133|47:115|15:89|23:36|74:14|107:44,1,272.999987503052,2|0,0:2|0:2,0:2:0:0:
36,195,112675,2,0,P|174:78|296:14,1,315.000012016297,2|0,0:2|0:0,0:2:0:0:
505,54,113300,5,8,0:2:0:0:
456,38,113456,5,0,0:2:0:0:
417,58,113612,5,2,0:2:0:0:
408,83,113768,5,2,1:2:0:0:
505,158,113925,2,0,L|490:254,1,83.9999974365236,2|0,0:2|1:2,0:2:0:0:
485,322,114237,1,2,1:2:0:0:
485,322,114393,1,2,0:2:0:0:
338,311,114550,6,0,B|394:312|408:364|408:364|322:308|236:331,1,272.999987503052,2|0,0:2|0:2,0:2:0:0:
164,371,115175,2,0,B|85:359|81:268|148:218|144:237|206:219|227:169|193:112,1,315.000012016297,2|0,0:2|0:0,0:2:0:0:
53,103,115800,5,10,0:2:0:0:
120,148,115956,5,0,0:2:0:0:
49,181,116112,5,2,0:2:0:0:
167,41,116268,6,0,B|205:33|205:33|342:85,2,167.999994873047,2|2|2,1:2|1:2|0:2,0:2:0:0:
277,13,117050,1,10,0:2:0:0:
340,77,117206,1,2,0:2:0:0:
420,34,117362,1,2,0:2:0:0:
489,170,117518,6,0,P|448:149|414:109,1,90.9999958343508,2|0,0:1|1:2,0:2:0:0:
295,237,117831,2,2,P|381:187|502:182,1,217.000001655579,2|0,0:1|0:2,0:1:0:0:
507,86,118300,1,10,0:2:0:0:
439,26,118456,1,2,0:2:0:0:
361,61,118612,1,2,0:2:0:0:
262,145,118768,6,0,P|217:152|172:180,1,90.9999958343508,2|0,1:1|0:2,0:2:0:0:
95,23,119081,2,2,P|163:95|277:135,1,217.000001655579,2|0,1:1|0:2,0:1:0:0:
297,18,119550,2,1,P|154:77|-14:155,1,325.500002483368,10|0,0:2|1:2,0:0:0:0:
66,151,120175,6,0,L|80:10,1,140,2|2,0:2|0:2,0:2:0:0:
95,17,120643,1,0,0:2:0:0:
136,96,120800,5,2,0:2:0:0:
216,80,120956,5,2,0:2:0:0:
280,128,121112,5,0,0:2:0:0:
280,152,121268,6,0,L|258:291,2,140,2|2|0,0:2|0:2|0:2,0:2:0:0:
472,40,122050,1,2,0:2:0:0:
472,40,122206,2,0,L|487:108,2,70,2|0|0,0:2|0:2|0:2,0:2:0:0:
480,272,122675,6,0,P|501:222|433:216,1,140,2|2,0:2|0:2,0:2:0:0:
392,288,123143,1,0,0:2:0:0:
384,312,123300,5,2,0:2:0:0:
280,264,123456,5,2,0:2:0:0:
304,344,123612,5,0,0:2:0:0:
184,296,123768,6,0,L|206:153,2,140,2|2|0,0:2|0:2|0:2,0:2:0:0:
48,384,124550,1,2,0:2:0:0:
48,384,124706,2,0,L|27:310,2,70,2|0|0,0:2|0:2|0:2,0:2:0:0:
86,246,125175,6,0,B|54:222|54:222|36:112,1,140,2|2,0:2|0:2,0:2:0:0:
25,142,125643,1,0,0:2:0:0:
55,49,125800,5,2,0:2:0:0:
130,91,125956,5,2,0:2:0:0:
196,32,126112,5,0,0:2:0:0:
274,85,126268,6,0,P|343:87|400:49,2,140,2|2|0,0:2|0:2|0:2,0:2:0:0:
448,108,127050,2,0,P|477:88|512:90,2,70,2|2|0,0:2|0:2|0:2,0:2:0:0:
409,202,127518,6,0,L|422:284,1,80.5000015354157,2|0,0:2|0:2,0:2:0:0:
395,198,127831,2,0,L|421:362,1,161.000003070831,2|0,0:2|0:2,0:2:0:0:
501,380,128300,2,0,P|515:343|504:295,2,80.5000015354157,2|2|0,0:2|0:2|0:2,0:2:0:0:
317,374,128768,6,0,L|302:288,1,80.5000015354157,2|0,0:2|0:2,0:2:0:0:
329,384,129081,2,0,L|300:217,1,161.000003070831,2|0,0:2|0:2,0:2:0:0:
312,9,129550,2,1,P|279:30|266:78,3,80.5000015354157,2|2|0|0,0:2|0:2|0:2|0:2,0:0:0:0:
256,192,130175,5,0,0:0:0:0:
