osu file format v14

[General]
AudioFilename: audio.mp3
AudioLeadIn: 0
PreviewTime: 48925
Countdown: 0
SampleSet: Soft
StackLeniency: 0.7
Mode: 0
LetterboxInBreaks: 0
WidescreenStoryboard: 1

[Editor]
Bookmarks: 10175,50175,69550,90175,91268,91503,91893,92206,92362,92596,92753,92909,93065,93221,93378,93534,93690,93925,94081,94237,94393,94471,94628,94784,94862,95018,95096,95253,95409,95487,95643,95878,96034,96190,96346,96503,96581,96737,96893,97050,97206,97362,97518,97675,97831,97987,98143,98300,98456,98612,98768,98925,99081,99237,99393,99550,120175,130175
DistanceSpacing: 1.3
BeatDivisor: 8
GridSize: 32
TimelineZoom: 2.100001

[Metadata]
Title:Best Thing
TitleUnicode:Best Thing
Artist:JAWNY
ArtistUnicode:JAWNY
Creator:Kataryn
Version:Blarpbas's Hard
Source:
Tags:english hip-hop pop rap indie alternative the story of hugo bluirre blarpblarp monsieursebas vastly
BeatmapID:4112294
BeatmapSetID:1917250

[Difficulty]
HPDrainRate:4
CircleSize:3.6
OverallDifficulty:6
ApproachRate:8
SliderMultiplier:2.6
SliderTickRate:1

[Events]
//Background and Video events
0,0,"love is a social construct made by the government to sell more flowers or something.jpg",0,0
//Break Periods
2,90218,98800
//Storyboard Layer 0 (Background)
//Storyboard Layer 1 (Fail)
//Storyboard Layer 2 (Pass)
//Storyboard Layer 3 (Foreground)
//Storyboard Layer 4 (Overlay)
//Storyboard Sound Samples

[TimingPoints]
175,625,4,2,1,45,1,0
9550,-133.333333333333,4,2,1,75,0,0
10175,-100,4,2,1,75,0,0
30175,-117.647058823529,4,2,1,75,0,0
50175,-100,4,2,1,75,0,0
60175,-133.333333333333,4,2,1,75,0,0
61425,-100,4,2,1,75,0,0
62675,-133.333333333333,4,2,1,75,0,0
63612,-100,4,2,1,75,0,0
69550,-133.333333333333,4,2,1,75,0,0
70487,-133.333333333333,4,2,1,5,0,0
70800,-100,4,2,1,75,0,0
71034,-100,4,2,1,5,0,0
71112,-100,4,2,1,75,0,0
80409,-100,4,2,1,5,0,0
80487,-100,4,2,1,75,0,0
82909,-100,4,2,1,5,0,0
82987,-100,4,2,1,75,0,0
85409,-100,4,2,1,5,0,0
85487,-100,4,2,1,75,0,0
90175,-100,4,2,1,45,0,0
91112,-100,4,2,1,5,0,0
91268,-100,4,2,1,45,0,0
93690,-100,4,2,1,5,0,0
93768,-100,4,2,1,45,0,0
96190,-100,4,2,1,5,0,0
96268,-100,4,2,1,45,0,0
99550,-100,4,2,1,75,0,0
100018,-90.9090909090909,4,2,1,75,0,0
109550,-133.333333333333,4,2,1,75,0,0
110956,-90.9090909090909,4,2,1,75,0,0
112050,-133.333333333333,4,2,1,75,0,0
113612,-90.9090909090909,4,2,1,75,0,0
114550,-133.333333333333,4,2,1,75,0,0
115956,-90.9090909090909,4,2,1,75,0,0

[Colours]
Combo1 : 241,56,190
Combo2 : 14,132,250
Combo3 : 252,125,50
Combo4 : 83,244,112

[HitObjects]
136,39,9550,6,0,L|195:51,2,48.750001859665,10|2|2,0:2|0:2|0:2,0:0:0:0:
62,96,10018,2,0,L|72:155,1,48.750001859665,2|4,0:2|1:2,0:2:0:0:
152,204,10331,2,0,P|231:193|264:128,1,130,2|2,0:2|0:2,0:2:0:0:
319,48,10800,2,0,P|325:82|336:125,1,65,10|0,0:2|0:2,0:0:0:0:
406,32,11112,2,0,P|413:63|419:95,1,65,2|0,0:2|1:2,0:0:0:0:
391,172,11425,1,2,0:2:0:0:
391,172,11581,1,2,1:2:0:0:
305,333,11893,5,2,0:2:0:0:
305,333,12050,2,0,P|340:327|380:326,1,65,10|2,0:2|0:2,0:0:0:0:
430,272,12362,1,2,0:2:0:0:
359,244,12518,2,0,P|326:248|284:251,1,65,2|0,0:2|1:2,0:2:0:0:
218,343,12831,2,0,P|210:282|209:195,1,130,2|2,0:2|0:2,0:2:0:0:
133,146,13300,1,10,0:2:0:0:
133,146,13456,1,2,0:2:0:0:
62,216,13612,2,0,P|66:249|65:285,1,65,2|0,0:2|1:2,0:0:0:0:
0,149,13925,1,2,0:2:0:0:
0,149,14081,1,2,1:2:0:0:
165,49,14393,5,2,0:2:0:0:
165,49,14550,2,0,P|199:54|239:59,1,65,10|2,0:2|0:2,0:0:0:0:
280,117,14862,1,2,0:2:0:0:
352,88,15018,2,0,P|355:55|361:23,1,65,2|0,0:2|1:2,0:2:0:0:
459,14,15331,2,0,P|446:77|442:153,1,130,2|2,0:2|0:2,0:2:0:0:
375,239,15800,1,10,0:2:0:0:
375,239,15956,2,0,P|364:205|358:165,1,65,2|2,0:2|0:2,0:0:0:0:
296,291,16268,1,2,1:2:0:0:
224,258,16425,1,2,0:2:0:0:
169,317,16581,2,0,P|117:304|83:238,1,130,2|2,1:2|0:2,0:2:0:0:
19,154,17050,6,0,P|48:148|101:137,1,65,10|2,0:2|0:2,0:0:0:0:
171,48,17362,1,2,0:2:0:0:
78,2,17518,2,0,P|86:35|98:82,1,65,2|0,0:1|1:2,0:2:0:0:
208,134,17831,2,2,P|273:105|300:42,1,130,2|0,0:1|0:2,0:1:0:0:
388,139,18300,2,0,P|353:130|317:126,1,65,10|2,0:2|0:2,0:0:0:0:
441,72,18612,1,2,0:2:0:0:
483,161,18768,2,0,P|471:193|466:248,1,65,2|0,1:1|0:2,0:2:0:0:
451,341,19081,2,2,P|391:317|360:261,1,130,2|0,1:1|0:2,0:1:0:0:
247,363,19550,6,0,B|287:265|222:246|279:148,1,195,10|0,0:2|1:2,0:0:0:0:
183,63,20175,2,0,B|143:161|208:180|151:278,1,195,6|0,1:2|0:2,0:2:0:0:
88,316,20800,1,8,0:2:0:0:
0,127,21112,2,0,P|6:91|19:61,1,65,2|2,0:2|1:2,0:0:0:0:
73,167,21425,2,0,P|90:108|102:33,1,130,2|2,0:2|1:2,0:2:0:0:
175,96,21893,1,2,0:2:0:0:
267,27,22050,6,0,B|227:125|292:144|235:242,1,195,10|0,0:2|0:2,0:2:0:0:
331,327,22675,2,0,B|371:229|306:210|363:112,1,195,2|0,1:2|0:2,0:2:0:0:
425,85,23300,1,8,0:2:0:0:
491,282,23612,2,0,P|452:288|419:298,1,65,2|2,0:2|1:2,0:0:0:0:
504,193,23925,2,0,P|441:209|356:218,1,130,2|2,0:2|1:2,0:2:0:0:
291,283,24393,1,2,0:2:0:0:
200,351,24550,6,0,B|120:287|184:175|224:211|234:241|178:245,1,195,10|0,0:2|0:2,0:2:0:0:
86,239,25175,2,0,P|50:198|66:57,1,195,2|0,1:2|0:2,0:2:0:0:
161,102,25800,6,0,P|152:76|141:21,1,65,10|0,0:2|0:2,0:0:0:0:
249,75,26112,1,2,0:2:0:0:
249,75,26268,2,0,P|242:43|232:13,1,65,2|0,1:2|0:0,0:2:0:0:
335,75,26581,2,0,P|353:123|377:198,1,130,2|2,1:2|0:2,0:0:0:0:
473,252,27050,5,10,0:2:0:0:
423,311,27206,1,2,0:2:0:0:
355,342,27362,1,2,0:2:0:0:
355,342,27518,2,0,P|318:333|279:327,1,65,2|0,0:1|1:2,0:2:0:0:
205,361,27831,2,2,P|214:296|229:211,1,130,2|0,0:1|0:2,0:1:0:0:
133,177,28300,5,10,0:2:0:0:
76,226,28456,1,2,0:2:0:0:
19,179,28612,1,2,0:2:0:0:
19,179,28768,2,0,L|30:108,1,65,2|0,1:1|0:2,0:1:0:0:
118,77,29081,2,2,P|179:91|219:159,1,130,2|0,1:1|0:2,0:1:0:0:
269,224,29550,2,0,B|247:112|299:134|266:29,1,195,10|2,0:2|1:2,0:0:0:0:
355,98,30175,6,0,P|408:107|474:124,1,110.50000210762,6|2,1:2|1:2,0:2:0:0:
429,189,30643,1,0,0:0:0:0:
442,268,30800,2,0,P|413:260|368:252,1,55.2500010538102,10|0,0:2|0:0,0:2:0:0:
317,289,31112,1,2,0:2:0:0:
317,289,31268,2,0,P|354:354|521:305,1,276.250005269051,2|8,1:2|0:2,0:0:0:0:
226,365,32675,6,0,P|167:353|109:346,1,110.50000210762,2|2,1:2|1:2,0:0:0:0:
149,276,33143,1,2,0:2:0:0:
129,199,33300,2,0,P|158:205|188:208,1,55.2500010538102,10|2,0:2|0:2,0:0:0:0:
238,153,33612,1,2,0:2:0:0:
238,153,33768,2,0,P|142:106|12:204,1,276.250005269051,2|10,1:2|0:2,0:0:0:0:
338,204,35175,6,0,P|330:145|322:75,1,110.50000210762,2|2,1:2|1:2,0:0:0:0:
371,33,35643,1,2,0:2:0:0:
430,77,35800,2,0,P|433:105|439:141,1,55.2500010538102,10|2,0:2|0:2,0:0:0:0:
500,181,36112,1,2,0:2:0:0:
500,181,36268,2,0,P|432:186|315:352,1,276.250005269051,2|10,1:2|0:2,0:0:0:0:
28,170,37518,2,0,P|34:225|208:335,1,276.250005269051,2|10,0:2|0:2,0:0:0:0:
234,263,38456,2,0,L|224:205,1,55.2500010538102,2|2,0:2|0:2,0:0:0:0:
319,312,38768,2,0,P|296:189|279:78,1,221.000004215241,2|0,1:2|0:0,0:0:0:0:
346,41,39550,2,0,P|351:68|357:96,1,55.2500010538102,10|0,0:2|0:2,0:0:0:0:
424,132,39862,1,2,1:2:0:0:
393,199,40018,1,0,1:2:0:0:
493,248,40175,6,0,P|483:305|476:365,1,110.50000210762,4|2,1:2|1:2,0:2:0:0:
403,332,40643,1,2,0:2:0:0:
332,364,40800,1,10,0:2:0:0:
332,364,40956,2,0,L|258:348,1,55.2500010538102
189,303,41268,2,0,P|172:255|189:184,1,110.50000210762,0|2,1:0|1:2,0:0:0:0:
232,125,41737,2,0,L|158:109,1,55.2500010538102,0|2,1:2|0:2,0:0:0:0:
88,91,42050,1,8,0:0:0:0:
88,91,42206,1,0,0:2:0:0:
278,38,42518,5,0,0:2:0:0:
353,65,42675,2,0,P|411:54|471:54,1,110.50000210762,2|2,1:2|1:2,0:0:0:0:
447,130,43143,1,2,0:2:0:0:
502,183,43300,2,0,P|507:219|510:242,1,55.2500010538102,10|2,0:2|0:2,0:0:0:0:
465,305,43612,1,2,0:2:0:0:
389,274,43768,2,0,P|379:220|375:164,1,110.50000210762,2|2,1:2|1:2,0:0:0:0:
297,242,44237,2,0,P|269:237|234:233,1,55.2500010538102,0|2,1:2|0:2,0:0:0:0:
167,296,44550,1,8,0:0:0:0:
167,296,44706,1,0,0:2:0:0:
16,150,45018,5,2,0:2:0:0:
75,97,45175,2,0,P|133:86|193:86,1,110.50000210762,2|2,1:2|1:2,0:0:0:0:
238,26,45643,1,2,0:2:0:0:
299,79,45800,2,0,P|295:106|291:133,1,55.2500010538102,10|2,0:2|0:2,0:0:0:0:
229,178,46112,1,2,0:2:0:0:
263,250,46268,2,0,P|317:252|362:212,1,110.50000210762,2|2,1:2|1:2,0:0:0:0:
422,170,46737,2,0,P|454:176|489:178,1,55.2500010538102,0|2,1:2|0:2,0:0:0:0:
512,94,47050,1,8,0:0:0:0:
512,94,47206,1,0,0:2:0:0:
334,0,47518,6,0,P|326:54|316:108,1,110.50000210762,2|2,0:2|0:2,0:0:0:0:
235,151,47987,2,0,P|237:123|233:96,1,55.2500010538102,2|2,1:2|0:2,0:0:0:0:
157,23,48300,2,0,P|152:50|154:77,1,55.2500010538102,10|2,0:2|0:2,0:0:0:0:
74,136,48612,1,2,0:2:0:0:
74,136,48768,1,2,1:2:0:0:
210,356,50175,5,4,1:2:0:0:
210,356,50331,2,0,P|273:354|316:308,1,130,2|0,0:2|0:2,0:2:0:0:
214,253,50800,2,0,P|245:246|277:240,1,65,10|0,0:2|0:2,0:0:0:0:
196,173,51112,2,0,P|228:167|259:159,1,65,2|0,0:2|1:2,0:0:0:0:
339,186,51425,1,2,0:2:0:0:
339,186,51581,1,2,1:2:0:0:
512,56,51893,5,2,0:2:0:0:
512,56,52050,2,0,P|477:50|437:49,1,65,10|2,0:2|0:2,0:0:0:0:
384,6,52362,1,2,0:2:0:0:
339,72,52518,2,0,P|304:78|264:79,1,65,2|0,0:2|1:2,0:2:0:0:
169,21,52831,2,0,P|104:19|40:7,1,130,2|2,0:2|0:2,0:2:0:0:
106,102,53300,1,10,0:2:0:0:
106,102,53456,1,2,0:2:0:0:
21,169,53612,2,0,P|53:173|85:178,1,65,2|0,0:2|1:2,0:0:0:0:
149,236,53925,1,2,0:2:0:0:
149,236,54081,1,2,1:2:0:0:
266,384,54393,5,2,0:2:0:0:
266,384,54550,2,0,P|271:350|276:310,1,65,10|2,0:2|0:2,0:0:0:0:
334,269,54862,1,2,0:2:0:0:
305,197,55018,2,0,P|272:194|240:188,1,65,2|0,0:2|1:2,0:2:0:0:
231,90,55331,2,0,P|294:103|370:107,1,130,2|2,0:2|0:2,0:2:0:0:
500,78,55800,1,10,0:2:0:0:
500,78,55956,2,0,P|489:44|483:4,1,65,2|2,0:2|0:2,0:0:0:0:
434,135,56268,1,2,1:2:0:0:
492,191,56425,1,2,0:2:0:0:
458,263,56581,2,0,P|397:281|372:339,1,130,2|2,1:2|0:2,0:2:0:0:
289,376,57050,6,0,P|278:345|273:313,1,65,10|2,0:2|0:2,0:0:0:0:
158,253,57362,1,2,0:2:0:0:
228,181,57518,2,0,P|230:213|239:244,1,65,2|0,0:1|1:2,0:2:0:0:
146,336,57831,2,2,P|84:321|50:267,1,130,2|0,0:1|0:2,0:1:0:0:
132,170,58300,6,0,P|142:139|146:107,1,65,10|2,0:2|0:2,0:0:0:0:
89,0,58612,1,2,0:2:0:0:
166,23,58768,2,0,P|198:29|245:30,1,65,2|2,1:1|0:2,0:2:0:0:
332,103,59081,2,2,P|396:101|461:91,1,130,2|0,1:1|0:2,0:1:0:0:
322,199,59550,6,0,B|420:239|439:174|537:231,1,195,10|0,0:2|1:2,0:0:0:0:
418,309,60175,2,0,B|360:313|351:358|274:328,1,146.250005578995,2|0,0:2|0:0,0:2:0:0:
178,334,60800,1,8,0:2:0:0:
318,137,61112,1,2,0:2:0:0:
318,137,61268,1,2,1:2:0:0:
331,226,61425,2,0,P|268:210|183:201,1,130,2|2,0:2|1:2,0:2:0:0:
122,143,61893,1,2,0:2:0:0:
93,242,62050,6,0,P|19:186|35:95,1,195,10|0,0:2|0:2,0:2:0:0:
101,21,62675,2,0,P|193:52|258:62,1,146.250005578995,2|0,0:2|0:0,0:2:0:0:
329,28,63300,1,8,0:2:0:0:
279,230,63612,2,0,P|310:221|342:217,1,65,2|2,0:2|1:2,0:0:0:0:
228,152,63925,2,0,P|292:143|355:127,1,130,2|2,0:2|1:2,0:2:0:0:
452,171,64393,1,2,0:2:0:0:
402,273,64550,6,0,P|324:326|232:302,1,195,10|0,0:2|0:2,0:2:0:0:
144,248,65175,2,0,P|59:282|62:373,1,195,2|0,1:2|0:2,0:2:0:0:
155,337,65800,2,0,P|188:329|219:326,1,65,10|0,0:2|0:2,0:0:0:0:
314,358,66112,1,2,0:2:0:0:
314,358,66268,2,0,P|306:325|303:293,1,65,2|0,1:2|0:0,0:2:0:0:
214,209,66581,6,0,P|232:138|229:69,1,130,2|2,1:2|0:2,0:0:0:0:
306,2,67050,1,10,0:2:0:0:
362,60,67206,1,2,0:2:0:0:
441,64,67362,1,2,0:2:0:0:
441,64,67518,2,0,P|445:96|452:127,1,65,2|0,0:1|1:2,0:2:0:0:
368,188,67831,2,2,P|361:252|373:316,1,130,2|0,0:1|0:2,0:1:0:0:
287,362,68300,5,10,0:2:0:0:
209,375,68456,1,2,0:2:0:0:
138,348,68612,1,2,0:2:0:0:
138,348,68768,2,0,P|140:315|137:279,1,65,2|0,1:1|0:2,0:2:0:0:
47,321,69081,2,2,P|41:257|48:192,1,130,2|0,1:1|0:2,0:1:0:0:
0,98,69550,6,0,B|112:76|90:128|195:95,1,195.00000743866,8|0,0:2|0:0,0:0:0:0:
488,0,70800,2,0,P|481:31|483:63,1,65,0|0,0:2|0:0,0:2:0:0:
438,130,71112,1,2,0:2:0:0:
438,130,71268,1,0,1:2:0:0:
346,180,71425,2,0,P|337:115|337:50,2,130,2|2|10,0:2|1:2|0:2,0:2:0:0:
174,137,72362,2,0,P|142:131|109:128,1,65,2|0,0:2|0:2,0:2:0:0:
38,217,72675,6,0,P|100:217|132:270,2,130,2|2|10,1:2|1:2|0:2,0:2:0:0:
0,294,73456,1,0,0:2:0:0:
59,364,73612,2,0,P|139:349|150:350,1,65,2|0,0:2|1:2,0:0:0:0:
231,349,73925,2,0,P|222:283|217:205,2,130,2|2|10,0:2|1:2|0:2,0:2:0:0:
414,258,74862,2,0,P|408:222|405:188,1,65,2|0,0:2|0:2,0:2:0:0:
438,79,75175,6,0,P|375:79|343:132,2,130,2|2|10,1:2|1:2|0:2,0:2:0:0:
487,141,75956,1,0,0:2:0:0:
413,215,76112,2,0,P|382:218|341:225,1,65,2|0,0:2|1:2,0:0:0:0:
278,184,76425,2,0,P|247:181|209:91,1,130,2|2,0:2|1:2,0:2:0:0:
25,179,77050,6,0,P|25:146|19:114,1,65,10|0,0:2|0:2,0:2:0:0:
93,0,77362,2,0,P|86:31|87:64,1,65,2|0,0:2|0:2,0:0:0:0:
121,136,77675,1,0,1:0:0:0:
331,22,77987,6,0,P|364:28|396:29,1,65,2|0,1:2|0:2,0:2:0:0:
324,113,78300,2,0,P|356:114|388:120,1,65,10|0,0:2|0:2,0:0:0:0:
460,86,78612,1,2,0:2:0:0:
460,86,78768,1,0,1:2:0:0:
280,276,79237,6,0,P|247:277|215:283,1,65,2|0,1:2|0:2,0:0:0:0:
273,185,79550,2,0,P|240:191|208:192,1,65,10|0,0:2|0:2,0:0:0:0:
146,242,79862,1,2,1:2:0:0:
146,242,80018,1,0,1:2:0:0:
77,154,80175,6,0,P|80:90|84:61,1,65,6|0,1:2|0:0,0:2:0:0:
172,22,80487,2,0,P|171:54|168:86,1,65,2|0,1:2|0:2,0:0:0:0:
236,162,80800,2,0,P|309:143|346:84,1,130,10|2,0:2|0:2,0:0:0:0:
472,214,81425,2,0,P|437:202|397:201,1,65,2|0,0:2|1:2,0:2:0:0:
426,105,81737,2,0,P|460:116|501:118,1,65,2|0,1:2|0:2,0:2:0:0:
480,31,82050,2,0,P|406:10|328:4,1,130,10|2,0:2|0:2,0:2:0:0:
245,180,82675,6,0,P|251:243|263:320,1,130,2|2,1:2|1:2,0:2:0:0:
186,365,83143,1,0,0:2:0:0:
109,322,83300,2,0,P|108:289|103:249,1,65,10|0,0:2|0:2,0:0:0:0:
21,221,83612,2,0,P|40:194|54:166,1,65,2|0,0:2|1:2,0:0:0:0:
6,86,83925,2,0,P|66:75|138:50,1,130,2|2,0:2|1:2,0:2:0:0:
311,144,84550,2,0,P|277:135|248:131,1,65,10|0,0:2|0:2,0:2:0:0:
271,40,84862,2,0,P|305:49|334:53,1,65,2|0,0:2|0:2,0:2:0:0:
447,135,85175,6,0,P|476:183|487:267,1,130,2|2,1:2|1:2,0:2:0:0:
427,330,85643,1,0,0:2:0:0:
349,277,85800,2,0,P|352:240|359:212,1,65,10|0,0:2|0:2,0:0:0:0:
427,330,86112,2,0,P|384:370|305:369,2,130,2|2|2,0:2|0:2|1:2,0:0:0:0:
257,173,87050,2,0,P|260:210|267:238,1,65,10|0,0:2|0:2,0:2:0:0:
346,168,87362,2,0,P|343:131|336:103,1,65,2|0,0:2|0:2,0:0:0:0:
90,254,87987,2,0,P|93:217|100:189,1,65,2|0,1:2|0:2,0:2:0:0:
179,259,88299,2,0,P|176:296|169:324,1,65,10|0,0:2|0:2,0:0:0:0:
18,349,88612,2,0,P|10:317|8:285,1,65,2|0,0:2|1:2,0:0:0:0:
422,254,89237,2,0,P|419:217|412:189,1,65,2|0,1:2|0:2,0:0:0:0:
333,259,89549,2,0,P|336:296|343:324,1,65,10|0,0:2|0:2,0:0:0:0:
494,349,89862,2,0,P|501:317|503:285,1,65,2|0,1:2|1:2,0:0:0:0:
90,82,99550,6,0,L|82:8,2,65,10|2|2,0:2|0:2|0:2,0:0:0:0:
157,171,100018,6,0,P|187:162|231:161,1,71.5000021820069,2|4,0:2|1:2,0:2:0:0:
324,124,100331,2,0,P|274:94|177:76,1,143.000004364014,2|2,0:2|0:2,0:2:0:0:
67,184,100800,2,0,P|70:220|84:265,1,71.5000021820069,10|0,0:2|0:2,0:0:0:0:
163,346,101112,2,0,P|173:312|176:277,1,71.5000021820069,2|0,0:2|1:2,0:0:0:0:
260,330,101425,1,2,0:2:0:0:
338,270,101581,2,0,P|341:305|351:340,1,71.5000021820069,2|0,1:2|1:2,0:2:0:0:
431,220,101893,5,2,0:2:0:0:
431,220,102050,2,0,P|434:180|444:144,1,71.5000021820069,10|2,0:2|0:2,0:0:0:0:
361,116,102362,1,2,0:2:0:0:
456,30,102518,2,0,P|421:38|385:40,1,71.5000021820069,2|0,0:2|1:2,0:2:0:0:
283,146,102831,2,0,P|261:106|253:2,1,143.000004364014,2|2,0:2|0:2,0:2:0:0:
155,122,103300,1,10,0:2:0:0:
82,145,103456,1,2,0:2:0:0:
14,109,103612,2,0,P|28:78|29:36,1,71.5000021820069,2|0,0:2|1:2,0:0:0:0:
41,212,103925,1,2,0:2:0:0:
41,212,104081,1,2,1:2:0:0:
197,347,104393,5,2,0:2:0:0:
146,280,104549,2,0,P|182:271|229:266,1,71.5000021820069,10|2,0:2|0:2,0:0:0:0:
319,345,104862,1,2,0:2:0:0:
366,280,105018,2,0,P|330:271|283:266,1,71.5000021820069,2|0,0:2|1:2,0:2:0:0:
258,196,105331,2,0,P|257:119|277:24,1,143.000004364014,2|2,0:2|0:2,0:2:0:0:
387,8,105800,1,10,0:2:0:0:
437,71,105956,1,2,0:2:0:0:
384,131,106112,2,0,P|347:124|305:124,1,71.5000021820069,2|2,0:2|1:2,0:0:0:0:
440,195,106425,1,2,0:2:0:0:
440,195,106581,1,2,1:2:0:0:
309,343,106893,5,2,0:2:0:0:
382,376,107050,2,0,P|385:336|395:297,1,71.5000021820069,10|2,0:2|0:2,0:0:0:0:
234,292,107362,1,2,0:2:0:0:
234,292,107518,2,0,P|231:327|223:362,1,71.5000021820069,2|0,0:1|1:2,0:2:0:0:
96,372,107831,2,2,P|53:273|77:160,1,214.500006546021,2|10,0:1|0:2,0:1:0:0:
128,114,108456,1,2,0:2:0:0:
68,67,108612,1,2,0:2:0:0:
171,21,108768,6,0,P|204:30|250:37,1,71.5000021820069,2|0,1:1|0:2,0:2:0:0:
359,85,109081,2,2,P|292:98|219:120,1,143.000004364014,2|0,1:1|0:2,0:1:0:0:
237,225,109550,6,0,B|314:311|453:196|340:189|361:221,2,195.00000743866,2|2|8,0:2|0:2|0:2,0:2:0:0:
35,328,111112,2,0,P|71:340|109:360,1,71.5000021820069,2|2,0:2|1:2,0:0:0:0:
192,360,111425,2,0,P|169:303|122:223,1,143.000004364014,2|2,0:2|1:2,0:2:0:0:
33,204,111893,1,2,0:2:0:0:
179,174,112050,6,0,B|217:111|191:33|278:14,2,195.00000743866,2|2|8,0:2|0:2|0:2,0:2:0:0:
298,357,113612,2,0,P|330:344|377:341,1,71.5000021820069,2|2,0:2|1:2,0:0:0:0:
331,245,113925,2,0,P|401:261|472:316,1,143.000004364014,2|2,0:2|1:2,0:2:0:0:
423,170,114393,1,2,0:2:0:0:
495,225,114550,6,0,B|490:141|420:98|434:20,2,195.00000743866,2|2|10,0:2|0:2|0:2,0:2:0:0:
304,116,116112,1,2,0:2:0:0:
304,116,116268,2,0,P|313:79|317:30,1,71.5000021820069,2|0,1:2|0:0,0:2:0:0:
186,76,116581,2,0,P|201:148|222:220,1,143.000004364014,2|2,1:2|0:2,0:0:0:0:
156,320,117050,1,10,0:2:0:0:
93,280,117206,1,2,0:2:0:0:
145,228,117362,1,2,0:2:0:0:
240,291,117518,6,0,L|320:304,1,71.5000021820069,2|0,0:1|1:2,0:2:0:0:
392,372,117831,2,2,P|395:305|407:221,1,143.000004364014,2|0,0:1|0:2,0:1:0:0:
474,122,118300,1,10,0:2:0:0:
411,77,118456,1,2,0:2:0:0:
341,104,118612,1,2,0:2:0:0:
271,76,118768,2,0,P|267:45|269:0,1,71.5000021820069,2|0,1:1|0:2,0:2:0:0:
178,141,119081,2,2,P|165:81|157:-12,1,143.000004364014,2|0,1:1|0:2,0:1:0:0:
61,77,119550,2,0,P|48:137|40:230,1,143.000004364014,10|0,0:2|1:2,0:0:0:0:
138,324,120018,5,0,1:2:0:0:
138,324,120175,1,2,0:2:0:0:
