osu file format v14

[General]
AudioFilename: audio.mp3
AudioLeadIn: 0
PreviewTime: 60742
Countdown: 0
SampleSet: Soft
StackLeniency: 0.5
Mode: 0
LetterboxInBreaks: 0
WidescreenStoryboard: 1

[Editor]
Bookmarks: 23,1253,11307,41034,65830,70691,75644,78108,80707,85729,90894,96293,112467,116678
DistanceSpacing: 1.6
BeatDivisor: 3
GridSize: 8
TimelineZoom: 5.655997

[Metadata]
Title:Versace Summer (Cut Ver.)
TitleUnicode:Versace Summer (Cut Ver.)
Artist:JANK
ArtistUnicode:JANK
Creator:Shime
Version:Insane
Source:
Tags:english indie alternative rock math art emo midwest awkward punk fail better heal faster panucci's panuccis pizza little tyrant short version male vocals jank! lou matt diamond sam becht ruben polo creep records j_a_n_k j_a_n_k_!
BeatmapID:3513964
BeatmapSetID:1719491

[Difficulty]
HPDrainRate:5.5
CircleSize:3.8
OverallDifficulty:7.8
ApproachRate:8.5
SliderMultiplier:1.6
SliderTickRate:0.5

[Events]
//Background and Video events
0,0,"ilyzglock.jpg",0,0
//Break Periods
2,61080,64520
2,96493,97780
//Storyboard Layer 0 (Background)
//Storyboard Layer 1 (Fail)
//Storyboard Layer 2 (Pass)
//Storyboard Layer 3 (Foreground)
//Storyboard Layer 4 (Overlay)
//Storyboard Sound Samples

[TimingPoints]
10,310.880829015544,4,2,27,60,1,0
10,-277.777777777778,4,2,27,60,0,0
1246,307.692307692308,4,2,27,50,1,0
1246,-86.2068965517241,4,2,27,50,0,0
3100,320.855614973262,4,2,27,50,1,0
3100,-86.2068965517241,4,2,27,50,0,0
3741,319.148936170213,4,2,27,50,1,0
3741,-86.2068965517241,4,2,27,50,0,0
5010,312.5,4,2,27,50,1,0
5010,-86.2068965517241,4,2,27,50,0,0
6579,319.148936170213,4,2,27,50,1,0
6579,-86.2068965517241,4,2,27,50,0,0
7536,319.148936170213,4,2,27,50,1,0
7536,-86.2068965517241,4,2,27,50,0,0
8812,-86.2068965517241,4,2,27,60,0,0
9760,322.580645161291,4,2,27,60,1,0
10082,297.029702970297,4,2,27,60,1,0
10082,-104.166666666667,4,2,27,60,0,0
10690,291.26213592233,4,2,27,60,1,0
10981,291.26213592233,4,2,27,60,1,0
11029,271.493212669683,4,2,27,60,1,0
11300,309.278350515464,4,2,27,50,1,0
11300,-104.166666666667,4,2,27,50,0,0
13155,-131.578947368421,4,2,27,50,0,0
13774,312.5,4,2,27,50,1,0
13774,-104.166666666667,4,2,27,50,0,0
15031,250,4,2,27,50,1,0
15072,292.682926829268,4,2,27,50,1,0
15315,292.682926829268,4,2,27,60,1,0
15940,319.148936170213,4,2,27,60,1,0
16250,319.148936170213,4,2,27,50,1,0
16250,-104.166666666667,4,2,27,50,0,0
16888,303.030303030303,4,2,27,50,1,0
17039,-104.166666666667,4,2,27,50,0,0
17504,283.018867924529,4,2,27,50,1,0
17787,312.5,4,2,27,50,1,0
17787,-104.166666666667,4,2,27,50,0,0
18099,-131.578947368421,4,2,27,50,0,0
18724,292.682926829268,4,2,27,50,1,0
18724,-104.166666666667,4,2,27,50,0,0
19016,322.58064516129,4,2,27,50,1,0
19338,-104.166666666667,4,2,27,50,0,0
19495,273.972602739726,4,2,27,50,1,0
19769,315.78947368421,4,2,27,50,1,0
19926,297.029702970296,4,2,27,50,1,0
20370,292.682926829268,4,2,27,50,1,0
20956,309.278350515464,4,2,27,65,1,0
20956,-94.3396226415094,4,2,27,65,0,0
21110,311.688311688312,4,2,27,65,1,0
21421,-94.3396226415094,4,2,27,65,0,0
24855,322.580645161291,4,2,27,65,1,0
25177,-94.3396226415094,4,2,27,65,0,0
25571,319.148936170213,4,2,27,65,1,0
26144,310.880829015545,4,2,27,50,1,0
26890,292.682926829269,4,2,27,50,1,0
27190,375.000000000001,4,2,27,50,1,0
27370,315.789473684211,4,2,27,50,1,0
27370,-104.166666666667,4,2,27,50,0,0
28001,-131.578947368421,4,2,27,50,0,0
28309,315.789473684211,4,2,27,50,1,0
28626,300,4,2,27,50,1,0
28626,-104.166666666667,4,2,27,50,0,0
28640,-104.166666666667,4,2,27,50,0,0
29241,297.029702970297,4,2,27,50,1,0
29851,297.029702970297,4,2,27,50,1,0
30170,298.507462686567,4,2,27,60,1,0
30468,326.086956521739,4,2,27,50,1,0
30468,-151.515151515152,4,2,27,50,0,0
30795,303.030303030303,4,2,27,50,1,0
31100,317.460317460317,4,2,27,50,1,0
31100,-116.279069767442,4,2,27,50,0,0
31893,283.018867924528,4,2,27,50,1,0
32183,315.78947368421,4,2,27,50,1,0
32340,-104.166666666667,4,2,27,50,0,0
32656,303.030303030303,4,2,27,50,1,0
32959,-131.578947368421,4,2,27,50,0,0
33259,303.030303030303,4,2,27,50,1,0
33569,306.122448979592,4,2,27,50,1,0
33569,-104.166666666667,4,2,27,50,0,0
33875,319.148936170213,4,2,27,50,1,0
34194,-104.166666666667,4,2,27,50,0,0
34353,300,4,2,27,50,1,0
35253,319.148936170212,4,2,27,50,1,0
35573,285.714285714286,4,2,27,50,1,0
35854,303.030303030303,4,2,27,65,1,0
35854,-94.3396226415094,4,2,27,65,0,0
36005,303.030303030303,4,2,27,60,1,0
36156,-100,4,2,27,65,0,0
36312,315.78947368421,4,2,27,65,1,0
36312,-94.3396226415094,4,2,27,65,0,0
37259,315.78947368421,4,2,27,65,1,0
37574,-94.3396226415094,4,2,27,65,0,0
38522,319.148936170212,4,2,27,65,1,0
38841,-94.3396226415094,4,2,27,65,0,0
39794,309.278350515464,4,2,27,65,1,0
39948,-94.3396226415094,4,2,27,65,0,0
40103,294.117647058824,4,2,27,65,1,0
40251,306.122448979593,4,2,27,65,1,0
40710,319.148936170214,4,2,27,60,1,0
41030,309.917355371901,4,2,27,50,1,0
41030,-116.279069767442,4,2,27,50,0,0
44129,-104.166666666667,4,2,27,50,0,0
44443,291.26213592233,4,2,27,50,1,0
44893,300,4,2,27,50,1,0
45043,-116.279069767442,4,2,27,50,0,0
45349,317.460317460318,4,2,27,55,1,0
45667,315.789473684211,4,2,27,60,1,0
45824,-116.279069767442,4,2,27,60,0,0
45976,314.136125654451,4,2,27,50,1,0
45976,-116.279069767442,4,2,27,50,0,0
48489,-116.279069767442,4,2,27,55,0,0
49107,314.136125654451,4,2,27,55,1,0
49741,303.030303030303,4,2,27,55,1,0
49741,-104.166666666667,4,2,27,55,0,0
50354,303.030303030303,4,2,27,60,1,0
50657,-100,4,2,27,55,0,0
50957,329.67032967033,4,2,27,50,1,0
50957,-116.279069767442,4,2,27,50,0,0
51608,307.692307692308,4,2,27,50,1,0
51608,-116.279069767442,4,2,27,50,0,0
52223,307.692307692308,4,2,27,50,1,0
52530,-116.279069767442,4,2,27,50,0,0
53453,312.5,4,2,27,50,1,0
54390,309.278350515464,4,2,27,55,1,0
55015,300,4,2,27,55,1,0
55315,-100,4,2,27,60,0,0
55615,-104.166666666667,4,2,27,60,0,0
55915,319.148936170213,4,2,27,50,1,0
55915,-116.279069767442,4,2,27,50,0,0
57191,291.26213592233,4,2,27,50,1,0
57482,312.5,4,2,27,50,1,0
57482,-116.279069767442,4,2,27,50,0,0
58419,319.148936170212,4,2,27,60,1,0
58419,-94.3396226415094,4,2,27,60,0,0
59065,294.117647058823,4,2,27,60,1,0
59359,-94.3396226415094,4,2,27,60,0,0
59947,322.58064516129,4,2,27,60,1,0
59947,-94.3396226415094,4,2,27,60,0,0
60108,-94.3396226415094,4,2,27,30,0,0
60269,-94.3396226415094,4,2,27,40,0,0
60580,300,4,2,27,50,1,0
60580,-94.3396226415094,4,2,27,50,0,0
60880,280.373831775701,4,2,27,60,1,0
61161,384.615384615385,4,2,27,60,1,0
61352,454.545454545455,4,2,27,60,1,0
61806,434.782608695652,4,2,27,60,1,0
62240,340.909090909091,4,2,27,60,1,0
62410,276.497695852535,4,2,27,60,1,0
62686,329.67032967033,4,2,27,60,1,0
63015,309.278350515464,4,2,27,60,1,0
63169,310.880829015544,4,2,27,60,1,0
63324,272.727272727273,4,2,27,60,1,0
63596,375,4,2,27,60,1,0
63783,428.571428571429,4,2,27,60,1,0
64211,309.278350515464,4,2,27,60,1,0
64520,361.44578313253,4,2,27,60,1,0
64760,315.78947368421,4,2,27,60,1,0
64970,322.58064516129,4,2,27,60,1,0
65185,322.58064516129,4,2,27,60,1,0
65400,322.58064516129,4,2,27,60,1,0
65615,322.58064516129,4,2,27,60,1,0
65820,315.78947368421,4,2,27,75,1,1
66135,-86.2068965517241,4,2,27,75,0,1
66451,285.714285714286,4,2,27,75,1,1
66879,-86.2068965517241,4,2,27,75,0,1
67032,304.568527918781,4,2,27,75,1,1
67641,-86.2068965517241,4,2,27,75,0,1
68554,303.030303030302,4,2,27,75,1,1
68857,-86.2068965517241,4,2,27,75,0,1
69463,303.030303030302,4,2,27,75,1,1
69463,-86.2068965517241,4,2,27,75,0,1
70686,303.030303030302,4,2,27,65,1,0
70686,-94.3396226415094,4,2,27,65,0,0
71903,306.122448979591,4,2,27,65,1,0
72209,-94.3396226415094,4,2,27,65,0,0
73433,297.029702970296,4,2,27,65,1,0
73581,-94.3396226415094,4,2,27,65,0,0
74338,350.877192982455,4,2,27,60,1,0
74572,324.324324324323,4,2,27,60,1,0
74788,333.333333333332,4,2,27,60,1,0
75010,319.148936170212,4,2,27,60,1,0
75222,333.333333333333,4,2,27,60,1,0
75444,297.029702970296,4,2,27,60,1,0
75642,307.692307692307,4,2,27,75,1,1
75642,-86.2068965517241,4,2,27,75,0,1
77490,324.324324324324,4,2,27,60,1,1
77490,-86.2068965517241,4,2,27,60,0,1
77814,294.117647058823,4,2,27,60,1,1
77814,-86.2068965517241,4,2,27,60,0,1
78102,360.360360360361,4,2,27,40,1,0
78102,-217.391304347826,4,2,27,40,0,0
78822,306.122448979592,4,2,27,30,1,0
79128,333.333333333333,4,2,27,30,1,0
79461,319.148936170212,4,2,27,35,1,0
79780,312.499999999999,4,2,27,40,1,0
79780,-151.515151515152,4,2,27,40,0,0
80092,299.999999999999,4,2,27,50,1,0
80392,285.714285714285,4,2,27,60,1,0
80696,304.568527918782,4,2,27,65,1,0
81000,314.96062992126,4,2,27,65,1,0
81944,314.96062992126,4,2,27,65,1,0
85722,325.20325203252,4,2,27,80,1,1
85722,-79.3650793650794,4,2,27,80,0,1
88324,329.67032967033,4,2,27,80,1,1
88324,-79.3650793650794,4,2,27,80,0,1
88663,319.148936170213,4,2,27,80,1,1
89141,-79.3650793650794,4,2,27,80,0,1
89620,285.714285714286,4,2,27,50,1,1
89620,-79.3650793650794,4,2,27,50,0,1
89911,312.5,4,2,27,60,1,1
89911,-79.3650793650794,4,2,27,60,0,1
90223,-79.3650793650794,4,2,27,70,0,1
90542,333.333333333333,4,2,27,60,1,0
90894,336.134453781513,4,2,27,60,1,0
90894,-131.578947368421,4,2,27,60,0,0
92238,352.941176470589,4,2,27,60,1,0
92937,312.5,4,2,27,60,1,0
92937,-131.578947368421,4,2,27,60,0,0
93620,324.324324324324,4,2,27,40,1,0
94917,338.028169014084,4,2,27,50,1,0
94917,-116.279069767442,4,2,27,50,0,0
95931,333.333333333333,4,2,27,50,1,0
96042,342.857142857142,4,2,27,40,1,0
96156,413.793103448275,4,2,27,40,1,0
96293,540.540540540538,4,2,27,50,1,0
98455,444.444444444443,4,2,27,30,1,0
98455,-178.571428571429,4,2,27,30,0,0
98899,521.73913043478,4,2,27,30,1,0
99420,521.73913043478,4,2,27,30,1,0
99420,-178.571428571429,4,2,27,30,0,0
100202,428.571428571427,4,2,27,30,1,0
100416,472.440944881888,4,2,27,30,1,0
101360,504.201680672267,4,2,27,35,1,0
101360,-178.571428571429,4,2,27,35,0,0
101864,566.037735849055,4,2,27,35,1,0
101864,-178.571428571429,4,2,27,35,0,0
102430,566.037735849055,4,2,27,35,1,0
102430,-178.571428571429,4,2,27,35,0,0
102996,882.352941176466,4,2,27,35,1,0
102996,-178.571428571429,4,2,27,35,0,0
104799,389.61038961039,4,2,27,60,1,0
104896,307.692307692308,4,2,27,60,1,0
104972,333.333333333333,4,2,27,60,1,0
105055,298.507462686567,4,2,27,60,1,0
105129,458.015267175572,4,2,27,60,1,0
106557,821.917808219178,4,2,27,30,1,0
107378,879.120879120879,4,2,27,30,1,0
108257,1052.63157894737,4,2,27,30,1,0
112467,-100,4,2,27,5,0,0
116678,-100,4,2,27,5,0,0

[Colours]
Combo1 : 121,121,121
Combo2 : 114,186,192
Combo3 : 172,169,205
Combo4 : 214,214,154
Combo5 : 82,226,190
Combo6 : 195,195,195

[HitObjects]
425,65,10,5,12,1:2:0:0:
425,65,1246,6,0,P|399:70|350:81,3,46.4,14|8|10|8,1:2|0:0|0:0|0:0,0:0:0:0:
333,150,1553,2,0,P|307:145|258:134,3,46.4,10|8|8|8,1:2|0:0|0:0|0:0,0:0:0:0:
272,55,1861,2,0,P|246:60|197:71,3,46.4,10|8|8|8,1:2|0:0|0:0|0:0,0:0:0:0:
180,140,2169,2,0,P|154:135|105:124,3,46.4,10|8|8|8,1:2|0:0|0:0|0:0,0:0:0:0:
50,51,2476,6,0,P|30:72|24:111,3,46.4,14|8|8|8,1:2|0:0|0:0|0:0,0:0:0:0:
0,172,2784,2,0,P|8:199|38:224,3,46.4,10|8|8|8,1:2|0:0|0:0|0:0,0:0:0:0:
64,288,3100,2,0,P|92:294|128:280,3,46.4,14|8|8|8,1:2|0:0|0:0|0:0,0:0:0:0:
193,270,3420,2,0,P|213:249|219:210,3,46.4,10|8|8|8,1:2|0:0|0:0|0:0,0:0:0:0:
287,140,3741,6,0,P|292:113|299:77,3,46.4,14|8|10|8,1:2|0:0|0:0|0:0,0:0:0:0:
390,65,4060,2,0,P|395:92|402:128,3,46.4,10|8|8|8,1:2|0:0|0:0|0:0,0:0:0:0:
356,232,4379,2,0,P|361:205|368:169,3,46.4,10|8|8|8,1:2|0:0|0:0|0:0,0:0:0:0:
462,161,4698,2,0,P|467:188|474:224,3,46.4,10|8|8|8,1:2|0:0|0:0|0:0,0:0:0:0:
487,317,5010,38,0,P|459:310|407:296,3,46.4,14|8|8|8,1:2|0:0|0:0|0:0,0:0:0:0:
377,362,5322,2,0,P|351:376|305:402,3,46.4,8|8|8|8,1:2|0:0|0:0|0:0,0:0:0:0:
285,287,5635,2,0,P|264:266|226:228,3,46.4,14|8|8|8,1:2|0:0|0:0|0:0,0:0:0:0:
167,345,5947,2,0,P|152:369|125:416,3,46.4,8|8|8|8,1:2|0:0|0:0|0:0,0:0:0:0:
87,271,6260,6,0,P|81:243|72:186,3,46.4,14|8|8|8,1:2|0:0|0:0|0:0,0:0:0:0:
177,162,6579,2,0,P|183:190|192:247,3,46.4,10|8|10|8,1:2|0:0|0:0|0:0,0:0:0:0:
9,44,6898,6,0,P|3:72|-6:129,3,46.4,10|8|8|8,1:2|0:0|0:0|0:0,0:0:0:0:
99,153,7217,2,0,P|105:125|114:68,3,46.4,10|8|8|8,1:2|0:0|0:0|0:0,0:0:0:0:
211,36,7536,6,0,P|245:30|281:23,3,46.4,14|8|8|8,1:2|0:0|0:0|0:0,0:0:0:0:
315,96,7855,2,0,P|349:90|385:83,3,46.4,10|8|8|8,1:2|0:0|0:0|0:0,0:0:0:0:
416,157,8174,2,0,P|450:151|486:144,3,46.4,14|8|8|8,1:2|0:0|0:0|0:0,0:0:0:0:
322,216,8493,1,10,1:2:0:0:
322,216,8573,1,8,0:0:0:0:
322,216,8653,2,0,P|318:243|307:304,1,46.4,8|8,0:0|0:0,0:0:0:0:
241,351,8812,38,0,P|216:347|165:342,1,46.4,14|10,1:2|0:0,0:0:0:0:
131,290,8972,2,0,P|106:296|49:308,3,46.4,10|10|10|8,0:0|0:0|1:2|0:0,0:0:0:0:
219,212,9291,1,10,0:0:0:0:
219,212,9371,1,8,0:0:0:0:
219,212,9450,6,0,P|226:251|232:289,1,46.4,10|10,1:2|0:0,0:0:0:0:
113,149,9610,2,0,P|118:117|123:82,1,46.4000014160157,10|10,0:0|0:0,0:0:0:0:
63,48,9760,1,10,1:2:0:0:
173,35,9921,1,10,0:0:0:0:
173,35,10001,1,8,0:0:0:0:
173,35,10082,6,0,P|215:26|261:16,1,76.7999999999997,6|8,1:2|0:0,0:0:0:0:
343,0,10379,1,8,1:2:0:0:
412,48,10527,1,8,0:0:0:0:
494,0,10690,1,8,0:0:0:0:
512,90,10835,1,0,1:2:0:0:
429,145,10981,5,8,0:0:0:0:
429,145,11300,38,0,B|347:168|388:204|282:240,1,153.6,6|2,1:2|1:2,0:0:0:0:
124,32,11918,6,0,P|174:51|199:60,1,76.7999999999998,12|2,0:0|1:2,0:0:0:0:
243,129,12227,1,2,0:0:0:0:
320,81,12382,1,2,1:2:0:0:
272,10,12537,1,6,0:0:0:0:
141,135,12846,6,0,P|134:172|149:212,1,76.7999999999998,10|0,0:0|0:0,0:0:0:0:
208,308,13155,6,0,P|226:209|245:116,1,182.4,6|8,1:2|0:0,0:0:0:0:
124,32,13774,38,0,P|60:27|29:126,1,153.6,6|2,1:2|1:2,0:0:0:0:
63,384,14399,5,12,0:0:0:0:
135,332,14555,2,0,P|181:316|237:298,2,76.7999999999998,2|2|2,1:2|0:0|1:2,0:0:0:0:
0,202,15031,5,14,0:0:0:0:
0,202,15940,5,2,0:0:0:0:
0,202,16250,38,0,P|89:231|159:253,1,153.6,6|2,1:2|1:2,0:0:0:0:
343,167,16888,5,12,0:0:0:0:
283,96,17039,2,0,P|274:50|265:5,2,76.7999999999998,2|2|2,1:2|0:0|1:2,0:0:0:0:
236,174,17504,5,6,0:0:0:0:
367,76,17645,1,8,0:0:0:0:
436,217,17787,2,0,P|468:239|530:243,1,76.7999999999998,2|0,0:0|0:0,0:0:0:0:
311,313,18099,6,0,B|213:327|241:364|141:386,1,182.4,14|8,1:2|0:0,0:0:0:0:
52,281,18724,38,0,P|34:211|91:165,1,153.60000375,6|2,1:2|1:2,0:0:0:0:
283,96,19338,6,0,P|238:85|195:73,1,74.8953599999998,12|2,0:0|1:2,0:0:0:0:
134,20,19631,1,2,0:0:0:0:
77,91,19769,5,2,1:2:0:0:
254,221,19926,5,10,0:0:0:0:
210,77,20074,1,2,1:2:0:0:
104,191,20223,1,2,1:2:0:0:
337,180,20370,5,10,0:0:0:0:
337,180,20662,5,10,0:0:0:0:
337,180,20956,6,0,B|424:156|379:111|473:86,1,169.600000258789,0|2,1:2|1:2,0:0:0:0:
512,213,21421,2,0,P|502:258|490:321,1,84.8,14|2,0:0|0:0,0:0:0:0:
425,358,21733,1,2,1:2:0:0:
425,358,21889,1,2,1:2:0:0:
311,285,22045,6,0,P|268:263|209:268,1,84.8,14|0,0:0|0:0,0:0:0:0:
165,207,22356,1,2,1:2:0:0:
165,207,22512,1,2,1:2:0:0:
243,66,22668,2,0,P|255:137|262:183,1,84.8,14|2,0:0|0:0,0:0:0:0:
136,118,22980,5,2,1:2:0:0:
50,89,23135,1,2,1:2:0:0:
160,18,23291,5,14,0:0:0:0:
68,179,23447,2,0,P|72:213|81:253,2,42.4,2|2|2,1:2|1:2|1:2,0:0:0:0:
50,89,23759,53,2,1:2:0:0:
165,207,23915,2,0,P|148:269|131:324,1,84.8,14|0,0:0|0:0,0:0:0:0:
38,374,24226,1,2,1:2:0:0:
6,295,24382,1,2,1:2:0:0:
122,377,24538,2,0,P|180:366|224:359,1,84.8,14|2,0:0|0:0,0:0:0:0:
348,327,24855,5,4,1:2:0:0:
259,248,25016,1,10,0:0:0:0:
259,248,25096,1,8,0:0:0:0:
259,248,25177,2,0,P|265:290|268:318,3,42.4,2|0|0|0,1:2|1:2|1:2|1:2,0:0:0:0:
366,184,25500,6,0,P|372:151|375:134,1,37.6888889463976,14|0,1:2|1:2,0:0:0:0:
271,92,25650,1,10,1:2:0:0:
271,92,25730,1,0,1:2:0:0:
271,92,25810,2,0,P|277:134|280:162,3,40,10|8|6|4,1:3|1:3|1:3|1:3,0:0:0:0:
344,55,26144,38,0,P|387:46|412:15,1,80,14|8,1:2|0:0,0:0:0:0:
271,142,26454,2,0,P|230:97|109:105,1,160,6|0,1:2|0:0,0:0:0:0:
27,177,26890,5,10,0:0:0:0:
161,248,27036,1,6,1:2:0:0:
114,164,27190,1,2,1:2:0:0:
76,247,27370,6,0,P|86:294|98:351,1,76.7999999999998,6|2,1:2|1:2,0:0:0:0:
197,384,27685,1,14,0:0:0:0:
345,275,28001,6,0,P|278:254|235:240,1,91.2,6|0,1:2|0:0,0:0:0:0:
211,185,28309,6,0,L|201:131,2,53.3333333333333,8|8|8,0:0|0:0|0:0,0:0:0:0:
267,84,28626,22,0,B|343:58|322:19|412:-7,1,153.6,6|2,1:2|1:2,0:0:0:0:
117,128,29241,5,12,0:0:0:0:
81,53,29389,2,0,P|45:43|4:29,2,80,2|2|2,1:2|0:0|1:2,0:0:0:0:
25,207,29851,5,14,0:0:0:0:
25,207,30468,6,0,B|31:260|48:254|59:312,1,105.966079677734,10|6,1:3|1:3,0:0:0:0:
202,384,31100,38,0,P|168:373|127:361,1,68.7999999999999,6|0,1:2|0:0,0:0:0:0:
303,288,31417,2,0,P|406:268|457:258,1,137.6,6|0,1:2|0:0,0:0:0:0:
348,154,31893,5,10,0:0:0:0:
500,114,32034,1,6,1:2:0:0:
442,180,32183,1,2,1:2:0:0:
333,57,32340,6,0,P|286:43|250:31,1,76.7999999999997,2|2,0:0|0:0,0:0:0:0:
473,0,32656,1,14,0:0:0:0:
258,128,32959,6,0,B|217:137|229:159|183:177,1,91.2,14|0,1:2|0:0,0:0:0:0:
126,231,33259,22,0,P|106:227|60:214,2,53.3333333333333,8|8|8,0:0|0:0|0:0,0:0:0:0:
24,162,33569,6,0,P|14:111|4:2,1,153.60000375,6|2,1:2|1:2,0:0:0:0:
213,260,34194,6,0,P|208:297|192:358,1,76.800001875,12|2,0:0|1:2,0:0:0:0:
113,373,34503,1,2,0:0:0:0:
44,323,34653,5,2,1:2:0:0:
286,293,34803,5,10,0:0:0:0:
373,261,34953,1,2,1:2:0:0:
461,229,35103,1,2,1:2:0:0:
257,115,35253,5,10,0:0:0:0:
257,115,35573,5,10,0:0:0:0:
257,115,35854,6,0,B|348:105|333:145|428:136,1,169.040320258789,0|2,1:2|1:2,0:0:0:0:
356,0,36312,2,0,P|340:58|328:118,1,84.8,14|2,0:0|0:0,0:0:0:0:
293,204,36627,5,2,1:2:0:0:
293,204,36785,1,2,1:2:0:0:
176,96,36943,2,0,P|136:85|65:69,1,84.8,14|0,0:0|0:0,0:0:0:0:
241,29,37259,5,2,1:2:0:0:
241,29,37416,1,2,1:2:0:0:
120,157,37574,2,0,P|131:216|138:261,1,84.8,14|2,0:0|0:0,0:0:0:0:
196,339,37890,5,2,1:2:0:0:
196,339,38048,1,2,1:2:0:0:
293,204,38206,1,14,0:0:0:0:
225,260,38364,1,2,1:2:0:0:
225,260,38443,1,2,1:2:0:0:
225,260,38522,37,2,1:2:0:0:
290,318,38681,1,2,1:2:0:0:
415,231,38841,2,0,P|423:187|398:143,1,84.8,14|0,0:0|0:0,0:0:0:0:
369,59,39160,5,2,1:2:0:0:
444,14,39319,1,2,1:2:0:0:
322,130,39479,2,0,P|267:116|213:102,1,84.8,14|2,0:0|0:0,0:0:0:0:
125,49,39794,5,2,1:2:0:0:
216,1,39948,2,0,P|207:25|187:77,1,42.4,10|8,0:0|0:0,0:0:0:0:
151,149,40103,5,10,0:0:0:0:
44,100,40251,1,8,0:0:0:0:
0,169,40404,2,0,P|6:223|13:276,1,80,10|0,1:2|1:2,0:0:0:0:
98,330,40710,1,10,1:2:0:0:
98,330,41030,6,0,B|167:328|156:361|240:362,1,137.6,4|8,1:2|0:0,0:0:0:0:
486,317,41649,2,0,P|450:304|412:290,1,68.7999999999999,2|0,1:2|1:2,0:0:0:0:
375,218,41959,2,0,P|345:242|357:343,1,137.6,10|2,0:0|0:0,0:0:0:0:
485,231,42579,6,0,P|477:177|470:140,1,68.7999999999999,8|0,0:0|0:0,0:0:0:0:
395,136,42889,2,0,P|407:59|418:-18,1,137.6,2|10,1:2|0:0,0:0:0:0:
280,129,43509,5,10,0:0:0:0:
245,53,43664,1,2,1:2:0:0:
168,123,43819,5,10,0:0:0:0:
203,199,43974,1,2,1:2:0:0:
326,53,44129,2,0,P|230:31|144:10,1,156.07808375,10|2,0:0|1:3,0:0:0:0:
70,104,44588,37,8,0:0:0:0:
70,104,44893,1,2,1:3:0:0:
3,39,45043,2,0,P|37:18|86:17,1,68.7999999999999,8|0,0:0|0:0,0:0:0:0:
160,88,45349,5,6,1:2:0:0:
45,200,45507,2,0,P|48:219|54:257,2,40.5092271915691,8|10|6,0:0|0:0|1:2,0:0:0:0:
144,275,45824,2,0,P|137:304|130:340,1,34.4,10|6,0:3|0:3,0:0:0:0:
91,377,45976,70,0,P|177:357|256:341,1,137.6,6|8,1:2|0:0,0:0:0:0:
373,255,46604,6,0,P|402:231|406:175,1,68.7999999999999,2|0,0:0|1:2,0:0:0:0:
298,220,46918,2,0,P|274:190|218:186,1,68.7999999999999,10|0,0:0|1:2,0:0:0:0:
264,295,47232,2,0,P|234:318|230:374,1,68.7999999999999,2|0,0:0|1:2,0:0:0:0:
342,332,47546,2,0,P|365:361|421:365,1,68.7999999999999,8|0,0:0|0:0,0:0:0:0:
471,268,47860,2,0,P|459:195|446:117,1,137.6,2|8,1:2|0:0,0:0:0:0:
376,49,48332,1,0,3:0:0:0:
376,49,48410,1,0,3:0:0:0:
376,49,48489,70,0,B|301:43|306:87|228:78,1,137.6,6|8,0:0|0:0,0:0:0:0:
61,15,49107,6,0,P|47:65|35:104,1,80,6|0,0:0|1:2,0:0:0:0:
169,160,49421,1,8,0:0:0:0:
129,70,49578,1,0,1:2:0:0:
74,181,49741,2,0,P|40:172|-11:159,1,76.7999999999998,6|0,0:0|1:2,0:0:0:0:
169,268,50044,2,0,P|203:259|254:246,1,76.7999999999998,10|0,0:0|1:2,0:0:0:0:
343,199,50354,37,14,0:0:0:0:
372,123,50505,1,2,1:2:0:0:
440,234,50657,5,10,0:0:0:0:
460,312,50808,1,2,1:2:0:0:
343,384,50957,6,0,P|307:347|209:361,1,137.6,4|8,1:2|0:0,0:0:0:0:
86,333,51608,2,0,P|74:293|64:250,1,68.7999999999999,2|0,0:0|1:2,0:0:0:0:
185,131,51915,2,0,P|178:205|165:287,1,138.047202099609,10|2,0:0|0:0,0:0:0:0:
22,201,52530,6,0,P|15:161|40:133,1,68.7999999999999,8|0,0:0|0:0,0:0:0:0:
0,46,52838,2,0,P|59:8|137:41,1,137.6,2|10,1:2|0:0,0:0:0:0:
312,134,53453,5,10,0:0:0:0:
341,51,53609,1,2,0:0:0:0:
254,23,53765,5,10,0:0:0:0:
225,106,53921,1,2,0:0:0:0:
285,78,54078,1,10,0:0:0:0:
230,113,54390,5,10,0:0:0:0:
250,27,54544,1,2,0:0:0:0:
339,46,54699,5,10,0:0:0:0:
319,131,54853,1,2,0:0:0:0:
285,78,55015,1,10,0:0:0:0:
460,12,55315,5,10,0:0:0:0:
485,109,55465,5,10,0:0:0:0:
506,208,55615,70,0,P|493:258|483:304,1,76.7999999999998,10|4,0:0|0:0,0:0:0:0:
381,347,55915,6,0,B|314:325|312:383|225:358,1,137.6,0|8,1:2|0:0,0:0:0:0:
147,246,56553,2,0,P|156:190|165:147,1,68.7999999999999,2|0,1:2|1:2,0:0:0:0:
68,55,56872,2,0,P|61:106|50:154,1,68.7999999999999,10|0,0:0|1:2,0:0:0:0:
73,208,57191,1,2,0:0:0:0:
73,208,57336,1,2,1:2:0:0:
138,104,57482,2,0,P|178:93|214:83,1,68.7999999999999,10|0,0:0|0:0,0:0:0:0:
283,39,57794,1,2,1:2:0:0:
357,90,57950,1,0,1:2:0:0:
267,187,58107,2,0,P|278:140|285:104,1,68.7999999999999,14|0,0:0|0:0,0:0:0:0:
483,18,58419,6,0,P|492:119|500:189,1,169.6,6|8,0:0|0:0,0:0:0:0:
288,335,59065,5,2,0:0:0:0:
351,281,59212,1,0,1:2:0:0:
453,382,59359,2,0,P|395:365|336:346,1,84.8,10|0,0:0|1:2,0:0:0:0:
215,287,59653,6,0,P|201:331|219:380,1,84.8,10|0,0:0|0:0,0:0:0:0:
380,202,59947,2,0,P|372:167|367:141,1,42.4,4|0,1:2|1:2,0:0:0:0:
254,82,60108,1,0,1:2:0:0:
254,82,60188,1,0,1:2:0:0:
254,82,60269,2,0,P|259:49|264:11,3,42.4,8|8|8|8,1:2|0:0|0:0|0:0,0:0:0:0:
187,137,60580,6,0,P|192:170|197:208,3,42.4,8|8|8|8,1:2|0:0|0:0|0:0,0:0:0:0:
343,76,60880,1,8,1:2:0:0:
81,98,65820,37,6,1:2:0:0:
81,98,66135,2,0,P|123:110|189:129,1,92.8,8|0,0:0|0:0,0:0:0:0:
274,1,66451,5,0,0:0:0:0:
204,46,66593,1,0,1:2:0:0:
266,154,66736,1,8,0:0:0:0:
364,201,66879,2,0,B|448:236|423:266|516:311,1,198.592005664063,4|0,1:2|1:2,0:0:0:0:
355,306,67336,5,10,0:0:0:0:
304,373,67488,1,2,0:0:0:0:
202,289,67641,2,0,P|186:248|202:188,1,92.8,6|0,0:0|1:2,0:0:0:0:
337,120,67945,5,10,0:0:0:0:
278,198,68097,2,0,L|264:149,1,46.4,8|8,0:0|0:0,0:0:0:0:
204,46,68250,38,0,P|145:31|50:136,1,185.618565664063,6|8,1:2|0:0,0:0:0:0:
154,127,68705,1,0,1:2:0:0:
292,11,68857,2,0,P|363:32|487:67,1,185.6,6|8,1:2|0:0,0:0:0:0:
508,140,69311,1,0,1:2:0:0:
362,229,69463,2,0,P|376:175|388:132,1,92.8,14|0,0:0|1:2,0:0:0:0:
501,350,69766,5,12,0:0:0:0:
458,239,69917,1,2,1:2:0:0:
309,384,70069,5,14,0:0:0:0:
362,229,70220,1,2,1:2:0:0:
171,321,70372,5,12,0:0:0:0:
146,218,70523,1,0,1:2:0:0:
222,384,70686,38,0,P|136:364|28:345,1,169.6,6|10,1:2|0:0,0:0:0:0:
0,240,71140,2,0,P|-4:164|93:149,1,169.6,6|0,1:2|0:0,0:0:0:0:
208,101,71595,2,0,P|225:172|236:223,1,84.8,10|0,0:0|0:0,0:0:0:0:
227,183,72056,5,2,1:2:0:0:
124,82,72209,2,0,P|141:11|152:-40,1,84.8,10|2,0:0|0:0,0:0:0:0:
349,48,72515,5,2,1:2:0:0:
284,99,72668,1,2,1:2:0:0:
242,23,72821,1,10,0:0:0:0:
402,114,72974,1,2,1:2:0:0:
460,31,73127,6,0,P|444:117|421:229,1,169.616960258789,6|10,1:2|0:0,0:0:0:0:
406,309,73581,2,0,P|401:267|512:257,1,169.6,6|0,1:2|0:0,0:0:0:0:
342,362,74027,2,0,P|305:352|252:338,1,84.8,10|0,0:0|0:0,0:0:0:0:
149,379,74338,5,2,1:2:0:0:
68,248,74572,5,6,1:2:0:0:
158,289,74788,69,2,1:2:0:0:
78,333,75010,5,6,1:2:0:0:
182,191,75222,69,2,1:2:0:0:
158,289,75444,5,6,1:2:0:0:
23,182,75642,6,0,P|15:130|6:72,1,92.8,6|0,1:2|1:2,0:0:0:0:
219,24,75949,2,0,P|331:49|417:65,1,185.6,8|4,0:0|1:2,0:0:0:0:
335,139,76411,5,0,1:2:0:0:
479,255,76565,1,8,0:0:0:0:
434,165,76718,2,0,P|343:185|252:203,1,185.6,0|0,1:2|1:2,0:0:0:0:
133,168,77180,6,0,P|118:215|166:277,1,92.8,10|2,0:0|1:2,0:0:0:0:
289,336,77490,2,0,P|255:300|177:310,1,92.8,6|2,1:2|1:2,0:0:0:0:
66,384,77814,6,0,P|114:372|143:300,1,92.8,10|10,0:0|0:0,0:0:0:0:
162,299,78034,1,10,0:0:0:0:
162,299,78102,6,0,P|179:180|203:9,1,277.670710734864,2|2,1:2|3:2,0:0:0:0:
194,34,79780,2,0,P|200:69|207:103,1,52.7999999999998,0|0,3:2|0:0,0:0:0:0:
258,177,80092,1,2,3:2:0:0:
480,77,80392,5,8,0:0:0:0:
464,310,80696,70,0,P|429:303|385:294,1,80,6|0,1:2|0:0,0:0:0:0:
418,139,81000,2,0,P|411:173|402:217,1,80,6|2,1:2|0:0,0:0:0:0:
249,191,81314,2,0,P|283:197|327:206,1,80,4|0,1:2|0:0,0:0:0:0:
296,359,81629,2,0,P|302:324|311:280,1,80,6|0,1:2|0:0,0:0:0:0:
358,248,81944,5,4,1:2:0:0:
202,343,82101,1,2,0:0:0:0:
146,281,82258,2,0,P|102:267|56:257,1,80,6|2,1:2|0:0,0:0:0:0:
212,8,82573,69,6,1:2:0:0:
249,191,82731,1,2,0:0:0:0:
86,65,82888,5,6,1:2:0:0:
45,136,83046,1,2,0:0:0:0:
297,60,83203,70,0,P|331:66|375:75,1,80,6|0,1:2|0:0,0:0:0:0:
343,231,83518,2,0,P|349:196|358:152,1,80,6|2,1:2|0:0,0:0:0:0:
512,179,83833,2,0,P|477:172|433:163,1,80,4|0,1:2|0:0,0:0:0:0:
465,11,84148,2,0,P|458:45|449:89,1,80,6|0,1:2|0:0,0:0:0:0:
403,122,84463,5,6,1:2:0:0:
470,253,84673,70,0,P|485:347|494:400,2,106.666666666667,2|2|6,0:0|0:0|1:2,0:0:0:0:
385,325,85303,6,0,P|378:361|368:392,1,53.3333333333333,2|4,0:0|1:2,0:0:0:0:
256,192,85566,1,8,0:0:0:0:
256,192,85644,1,8,0:0:0:0:
256,192,85722,6,0,P|245:112|234:20,1,151.2,6|8,1:2|0:0,0:0:0:0:
246,28,86047,1,0,1:2:0:0:
356,106,86209,1,8,0:0:0:0:
165,193,86372,6,0,B|79:185|97:222|6:214,1,151.2,0|8,1:2|0:0,0:0:0:0:
5,207,86697,1,0,1:2:0:0:
113,109,86860,1,8,0:0:0:0:
213,266,87022,6,0,P|288:291|388:325,1,151.2,0|8,1:2|0:0,0:0:0:0:
362,332,87348,1,0,1:2:0:0:
496,266,87510,1,8,0:0:0:0:
365,163,87673,5,2,1:2:0:0:
365,163,87754,1,0,0:0:0:0:
365,163,87835,2,0,P|360:192|349:231,2,50.4,8|8|0,0:0|0:0|1:2,0:0:0:0:
512,81,88161,1,8,0:0:0:0:
512,81,88242,1,8,0:0:0:0:
512,81,88324,38,0,P|478:28|368:33,1,151.2,6|8,1:2|0:0,0:0:0:0:
384,7,88663,1,0,1:2:0:0:
226,108,88822,1,8,0:0:0:0:
251,24,88982,5,0,1:2:0:0:
447,145,89141,2,0,P|449:175|453:210,2,50.4,8|8|0,0:0|0:0|1:2,0:0:0:0:
384,7,89460,1,8,0:0:0:0:
197,196,89620,6,0,L|130:177,2,67.2,2|8|8,1:2|0:0|0:0,0:0:0:0:
267,274,89911,2,0,L|334:255,2,67.2,8|8|8,1:2|0:0|0:0,0:0:0:0:
202,332,90223,2,0,L|135:313,2,67.2,8|8|8,0:0|0:0|0:0,0:0:0:0:
256,384,90542,5,8,0:0:0:0:
197,196,90708,1,0,1:2:0:0:
286,33,90894,6,0,P|275:163|265:288,2,243.19999703125,6|4|4,1:2|1:2|1:2,0:0:0:0:
373,210,92937,2,0,P|430:199|466:139,1,121.6,6|2,1:2|0:0,0:0:0:0:
491,374,93562,6,0,L|483:336,1,22.6013864192708,8|10,0:0|0:0,0:0:0:0:
188,54,94917,6,0,P|134:68|104:77,1,45.8666666666666,14|0,0:0|0:0,0:0:0:0:
61,52,95142,2,0,P|44:78|53:108,3,45.8666666666666,10|8|10|8,0:0|0:0|0:0|0:0,0:0:0:0:
0,163,95593,6,0,P|14:190|44:197,1,45.8666666666666,10|8,0:0|0:3,0:0:0:0:
37,280,95818,6,0,P|68:281|89:258,1,45.8666673665365,10|4,0:3|0:3,0:0:0:0:
147,322,96042,6,0,P|163:295|160:273,1,53.2666666666667,6|0,0:3|1:2,0:0:0:0:
125,179,96293,5,4,1:2:0:0:
18,364,98455,6,0,P|33:318|83:310,1,89.60000109375,2|2,3:2|0:0,0:0:0:0:
149,320,99420,70,0,B|110:265|90:291|41:217,1,134.400001640625,2|0,3:2|0:0,0:0:0:0:
0,173,100416,5,2,3:2:0:0:
2,39,101360,70,0,P|12:62|8:85,1,44.7999999999999,2|0,3:2|0:0,0:0:0:0:
80,127,101864,2,0,P|100:141|109:164,1,44.7999999999999,2|0,3:2|0:0,0:0:0:0:
190,154,102430,2,0,P|214:156|234:171,1,44.7999999999999,2|0,3:2|0:0,0:0:0:0:
275,100,102996,6,0,L|332:88,1,44.7999999999999,2|0,3:2|0:0,0:0:0:0:
256,192,104799,6,0,P|251:161|247:131,1,40,2|0,3:2|3:2,0:0:0:0:
245,144,104972,6,0,P|254:115|259:92,1,40,0|0,3:2|3:2,0:0:0:0:
253,99,105129,5,0,3:2:0:0:
256,192,105243,12,0,112467,0:0:0:0:
