osu file format v14

[General]
AudioFilename: audio.mp3
AudioLeadIn: 0
PreviewTime: 60742
Countdown: 0
SampleSet: Soft
StackLeniency: 0.7
Mode: 0
LetterboxInBreaks: 0
WidescreenStoryboard: 1

[Editor]
Bookmarks: 23,1253,11307,41034,65830,70691,75644,78108,80707,85729,90894,96293,112467,116678
DistanceSpacing: 1.3
BeatDivisor: 3
GridSize: 8
TimelineZoom: 5.355998

[Metadata]
Title:Versace Summer (Cut Ver.)
TitleUnicode:Versace Summer (Cut Ver.)
Artist:JANK
ArtistUnicode:JANK
Creator:Shime
Version:Hard
Source:
Tags:english indie alternative rock math art emo midwest awkward punk fail better heal faster panucci's panuccis pizza little tyrant short version male vocals jank! lou matt diamond sam becht ruben polo creep records j_a_n_k j_a_n_k_!
BeatmapID:3515536
BeatmapSetID:1719491

[Difficulty]
HPDrainRate:4.5
CircleSize:3.3
OverallDifficulty:6
ApproachRate:8
SliderMultiplier:1.4
SliderTickRate:0.5

[Events]
//Background and Video events
0,0,"ilyzglock.jpg",0,0
//Break Periods
2,61080,64520
2,78302,79461
2,96493,97705
//Storyboard Layer 0 (Background)
//Storyboard Layer 1 (Fail)
//Storyboard Layer 2 (Pass)
//Storyboard Layer 3 (Foreground)
//Storyboard Layer 4 (Overlay)
//Storyboard Sound Samples

[TimingPoints]
10,310.880829015544,4,2,27,60,1,0
1246,307.692307692308,4,2,27,50,1,0
1246,-86.2068965517241,4,2,27,50,0,0
3100,320.855614973262,4,2,27,50,1,0
3100,-86.2068965517241,4,2,27,50,0,0
3741,319.148936170213,4,2,27,50,1,0
3741,-86.2068965517241,4,2,27,50,0,0
5010,312.5,4,2,27,50,1,0
5010,-86.2068965517241,4,2,27,50,0,0
6579,319.148936170213,4,2,27,50,1,0
6579,-86.2068965517241,4,2,27,50,0,0
7536,319.148936170213,4,2,27,50,1,0
7536,-86.2068965517241,4,2,27,50,0,0
8812,-86.2068965517241,4,2,27,60,0,0
9760,322.580645161291,4,2,27,60,1,0
10082,297.029702970297,4,2,27,60,1,0
10082,-104.166666666667,4,2,27,60,0,0
10690,291.26213592233,4,2,27,60,1,0
10981,291.26213592233,4,2,27,60,1,0
11029,271.493212669683,4,2,27,60,1,0
11300,309.278350515464,4,2,27,50,1,0
11300,-104.166666666667,4,2,27,50,0,0
13155,-131.578947368421,4,2,27,50,0,0
13774,312.5,4,2,27,50,1,0
13774,-104.166666666667,4,2,27,50,0,0
15031,250,4,2,27,50,1,0
15072,292.682926829268,4,2,27,50,1,0
15315,292.682926829268,4,2,27,60,1,0
15940,319.148936170213,4,2,27,60,1,0
16250,319.148936170213,4,2,27,50,1,0
16250,-104.166666666667,4,2,27,50,0,0
16888,303.030303030303,4,2,27,50,1,0
17039,-104.166666666667,4,2,27,50,0,0
17504,283.018867924529,4,2,27,50,1,0
17787,312.5,4,2,27,50,1,0
18099,-131.578947368421,4,2,27,50,0,0
18724,292.682926829268,4,2,27,50,1,0
18724,-104.166666666667,4,2,27,50,0,0
19016,322.58064516129,4,2,27,50,1,0
19495,273.972602739726,4,2,27,50,1,0
19495,-104.166666666667,4,2,27,50,0,0
19769,315.78947368421,4,2,27,50,1,0
19926,297.029702970296,4,2,27,50,1,0
20370,292.682926829268,4,2,27,50,1,0
20956,309.278350515464,4,2,27,65,1,0
20956,-94.3396226415094,4,2,27,65,0,0
21110,311.688311688312,4,2,27,65,1,0
21421,-94.3396226415094,4,2,27,65,0,0
24855,322.580645161291,4,2,27,65,1,0
25177,-94.3396226415094,4,2,27,65,0,0
25571,319.148936170213,4,2,27,65,1,0
26144,310.880829015545,4,2,27,50,1,0
26144,-104.166666666667,4,2,27,50,0,0
26890,292.682926829269,4,2,27,50,1,0
27190,375.000000000001,4,2,27,50,1,0
27370,315.789473684211,4,2,27,50,1,0
28001,-131.578947368421,4,2,27,50,0,0
28309,315.789473684211,4,2,27,50,1,0
28626,300,4,2,27,50,1,0
28626,-104.166666666667,4,2,27,50,0,0
28640,-104.166666666667,4,2,27,50,0,0
29241,297.029702970297,4,2,27,50,1,0
29851,297.029702970297,4,2,27,50,1,0
30170,298.507462686567,4,2,27,60,1,0
30468,326.086956521739,4,2,27,50,1,0
30468,-151.515151515152,4,2,27,50,0,0
30795,303.030303030303,4,2,27,50,1,0
31100,317.460317460317,4,2,27,50,1,0
31100,-116.279069767442,4,2,27,50,0,0
31893,283.018867924528,4,2,27,50,1,0
32183,315.78947368421,4,2,27,50,1,0
32340,-104.166666666667,4,2,27,50,0,0
32656,303.030303030303,4,2,27,50,1,0
32959,-131.578947368421,4,2,27,50,0,0
33259,303.030303030303,4,2,27,50,1,0
33569,306.122448979592,4,2,27,50,1,0
33569,-104.166666666667,4,2,27,50,0,0
33875,319.148936170213,4,2,27,50,1,0
34353,300,4,2,27,50,1,0
35253,319.148936170212,4,2,27,50,1,0
35573,285.714285714286,4,2,27,50,1,0
35787,-100,4,2,27,5,0,0
35854,303.030303030303,4,2,27,65,1,0
35854,-94.3396226415094,4,2,27,65,0,0
36005,303.030303030303,4,2,27,60,1,0
36156,-100,4,2,27,65,0,0
36312,315.78947368421,4,2,27,65,1,0
36312,-94.3396226415094,4,2,27,65,0,0
37259,315.78947368421,4,2,27,65,1,0
37574,-94.3396226415094,4,2,27,65,0,0
38522,319.148936170212,4,2,27,65,1,0
38841,-94.3396226415094,4,2,27,65,0,0
39794,309.278350515464,4,2,27,65,1,0
40103,294.117647058824,4,2,27,65,1,0
40251,306.122448979593,4,2,27,65,1,0
40710,319.148936170214,4,2,27,60,1,0
41030,309.917355371901,4,2,27,50,1,0
41649,-116.279069767442,4,2,27,50,0,0
44129,-104.166666666667,4,2,27,50,0,0
44443,291.26213592233,4,2,27,50,1,0
44893,300,4,2,27,50,1,0
45043,-116.279069767442,4,2,27,50,0,0
45349,317.460317460318,4,2,27,55,1,0
45667,315.789473684211,4,2,27,60,1,0
45976,314.136125654451,4,2,27,50,1,0
45976,-116.279069767442,4,2,27,50,0,0
48489,-116.279069767442,4,2,27,55,0,0
49107,314.136125654451,4,2,27,55,1,0
49741,303.030303030303,4,2,27,55,1,0
49741,-104.166666666667,4,2,27,55,0,0
50354,303.030303030303,4,2,27,60,1,0
50657,-100,4,2,27,55,0,0
50957,329.67032967033,4,2,27,50,1,0
50957,-116.279069767442,4,2,27,50,0,0
51608,307.692307692308,4,2,27,50,1,0
51608,-116.279069767442,4,2,27,50,0,0
52223,307.692307692308,4,2,27,50,1,0
52530,-116.279069767442,4,2,27,50,0,0
53453,312.5,4,2,27,50,1,0
54390,309.278350515464,4,2,27,55,1,0
55015,300,4,2,27,55,1,0
55315,-100,4,2,27,60,0,0
55615,-104.166666666667,4,2,27,60,0,0
55915,319.148936170213,4,2,27,50,1,0
55915,-116.279069767442,4,2,27,50,0,0
57191,291.26213592233,4,2,27,50,1,0
57482,312.5,4,2,27,50,1,0
57482,-116.279069767442,4,2,27,50,0,0
58419,319.148936170212,4,2,27,60,1,0
58419,-94.3396226415094,4,2,27,60,0,0
59065,294.117647058823,4,2,27,60,1,0
59359,-94.3396226415094,4,2,27,60,0,0
59947,322.58064516129,4,2,27,60,1,0
59947,-94.3396226415094,4,2,27,60,0,0
60108,-94.3396226415094,4,2,27,30,0,0
60269,-94.3396226415094,4,2,27,40,0,0
60580,300,4,2,27,50,1,0
60580,-94.3396226415094,4,2,27,50,0,0
60880,280.373831775701,4,2,27,60,1,0
61161,384.615384615385,4,2,27,60,1,0
61352,454.545454545455,4,2,27,60,1,0
61806,434.782608695652,4,2,27,60,1,0
62240,340.909090909091,4,2,27,60,1,0
62410,276.497695852535,4,2,27,60,1,0
62686,329.67032967033,4,2,27,60,1,0
63015,309.278350515464,4,2,27,60,1,0
63169,310.880829015544,4,2,27,60,1,0
63324,272.727272727273,4,2,27,60,1,0
63596,375,4,2,27,60,1,0
63783,428.571428571429,4,2,27,60,1,0
64211,309.278350515464,4,2,27,60,1,0
64520,361.44578313253,4,2,27,60,1,0
64760,315.78947368421,4,2,27,60,1,0
64970,322.58064516129,4,2,27,60,1,0
65185,322.58064516129,4,2,27,60,1,0
65400,322.58064516129,4,2,27,60,1,0
65615,322.58064516129,4,2,27,60,1,0
65820,315.78947368421,4,2,27,75,1,1
66451,285.714285714286,4,2,27,75,1,1
66879,-86.2068965517241,4,2,27,75,0,1
67032,304.568527918781,4,2,27,75,1,1
67641,-86.2068965517241,4,2,27,75,0,1
68554,303.030303030302,4,2,27,75,1,1
69160,-86.2068965517241,4,2,27,75,0,1
69387,-86.2068965517241,4,2,27,5,0,1
69463,303.030303030302,4,2,27,75,1,1
69463,-86.2068965517241,4,2,27,75,0,1
70686,303.030303030302,4,2,27,65,1,0
70686,-94.3396226415094,4,2,27,65,0,0
71903,306.122448979591,4,2,27,65,1,0
72209,-94.3396226415094,4,2,27,65,0,0
73433,297.029702970296,4,2,27,65,1,0
73581,-94.3396226415094,4,2,27,65,0,0
74338,350.877192982455,4,2,27,60,1,0
74572,324.324324324323,4,2,27,60,1,0
74788,333.333333333332,4,2,27,60,1,0
75010,319.148936170212,4,2,27,60,1,0
75222,333.333333333333,4,2,27,60,1,0
75444,297.029702970296,4,2,27,60,1,0
75543,-100,4,2,27,5,0,0
75642,307.692307692307,4,2,27,75,1,1
75642,-86.2068965517241,4,2,27,75,0,1
77490,324.324324324324,4,2,27,60,1,1
77490,-86.2068965517241,4,2,27,60,0,1
77814,294.117647058823,4,2,27,60,1,1
78102,360.360360360361,4,2,27,40,1,0
78822,306.122448979592,4,2,27,30,1,0
79128,333.333333333333,4,2,27,30,1,0
79461,319.148936170212,4,2,27,35,1,0
79780,312.499999999999,4,2,27,40,1,0
80092,299.999999999999,4,2,27,50,1,0
80392,285.714285714285,4,2,27,60,1,0
80696,304.568527918782,4,2,27,65,1,0
81000,314.96062992126,4,2,27,65,1,0
81944,314.96062992126,4,2,27,65,1,0
85722,325.20325203252,4,2,27,80,1,1
85722,-79.3650793650794,4,2,27,80,0,1
88324,329.67032967033,4,2,27,80,1,1
88324,-79.3650793650794,4,2,27,80,0,1
88663,319.148936170213,4,2,27,80,1,1
89620,285.714285714286,4,2,27,50,1,1
89620,-79.3650793650794,4,2,27,50,0,1
89911,312.5,4,2,27,60,1,1
89911,-79.3650793650794,4,2,27,60,0,1
90223,-79.3650793650794,4,2,27,70,0,1
90542,333.333333333333,4,2,27,60,1,0
90894,336.134453781513,4,2,27,60,1,0
90894,-131.578947368421,4,2,27,60,0,0
92238,352.941176470589,4,2,27,60,1,0
92937,312.5,4,2,27,60,1,0
92937,-131.578947368421,4,2,27,60,0,0
93620,324.324324324324,4,2,27,40,1,0
94917,338.028169014084,4,2,27,50,1,0
95142,-116.279069767442,4,2,27,50,0,0
95931,333.333333333333,4,2,27,50,1,0
96042,342.857142857142,4,2,27,40,1,0
96156,413.793103448275,4,2,27,40,1,0
96293,540.540540540538,4,2,27,50,1,0
98455,444.444444444443,4,2,27,30,1,0
98455,-178.571428571429,4,2,27,30,0,0
98899,521.73913043478,4,2,27,30,1,0
99420,521.73913043478,4,2,27,30,1,0
99420,-178.571428571429,4,2,27,30,0,0
100202,428.571428571427,4,2,27,30,1,0
100416,472.440944881888,4,2,27,30,1,0
101360,504.201680672267,4,2,27,35,1,0
101360,-100,4,2,27,35,0,0
101864,566.037735849055,4,2,27,35,1,0
102430,566.037735849055,4,2,27,35,1,0
102430,-178.571428571429,4,2,27,35,0,0
102996,882.352941176466,4,2,27,35,1,0
102996,-178.571428571429,4,2,27,35,0,0
104799,389.61038961039,4,2,27,60,1,0
104896,307.692307692308,4,2,27,60,1,0
104972,333.333333333333,4,2,27,60,1,0
105055,298.507462686567,4,2,27,60,1,0
105129,458.015267175572,4,2,27,60,1,0
106557,821.917808219178,4,2,27,30,1,0
107378,879.120879120879,4,2,27,30,1,0
108257,1052.63157894737,4,2,27,30,1,0
112467,-100,4,2,27,5,0,0
116678,-100,4,2,27,5,0,0

[Colours]
Combo1 : 121,121,121
Combo2 : 114,186,192
Combo3 : 172,169,205
Combo4 : 214,214,154
Combo5 : 82,226,190
Combo6 : 195,195,195

[HitObjects]
408,65,10,5,12,1:2:0:0:
408,65,1246,6,0,L|429:192,1,121.8,14|8,1:2|0:0,0:0:0:0:
394,225,1553,2,0,L|335:210,3,40.6,10|8|8|8,1:2|0:0|0:0|0:0,0:0:0:0:
315,179,1861,2,0,L|227:197,1,81.2,10|8,1:2|0:0,0:0:0:0:
148,253,2169,2,0,L|134:321,3,40.6,10|8|8|8,1:2|0:0|0:0|0:0,0:0:0:0:
166,339,2476,6,0,L|256:354,1,81.2,14|8,1:2|0:0,0:0:0:0:
350,376,2784,2,0,P|358:358|361:321,3,40.6,10|8|8|8,1:2|0:0|0:0|0:0,0:0:0:0:
408,305,3100,2,0,L|392:211,1,81.2,14|8,1:2|0:0,0:0:0:0:
479,90,3420,2,0,L|494:140,3,40.6,10|8|8|8,1:2|0:0|0:0|0:0,0:0:0:0:
444,154,3741,6,0,L|321:133,1,121.8,14|8,1:2|0:0,0:0:0:0:
280,105,4060,2,0,L|222:118,3,40.6,10|8|8|8,1:2|0:0|0:0|0:0,0:0:0:0:
194,138,4379,2,0,L|180:58,1,81.2,10|8,1:2|0:0,0:0:0:0:
88,6,4698,2,0,L|39:-1,3,40.6,10|8|8|8,1:2|0:0|0:0|0:0,0:0:0:0:
29,50,5010,38,0,L|19:149,1,81.2,14|8,1:2|0:0,0:0:0:0:
75,221,5322,2,0,P|74:251|85:283,3,40.6,8|8|8|8,1:2|0:0|0:0|0:0,0:0:0:0:
118,294,5635,2,0,P|160:305|201:292,1,81.2,14|8,1:2|0:0,0:0:0:0:
287,348,5947,2,0,L|343:332,3,40.6,8|8|8|8,1:2|0:0|0:0|0:0,0:0:0:0:
376,357,6260,6,0,L|397:227,1,121.8,14|8,1:2|0:0,0:0:0:0:
442,214,6579,2,0,L|433:165,3,40.6,10|8|10|8,1:2|0:0|0:0|0:0,0:0:0:0:
390,145,6898,2,0,L|399:96,3,40.6,10|8|8|8,1:2|0:0|0:0|0:0,0:0:0:0:
429,62,7217,2,0,L|519:80,1,81.2,10|8,1:2|0:0,0:0:0:0:
336,4,7536,6,0,L|200:31,1,121.8,14|8,1:2|0:0,0:0:0:0:
174,58,7855,2,0,L|166:112,3,40.6,10|8|8|8,1:2|0:0|0:0|0:0,0:0:0:0:
125,128,8174,2,0,L|133:182,3,40.6,14|8|8|8,1:2|0:0|0:0|0:0,0:0:0:0:
176,196,8493,2,0,L|168:250,3,40.6,10|8|8|8,1:2|0:0|0:0|0:0,0:0:0:0:
134,274,8812,5,14,1:2:0:0:
202,355,8972,1,10,0:0:0:0:
202,355,9051,1,10,0:0:0:0:
202,355,9131,2,0,L|297:334,1,81.2,10|10,1:2|0:0,0:0:0:0:
385,312,9450,1,10,1:2:0:0:
322,240,9610,1,10,0:0:0:0:
322,240,9690,1,10,0:0:0:0:
322,240,9760,2,0,P|306:196|313:154,1,70,10|10,1:2|0:0,0:0:0:0:
356,92,10082,6,0,L|366:8,2,67.1999999999998,6|8|8,1:2|0:0|1:2,0:0:0:0:
276,55,10527,1,8,0:0:0:0:
179,86,10690,6,0,L|169:7,1,70,8|0,0:0|1:2,0:0:0:0:
79,8,10981,1,8,0:0:0:0:
69,187,11300,6,0,B|125:149|125:149|184:179,2,134.4,6|2|12,1:2|1:2|0:0,0:0:0:0:
3,245,12073,2,0,L|20:395,1,134.4,2|2,1:2|1:2,0:0:0:0:
105,375,12537,2,0,L|183:357,1,67.1999999999998,6|0,0:0|0:0,0:0:0:0:
231,296,12846,1,10,0:0:0:0:
345,372,13155,6,0,B|422:347|392:303|471:279,1,159.6,6|8,1:2|0:0,0:0:0:0:
499,197,13774,6,0,L|478:52,2,134.4,6|2|12,1:2|1:2|0:0,0:0:0:0:
470,279,14555,2,0,P|435:245|347:251,1,134.4,2|2,1:2|1:2,0:0:0:0:
270,304,15031,5,14,0:0:0:0:
192,43,16250,38,0,P|227:77|315:71,2,134.40000328125,6|2|12,1:2|1:2|0:0,0:0:0:0:
144,116,17039,2,0,L|-2:148,1,134.4,2|2,1:2|1:2,0:0:0:0:
80,218,17504,2,0,L|96:300,1,70,6|8,0:0|0:0,0:0:0:0:
42,364,17787,1,2,0:0:0:0:
177,336,18099,6,0,B|293:350|293:350|330:397,1,159.6,14|8,1:2|0:0,0:0:0:0:
398,331,18724,6,0,L|423:190,1,134.40000328125,6|2,1:2|1:2,0:0:0:0:
280,96,19338,5,12,0:0:0:0:
214,153,19495,2,0,L|231:244,1,67.1999999999998,2|2,1:2|0:0,0:0:0:0:
269,258,19769,1,2,1:2:0:0:
352,207,19926,6,0,L|437:196,2,70,10|2|2,0:0|1:2|1:2,0:0:0:0:
280,96,20370,5,10,0:0:0:0:
459,67,20662,1,10,0:0:0:0:
414,285,20956,6,0,L|252:254,1,148.40000022644,0|2,1:2|1:2,0:0:0:0:
198,324,21421,2,0,L|114:338,1,74.2,14|2,0:0|0:0,0:0:0:0:
39,289,21733,5,2,1:2:0:0:
39,289,21889,1,2,1:2:0:0:
62,195,22045,1,14,0:0:0:0:
254,161,22356,5,2,1:2:0:0:
254,161,22512,1,2,1:2:0:0:
230,67,22668,2,0,P|196:83|148:83,1,74.2,14|2,0:0|0:0,0:0:0:0:
82,36,22980,5,2,1:2:0:0:
82,36,23135,1,2,1:2:0:0:
20,110,23291,2,0,L|32:208,1,74.2,14|2,0:0|1:2,0:0:0:0:
71,217,23525,1,2,1:2:0:0:
71,217,23603,38,0,L|147:238,1,74.2,2|2,1:2|1:2,0:0:0:0:
199,315,23915,2,0,L|281:302,1,74.2,14|0,0:0|0:0,0:0:0:0:
351,248,24226,1,2,1:2:0:0:
351,248,24382,1,2,1:2:0:0:
432,309,24538,2,0,L|511:294,1,74.2000001132202,14|2,0:0|0:0,0:0:0:0:
509,203,24855,6,0,L|502:89,1,105,4|8,1:2|0:0,0:0:0:0:
454,94,25177,2,0,L|463:39,3,37.1,2|0|0|0,1:2|1:2|1:2|1:2,0:0:0:0:
419,30,25500,5,14,1:2:0:0:
326,55,25650,1,10,1:2:0:0:
236,90,25810,6,0,L|230:53,3,35,10|8|6|4,1:3|1:3|1:3|1:3,0:0:0:0:
200,20,26144,38,0,L|133:12,1,67.1999999999998,14|8,1:2|0:0,0:0:0:0:
67,69,26454,2,0,B|28:122|28:122|46:188,1,134.4,6|0,1:2|0:0,0:0:0:0:
95,249,26890,1,10,0:0:0:0:
169,197,27036,2,0,L|255:185,1,73.8266666666667,6|2,1:2|1:2,0:0:0:0:
318,261,27370,5,6,1:2:0:0:
318,261,27527,1,2,1:2:0:0:
392,215,27685,1,14,0:0:0:0:
497,305,28001,6,0,B|437:316|456:338|379:351,1,104.041466666667,6|8,1:2|0:0,0:0:0:0:
358,367,28414,2,0,L|306:357,1,46.6666666666667,8|8,0:0|0:0,0:0:0:0:
259,324,28626,6,0,L|244:182,1,134.40000328125,6|2,1:2|1:2,0:0:0:0:
95,322,29241,1,12,0:0:0:0:
145,384,29389,2,0,P|85:357|10:370,1,140,2|2,1:2|1:2,0:0:0:0:
42,257,29851,5,14,0:0:0:0:
141,79,30468,6,0,L|159:188,1,92.7203197180176,10|6,1:3|1:3,0:0:0:0:
156,170,31100,6,0,P|190:178|217:201,1,60.1999999999999,6|0,1:2|0:0,0:0:0:0:
276,144,31417,2,0,P|326:149|378:94,1,120.4,6|0,1:2|0:0,0:0:0:0:
424,22,31893,1,10,0:0:0:0:
506,71,32034,1,6,1:2:0:0:
506,71,32183,1,2,1:2:0:0:
458,157,32340,6,0,L|471:231,1,67.1999999999998,2|2,0:0|0:0,0:0:0:0:
407,296,32656,1,14,0:0:0:0:
271,324,32959,6,0,L|154:303,1,105.34664,14|8,1:2|0:0,0:0:0:0:
131,275,33360,2,0,L|117:223,1,46.6666666666667,8|8,0:0|0:0,0:0:0:0:
71,227,33569,6,0,P|30:178|46:93,1,134.40000328125,6|2,1:2|1:2,0:0:0:0:
182,5,34194,1,12,0:0:0:0:
141,92,34353,2,0,B|214:88|196:130|276:130,1,140,2|2,1:2|1:2,0:0:0:0:
362,149,34803,1,10,0:0:0:0:
338,61,34953,2,0,L|242:39,1,70,2|2,1:2|1:2,0:0:0:0:
407,2,35253,5,10,0:0:0:0:
478,180,35573,6,0,L|458:309,1,105,10|0,0:0|0:0,0:0:0:0:
426,326,35854,6,0,P|364:334|319:253,1,147.91028022644,0|2,1:2|1:2,0:0:0:0:
251,335,36312,2,0,P|211:339|165:378,1,74.2,14|2,0:0|0:0,0:0:0:0:
88,376,36627,1,2,1:2:0:0:
88,376,36785,1,2,1:2:0:0:
18,308,36943,1,14,0:0:0:0:
146,179,37259,5,2,1:2:0:0:
146,179,37416,1,2,1:2:0:0:
209,106,37574,2,0,L|296:127,1,74.2,14|2,0:0|0:0,0:0:0:0:
351,190,37890,1,2,1:2:0:0:
351,190,38048,1,2,1:2:0:0:
401,107,38206,2,0,L|480:96,1,74.2,14|2,0:0|1:2,0:0:0:0:
509,138,38443,1,2,1:2:0:0:
509,138,38522,6,0,L|493:217,1,70,2|2,1:2|1:2,0:0:0:0:
418,265,38841,2,0,L|433:356,1,74.2,14|0,0:0|0:0,0:0:0:0:
338,370,39160,1,2,1:2:0:0:
338,370,39319,1,2,1:2:0:0:
263,308,39479,1,14,0:0:0:0:
263,308,39639,1,2,0:0:0:0:
180,348,39794,6,0,L|54:364,1,105,2|8,1:2|0:0,0:0:0:0:
31,334,40103,2,0,P|16:303|22:268,1,70.707,10|8,0:0|0:0,0:0:0:0:
95,215,40404,2,0,L|169:236,2,70,10|0|10,1:2|1:2|1:2,0:0:0:0:
35,65,41030,5,4,1:2:0:0:
35,65,41184,1,0,1:2:0:0:
112,113,41339,1,8,0:0:0:0:
253,46,41649,6,0,B|303:76|303:76|366:58,2,120.4,2|10|2,1:2|0:0|0:0,0:0:0:0:
181,11,42424,1,0,1:2:0:0:
181,11,42579,2,0,P|127:25|104:46,1,60.1999999999999,8|0,0:0|0:0,0:0:0:0:
43,0,42889,2,0,L|60:131,1,120.4,2|10,1:2|0:0,0:0:0:0:
16,269,43509,6,0,L|6:337,1,60.1999999999999,10|2,0:0|1:2,0:0:0:0:
74,371,43819,2,0,L|136:383,1,60.1999999999999,10|2,0:0|1:2,0:0:0:0:
212,345,44129,6,0,P|243:321|333:337,1,136.56832328125,10|2,0:0|1:3,0:0:0:0:
407,304,44588,1,8,0:0:0:0:
505,132,44893,37,2,1:3:0:0:
446,79,45043,2,0,L|361:57,1,60.1999999999999,8|0,0:0|0:0,0:0:0:0:
327,13,45349,6,0,P|311:46|311:92,1,70,6|8,1:2|0:0,0:0:0:0:
279,94,45587,1,10,0:0:0:0:
279,94,45667,2,0,L|170:117,1,105,6|6,1:2|0:3,0:0:0:0:
156,149,45976,70,0,L|22:123,1,120.4,6|8,1:2|0:0,0:0:0:0:
10,280,46604,6,0,L|83:265,1,60.1999999999999,2|0,0:0|1:2,0:0:0:0:
137,230,46918,2,0,L|214:250,1,60.1999999999999,10|0,0:0|1:2,0:0:0:0:
245,305,47232,2,0,L|383:285,1,120.4,2|8,0:0|0:0,0:0:0:0:
466,169,47860,2,0,P|479:141|471:91,2,60.1999999999999,2|0|8,1:2|1:2|0:0,0:0:0:0:
399,203,48332,1,0,3:0:0:0:
399,203,48410,1,0,3:0:0:0:
399,203,48489,70,0,B|329:186|351:163|292:149,1,120.4,6|8,0:0|0:0,0:0:0:0:
112,81,49107,2,0,L|104:10,2,70,6|0|8,0:0|1:2|0:0,0:0:0:0:
154,146,49578,1,0,1:2:0:0:
78,193,49741,6,0,L|57:326,1,134.4,6|10,0:0|0:0,0:0:0:0:
242,350,50354,37,14,0:0:0:0:
242,350,50505,1,2,1:2:0:0:
200,274,50657,5,10,0:0:0:0:
200,274,50808,1,2,1:2:0:0:
262,192,50957,6,0,L|286:55,1,120.4,4|8,1:2|0:0,0:0:0:0:
424,0,51608,6,0,L|434:83,1,60.1999999999999,2|0,0:0|1:2,0:0:0:0:
478,122,51915,2,0,L|452:266,1,120.791301837158,10|2,0:0|0:0,0:0:0:0:
302,269,52530,2,0,P|266:281|231:276,1,60.1999999999999,8|0,0:0|0:0,0:0:0:0:
185,332,52838,2,0,P|148:300|78:308,1,120.4,2|10,1:2|0:0,0:0:0:0:
44,164,53453,6,0,L|32:90,1,70,10|2,0:0|0:0,0:0:0:0:
94,28,53765,2,0,L|176:18,1,70,10|2,0:0|0:0,0:0:0:0:
223,88,54078,1,10,0:0:0:0:
398,42,54390,6,0,P|438:56|461:95,1,70,10|2,0:0|0:0,0:0:0:0:
504,153,54699,2,0,P|491:192|451:212,1,70,10|2,0:0|0:0,0:0:0:0:
383,250,55015,1,10,0:0:0:0:
219,329,55315,5,10,0:0:0:0:
153,266,55465,1,10,0:0:0:0:
97,333,55615,6,0,L|15:310,1,67.1999999999998,10|4,0:0|0:0,0:0:0:0:
5,228,55915,6,0,P|-3:167|44:126,1,120.4,0|8,1:2|0:0,0:0:0:0:
177,62,56553,6,0,L|184:129,1,60.1999999999999,2|0,1:2|1:2,0:0:0:0:
242,173,56872,2,0,L|227:243,1,60.1999999999999,10|0,0:0|1:2,0:0:0:0:
186,304,57191,1,2,0:0:0:0:
186,304,57336,1,2,1:2:0:0:
230,375,57482,2,0,L|355:360,1,120.4,10|2,0:0|1:2,0:0:0:0:
409,293,57950,1,0,1:2:0:0:
409,293,58107,2,0,L|418:219,1,60.1999999999999,14|0,0:0|0:0,0:0:0:0:
496,149,58419,6,0,L|473:-2,2,148.40000022644,6|8|0,0:0|0:0|0:0,0:0:0:0:
405,138,59212,1,0,1:2:0:0:
405,138,59359,2,0,L|325:126,1,74.2,10|0,0:0|1:2,0:0:0:0:
274,49,59653,2,0,L|150:69,1,111.3,10|0,0:0|0:0,0:0:0:0:
124,46,59947,6,0,L|110:96,3,37.1,4|0|0|0,1:2|1:2|1:2|1:2,0:0:0:0:
73,108,60269,1,8,1:2:0:0:
122,190,60430,6,0,L|132:253,1,37.1,8|8,0:0|0:0,0:0:0:0:
156,270,60580,2,0,L|144:337,3,37.1,8|8|8|8,1:2|0:0|0:0|0:0,0:0:0:0:
141,356,60880,5,8,1:2:0:0:
141,356,65820,38,0,L|124:190,1,140,6|8,1:2|0:0,0:0:0:0:
39,35,66451,1,0,0:0:0:0:
6,119,66593,2,0,L|88:136,1,70,0|8,1:2|0:0,0:0:0:0:
172,91,66879,2,0,P|230:103|316:29,1,173.768004956055,4|0,1:2|1:2,0:0:0:0:
368,124,67336,2,0,P|416:132|446:171,1,70,10|2,0:0|0:0,0:0:0:0:
504,222,67641,2,0,L|483:389,1,162.4,6|10,0:0|0:0,0:0:0:0:
401,316,68097,1,8,0:0:0:0:
401,316,68174,1,8,0:0:0:0:
401,316,68250,6,0,L|310:330,1,81.2,6|0,1:2|1:2,0:0:0:0:
237,369,68554,2,0,L|223:288,1,70,8|0,0:0|1:2,0:0:0:0:
165,212,68857,1,6,1:2:0:0:
165,212,69008,1,0,1:2:0:0:
249,148,69160,2,0,L|271:14,1,121.800003717041,8|0,0:0|0:0,0:0:0:0:
317,7,69463,6,0,L|408:20,1,81.2,14|0,0:0|1:2,0:0:0:0:
490,79,69766,1,12,0:0:0:0:
490,79,69917,1,2,1:2:0:0:
395,131,70069,6,0,L|408:212,1,81.2000024780274,14|2,0:0|1:2,0:0:0:0:
498,275,70372,1,12,0:0:0:0:
498,275,70523,1,0,1:2:0:0:
385,323,70686,38,0,B|315:331|331:368|245:385,1,148.4,6|10,1:2|0:0,0:0:0:0:
171,330,71140,2,0,P|122:280|162:202,1,148.4,6|0,1:2|0:0,0:0:0:0:
238,189,71595,2,0,L|250:271,1,74.2,10|0,0:0|0:0,0:0:0:0:
132,125,72056,5,2,1:2:0:0:
213,72,72209,2,0,L|225:-10,1,74.2,10|2,0:0|0:0,0:0:0:0:
323,11,72515,5,2,1:2:0:0:
323,11,72668,1,2,1:2:0:0:
418,25,72821,5,10,0:0:0:0:
418,25,72974,1,2,1:2:0:0:
435,120,73127,38,0,L|413:287,1,148.41484022644,6|10,1:2|0:0,0:0:0:0:
337,323,73581,2,0,P|298:319|235:230,1,148.4,6|0,1:2|0:0,0:0:0:0:
160,299,74027,2,0,P|117:312|87:350,1,74.2,10|0,0:0|0:0,0:0:0:0:
28,284,74338,53,2,1:2:0:0:
147,206,74572,6,0,L|160:301,1,93.3333333333333,6|2,1:2|1:2,0:0:0:0:
42,179,75010,69,6,1:2:0:0:
42,179,75222,1,2,1:2:0:0:
156,105,75444,6,0,L|233:124,1,46.6666666666667,6|0,1:2|0:0,0:0:0:0:
249,117,75642,6,0,L|332:102,1,81.2,6|0,1:2|1:2,0:0:0:0:
422,53,75949,2,0,B|402:224,1,162.4,8|4,0:0|1:2,0:0:0:0:
436,315,76411,5,0,1:2:0:0:
339,352,76565,1,8,0:0:0:0:
339,352,76718,2,0,L|163:319,1,162.4,0|0,1:2|1:2,0:0:0:0:
75,297,77180,6,0,L|57:206,1,81.2,10|2,0:0|1:2,0:0:0:0:
150,175,77490,2,0,L|171:-1,1,162.400004956055,6|10,1:2|0:0,0:0:0:0:
258,69,77961,5,10,0:0:0:0:
258,69,78034,1,10,0:0:0:0:
258,69,78102,1,2,1:2:0:0:
256,192,80392,5,8,0:0:0:0:
256,192,80696,2,0,L|265:286,1,70,6|0,1:2|0:0,0:0:0:0:
202,323,81000,2,0,B|144:292|172:262|100:230,2,140,6|4|6,1:2|1:2|1:2,0:0:0:0:
376,374,81944,6,0,L|443:353,1,70,4|2,1:2|0:0,0:0:0:0:
502,284,82258,1,6,1:2:0:0:
502,284,82416,1,2,0:0:0:0:
441,215,82573,2,0,L|429:128,1,70,6|2,1:2|0:0,0:0:0:0:
497,82,82888,2,0,L|517:-7,1,70,6|2,1:2|0:0,0:0:0:0:
422,31,83203,70,0,L|339:22,1,70,6|0,1:2|0:0,0:0:0:0:
272,68,83518,2,0,P|252:122|302:214,2,140,6|4|6,1:2|1:2|1:2,0:0:0:0:
91,13,84463,6,0,L|-37:30,2,93.3333333333333,6|2|2,1:2|0:0|0:0,0:0:0:0:
119,131,85093,2,0,L|247:148,2,93.3333333333333,6|2|2,1:2|0:0|0:0,0:0:0:0:
19,241,85722,6,0,P|-12:300|33:374,1,132.3,6|8,1:2|0:0,0:0:0:0:
64,375,86047,2,0,L|156:355,1,88.2,0|8,1:2|0:0,0:0:0:0:
245,292,86372,6,0,B|310:309|282:339|370:366,1,132.3,0|8,1:2|0:0,0:0:0:0:
409,341,86697,2,0,P|430:308|420:246,1,88.2,0|8,1:2|0:0,0:0:0:0:
500,171,87022,5,0,1:2:0:0:
410,99,87185,2,0,L|397:37,2,44.1,8|8|0,0:0|0:0|1:2,0:0:0:0:
322,172,87510,1,8,0:0:0:0:
236,95,87673,6,0,L|83:78,1,132.3,2|8,1:2|0:0,0:0:0:0:
73,31,87998,1,0,1:2:0:0:
5,123,88161,2,0,L|15:170,1,44.1,8|8,0:0|0:0,0:0:0:0:
57,202,88324,38,0,L|38:339,1,132.3,6|8,1:2|0:0,0:0:0:0:
70,366,88663,2,0,P|101:376|157:349,1,70,0|8,1:2|0:0,0:0:0:0:
212,317,88982,6,0,L|192:185,1,105,0|8,1:2|0:0,0:0:0:0:
157,169,89301,5,0,1:2:0:0:
201,63,89460,1,8,0:0:0:0:
292,154,89620,6,0,L|223:136,2,58.8,2|8|8,1:2|0:0|0:0,0:0:0:0:
342,217,89911,2,0,L|411:199,2,58.8,8|8|8,1:2|0:0|0:0,0:0:0:0:
278,266,90223,2,0,L|209:248,2,58.8,8|8|8,0:0|0:0|0:0,0:0:0:0:
325,330,90542,2,0,L|404:314,1,70,8|0,0:0|1:2,0:0:0:0:
165,384,90894,6,0,B|87:345|136:265|10:219,2,212.799997402344,6|4|4,1:2|1:2|1:2,0:0:0:0:
484,232,92937,6,0,P|466:177|406:166,1,106.4,6|2,1:2|0:0,0:0:0:0:
221,0,93620,69,10,0:0:0:0:
221,0,94917,5,14,0:0:0:0:
101,38,95142,6,0,L|91:0,3,40.1333333333333,10|8|10|8,0:0|0:0|0:0|0:0,0:0:0:0:
48,66,95593,6,0,L|-2:58,1,40.1333333333333,10|8,0:0|0:3,0:0:0:0:
6,105,95818,6,0,L|14:169,1,40.4895172790527,10|4,0:3|0:3,0:0:0:0:
47,191,96042,6,0,L|38:262,1,46.6666666666667,6|0,0:3|1:2,0:0:0:0:
35,283,96293,5,4,1:2:0:0:
452,368,98455,6,0,L|438:283,1,78.4000009570313,2|2,3:2|0:0,0:0:0:0:
376,210,99420,70,0,L|391:86,1,117.600001435547,2|0,3:2|0:0,0:0:0:0:
337,34,100416,2,0,B|262:54|290:93|221:124,1,140,2|0,3:2|0:0,0:0:0:0:
63,46,101360,6,0,P|38:79|62:176,1,140,2|2,3:2|3:2,0:0:0:0:
121,265,102430,2,0,L|161:256,1,39.1999999999999,2|0,3:2|0:0,0:0:0:0:
182,276,102996,2,0,L|222:282,1,39.1999999999999,2|0,3:2|0:0,0:0:0:0:
256,192,104799,12,0,112467,0:0:0:0:
