osu file format v14

[General]
AudioFilename: audio.mp3
AudioLeadIn: 0
PreviewTime: 60742
Countdown: 0
SampleSet: Soft
StackLeniency: 0.8
Mode: 0
LetterboxInBreaks: 0
WidescreenStoryboard: 1

[Editor]
Bookmarks: 23,1253,11307,36947,41034,65830,70691,75644,78108,80707,85729,90894,96293,112467,116678
DistanceSpacing: 1.5
BeatDivisor: 8
GridSize: 32
TimelineZoom: 4.555998

[Metadata]
Title:Versace Summer (Cut Ver.)
TitleUnicode:Versace Summer (Cut Ver.)
Artist:JANK
ArtistUnicode:JANK
Creator:Shime
Version:Everlasting Summertime
Source:
Tags:english indie alternative rock math art emo midwest awkward punk fail better heal faster panucci's panuccis pizza little tyrant short version male vocals jank! lou matt diamond sam becht ruben polo creep records j_a_n_k j_a_n_k_!
BeatmapID:3513962
BeatmapSetID:1719491

[Difficulty]
HPDrainRate:6.2
CircleSize:4.4
OverallDifficulty:9.2
ApproachRate:9.6
SliderMultiplier:2.2
SliderTickRate:1

[Events]
//Background and Video events
0,0,"ilyzglock.jpg",0,0
//Break Periods
2,61080,64520
//Storyboard Layer 0 (Background)
//Storyboard Layer 1 (Fail)
//Storyboard Layer 2 (Pass)
//Storyboard Layer 3 (Foreground)
//Storyboard Layer 4 (Overlay)
//Storyboard Sound Samples

[TimingPoints]
10,310.880829015544,4,2,27,60,1,0
10,-277.777777777778,4,2,27,60,0,0
1246,307.692307692308,4,2,27,50,1,0
2169,-131.578947368421,4,2,27,50,0,0
3100,320.855614973262,4,2,27,50,1,0
3420,-131.578947368421,4,2,27,50,0,0
3741,319.148936170213,4,2,27,50,1,0
4698,-131.578947368421,4,2,27,50,0,0
5010,312.5,4,2,27,50,1,0
6579,319.148936170213,4,2,27,50,1,0
7217,-131.578947368421,4,2,27,50,0,0
7536,319.148936170213,4,2,27,50,1,0
8653,-131.578947368421,4,2,27,50,0,0
8812,-131.578947368421,4,2,27,60,0,0
9760,322.580645161291,4,2,27,60,1,0
10082,297.029702970297,4,2,27,60,1,0
10082,-131.578947368421,4,2,27,60,0,0
10156,-131.578947368421,4,2,27,5,0,0
10230,-131.578947368421,4,2,27,60,0,0
10690,291.26213592233,4,2,27,60,1,0
10981,291.26213592233,4,2,27,60,1,0
10981,-104.166666666667,4,2,27,60,0,0
11029,271.493212669683,4,2,27,60,1,0
11300,309.278350515464,4,2,27,50,1,0
11300,-90.9090909090909,4,2,27,50,0,0
11531,-90.9090909090909,4,2,27,5,0,0
11609,-250,4,2,27,50,0,0
11840,-250,4,2,27,5,0,0
11918,-250,4,2,27,50,0,0
12537,-166.666666666667,4,2,27,50,0,0
12846,-111.111111111111,4,2,27,50,0,0
13155,-200,4,2,27,50,0,0
13774,312.5,4,2,27,50,1,0
13774,-90.9090909090909,4,2,27,50,0,0
14008,-90.9090909090909,4,2,27,5,0,0
14086,-250,4,2,27,50,0,0
14320,-250,4,2,27,5,0,0
14399,-250,4,2,27,50,0,0
15031,250,4,2,27,50,1,0
15072,292.682926829268,4,2,27,50,1,0
15315,292.682926829268,4,2,27,60,1,0
15940,319.148936170213,4,2,27,60,1,0
16250,319.148936170213,4,2,27,50,1,0
16250,-90.9090909090909,4,2,27,50,0,0
16489,-90.9090909090909,4,2,27,5,0,0
16569,-250,4,2,27,50,0,0
16808,-250,4,2,27,5,0,0
16888,303.030303030303,4,2,27,50,1,0
17504,283.018867924529,4,2,27,50,1,0
17787,312.5,4,2,27,50,1,0
17787,-133.333333333333,4,2,27,50,0,0
18099,-200,4,2,27,50,0,0
18724,292.682926829268,4,2,27,50,1,0
18724,-90.9090909090909,4,2,27,50,0,0
18943,-90.9090909090909,4,2,27,5,0,0
19016,322.58064516129,4,2,27,50,1,0
19016,-250,4,2,27,50,0,0
19257,-250,4,2,27,5,0,0
19338,-250,4,2,27,50,0,0
19495,273.972602739726,4,2,27,50,1,0
19769,315.78947368421,4,2,27,50,1,0
19926,297.029702970296,4,2,27,50,1,0
20370,292.682926829268,4,2,27,50,1,0
20418,-100,4,2,27,5,0,0
20662,-500,4,2,27,50,0,0
20881,-500,4,2,27,5,0,0
20956,309.278350515464,4,2,27,65,1,0
21110,311.688311688312,4,2,27,65,1,0
21187,-100,4,2,27,5,0,0
21265,-100,4,2,27,65,0,0
22122,-100,4,2,27,65,0,0
22200,-100,4,2,27,65,0,0
22901,-100,4,2,27,5,0,0
22980,-100,4,2,27,65,0,0
23368,-100,4,2,27,65,0,0
23447,-100,4,2,27,65,0,0
23992,-100,4,2,27,65,0,0
24071,-100,4,2,27,65,0,0
24616,-100,4,2,27,5,0,0
24695,-100,4,2,27,65,0,0
24855,322.580645161291,4,2,27,65,1,0
25571,319.148936170213,4,2,27,65,1,0
26144,310.880829015545,4,2,27,50,1,0
26454,-142.857142857143,4,2,27,50,0,0
26890,292.682926829269,4,2,27,50,1,0
27190,375.000000000001,4,2,27,50,1,0
27370,315.789473684211,4,2,27,50,1,0
27685,-166.666666666667,4,2,27,50,0,0
27921,-166.666666666667,4,2,27,5,0,0
28001,-200,4,2,27,50,0,0
28309,315.789473684211,4,2,27,50,1,0
28626,300,4,2,27,50,1,0
28626,-90.9090909090909,4,2,27,50,0,0
28640,-90.9090909090909,4,2,27,50,0,0
28851,-90.9090909090909,4,2,27,5,0,0
28926,-250,4,2,27,50,0,0
29151,-250,4,2,27,5,0,0
29241,297.029702970297,4,2,27,50,1,0
29851,297.029702970297,4,2,27,50,1,0
29851,-166.666666666667,4,2,27,50,0,0
30170,298.507462686567,4,2,27,60,1,0
30468,326.086956521739,4,2,27,50,1,0
30468,-166.666666666667,4,2,27,50,0,0
30712,-166.666666666667,4,2,27,5,0,0
30795,303.030303030303,4,2,27,50,1,0
31100,317.460317460317,4,2,27,50,1,0
31100,-90.9090909090909,4,2,27,50,0,0
31338,-90.9090909090909,4,2,27,5,0,0
31417,-250,4,2,27,50,0,0
31893,283.018867924528,4,2,27,50,1,0
32183,315.78947368421,4,2,27,50,1,0
32656,303.030303030303,4,2,27,50,1,0
32656,-133.333333333333,4,2,27,50,0,0
32959,-200,4,2,27,50,0,0
33259,303.030303030303,4,2,27,50,1,0
33569,306.122448979592,4,2,27,50,1,0
33569,-90.9090909090909,4,2,27,50,0,0
33798,-90.9090909090909,4,2,27,5,0,0
33875,319.148936170213,4,2,27,50,1,0
33875,-250,4,2,27,50,0,0
34114,-250,4,2,27,5,0,0
34194,-250,4,2,27,50,0,0
34353,300,4,2,27,50,1,0
35253,319.148936170212,4,2,27,50,1,0
35306,-100,4,2,27,5,0,0
35573,285.714285714286,4,2,27,50,1,0
35573,-500,4,2,27,50,0,0
35787,-500,4,2,27,5,0,0
35854,303.030303030303,4,2,27,65,1,0
36005,303.030303030303,4,2,27,60,1,0
36080,-100,4,2,27,5,0,0
36156,-100,4,2,27,65,0,0
36312,315.78947368421,4,2,27,65,1,0
36390,-100,4,2,27,5,0,0
36469,-100,4,2,27,65,0,0
37022,-100,4,2,27,5,0,0
37101,-100,4,2,27,65,0,0
37259,315.78947368421,4,2,27,65,1,0
37810,-100,4,2,27,5,0,0
37890,-100,4,2,27,65,0,0
38285,-100,4,2,27,5,0,0
38365,-100,4,2,27,65,0,0
38522,319.148936170212,4,2,27,65,1,0
38920,-100,4,2,27,5,0,0
39000,-100,4,2,27,65,0,0
39559,-100,4,2,27,5,0,0
39639,-100,4,2,27,65,0,0
39794,309.278350515464,4,2,27,65,1,0
40103,294.117647058824,4,2,27,65,1,0
40251,306.122448979593,4,2,27,65,1,0
40710,319.148936170214,4,2,27,60,1,0
40710,-133.333333333333,4,2,27,60,0,0
41030,309.917355371901,4,2,27,50,1,0
41030,-166.666666666667,4,2,27,50,0,0
44443,291.26213592233,4,2,27,50,1,0
44443,-166.666666666667,4,2,27,50,0,0
44893,300,4,2,27,50,1,0
44893,-166.666666666667,4,2,27,50,0,0
45349,317.460317460318,4,2,27,55,1,0
45349,-153.846153846154,4,2,27,55,0,0
45667,315.789473684211,4,2,27,60,1,0
45976,314.136125654451,4,2,27,50,1,0
45976,-166.666666666667,4,2,27,50,0,0
48489,-166.666666666667,4,2,27,55,0,0
49107,314.136125654451,4,2,27,55,1,0
49107,-166.666666666667,4,2,27,55,0,0
49741,303.030303030303,4,2,27,55,1,0
49741,-166.666666666667,4,2,27,55,0,0
50354,303.030303030303,4,2,27,60,1,0
50657,-100,4,2,27,55,0,0
50957,329.67032967033,4,2,27,50,1,0
50957,-166.666666666667,4,2,27,50,0,0
51608,307.692307692308,4,2,27,50,1,0
51915,-166.666666666667,4,2,27,50,0,0
52223,307.692307692308,4,2,27,50,1,0
52223,-166.666666666667,4,2,27,50,0,0
53453,312.5,4,2,27,50,1,0
54390,309.278350515464,4,2,27,55,1,0
55015,300,4,2,27,55,1,0
55315,-100,4,2,27,60,0,0
55615,-166.666666666667,4,2,27,60,0,0
55915,319.148936170213,4,2,27,50,1,0
55915,-133.333333333333,4,2,27,50,0,0
57191,291.26213592233,4,2,27,50,1,0
57482,312.5,4,2,27,50,1,0
57482,-133.333333333333,4,2,27,50,0,0
58341,-133.333333333333,4,2,27,5,0,0
58419,319.148936170212,4,2,27,60,1,0
58419,-117.647058823529,4,2,27,60,0,0
59065,294.117647058823,4,2,27,60,1,0
59065,-117.647058823529,4,2,27,60,0,0
59359,-117.647058823529,4,2,27,60,0,0
59947,322.58064516129,4,2,27,60,1,0
60108,-100,4,2,27,30,0,0
60269,-100,4,2,27,40,0,0
60580,300,4,2,27,50,1,0
60880,280.373831775701,4,2,27,60,1,0
61161,384.615384615385,4,2,27,60,1,0
61352,454.545454545455,4,2,27,60,1,0
61806,434.782608695652,4,2,27,60,1,0
62240,340.909090909091,4,2,27,60,1,0
62410,276.497695852535,4,2,27,60,1,0
62686,329.67032967033,4,2,27,60,1,0
63015,309.278350515464,4,2,27,60,1,0
63169,310.880829015544,4,2,27,60,1,0
63324,272.727272727273,4,2,27,60,1,0
63596,375,4,2,27,60,1,0
63783,428.571428571429,4,2,27,60,1,0
64211,309.278350515464,4,2,27,60,1,0
64520,361.44578313253,4,2,27,60,1,0
64760,315.78947368421,4,2,27,60,1,0
64970,322.58064516129,4,2,27,60,1,0
65185,322.58064516129,4,2,27,60,1,0
65400,322.58064516129,4,2,27,60,1,0
65615,322.58064516129,4,2,27,60,1,0
65820,315.78947368421,4,2,27,75,1,0
65820,-83.3333333333333,4,2,27,75,0,1
66451,285.714285714286,4,2,27,75,1,1
66736,-83.3333333333333,4,2,27,75,0,1
66807,-83.3333333333333,4,2,27,5,0,1
66879,-83.3333333333333,4,2,27,75,0,1
67032,304.568527918781,4,2,27,75,1,0
67108,-100,4,2,27,5,0,1
67184,-100,4,2,27,75,0,1
67336,-83.3333333333333,4,2,27,75,0,1
67412,-83.3333333333333,4,2,27,5,0,1
67488,-83.3333333333333,4,2,27,75,0,1
67641,-100,4,2,27,75,0,1
67945,-133.333333333333,4,2,27,75,0,1
68554,303.030303030302,4,2,27,75,1,1
69463,303.030303030302,4,2,27,75,1,1
70686,303.030303030302,4,2,27,65,1,0
70686,-90.9090909090909,4,2,27,65,0,0
70913,-90.9090909090909,4,2,27,5,0,0
70989,-90.9090909090909,4,2,27,65,0,0
71064,-90.9090909090909,4,2,27,5,0,0
71140,-90.9090909090909,4,2,27,65,0,0
71595,-125,4,2,27,65,0,0
71903,306.122448979591,4,2,27,65,1,0
72209,-90.9090909090909,4,2,27,65,0,0
72897,-90.9090909090909,4,2,27,65,0,0
72974,-90.9090909090909,4,2,27,65,0,0
73356,-90.9090909090909,4,2,27,5,0,0
73433,297.029702970296,4,2,27,65,1,0
73433,-90.9090909090909,4,2,27,65,0,0
73507,-90.9090909090909,4,2,27,5,0,0
73581,-90.9090909090909,4,2,27,65,0,0
74027,-125,4,2,27,65,0,0
74338,350.877192982455,4,2,27,60,1,0
74572,324.324324324323,4,2,27,60,1,0
74788,333.333333333332,4,2,27,60,1,0
75010,319.148936170212,4,2,27,60,1,0
75222,333.333333333333,4,2,27,60,1,0
75444,297.029702970296,4,2,27,60,1,0
75642,307.692307692307,4,2,27,75,1,1
75949,-83.3333333333333,4,2,27,75,0,1
76641,-83.3333333333333,4,2,27,5,0,1
76718,-90.9090909090909,4,2,27,75,0,1
76949,-83.3333333333333,4,2,27,5,0,1
77026,-90.9090909090909,4,2,27,75,0,1
77257,-83.3333333333333,4,2,27,5,0,1
77334,-90.9090909090909,4,2,27,75,0,1
77490,324.324324324324,4,2,27,60,1,1
77490,-100,4,2,27,60,0,1
77814,294.117647058823,4,2,27,60,1,1
77814,-133.333333333333,4,2,27,60,0,1
78102,360.360360360361,4,2,27,40,1,0
78102,-222.222222222222,4,2,27,40,0,0
78822,306.122448979592,4,2,27,30,1,0
79128,333.333333333333,4,2,27,30,1,0
79461,319.148936170212,4,2,27,35,1,0
79780,312.499999999999,4,2,27,40,1,0
79780,-166.666666666667,4,2,27,40,0,0
80092,299.999999999999,4,2,27,50,1,0
80092,-133.333333333333,4,2,27,50,0,0
80392,285.714285714285,4,2,27,60,1,0
80696,304.568527918782,4,2,27,65,1,0
80696,-76.9230769230769,4,2,27,65,0,0
80924,-76.9230769230769,4,2,27,5,0,0
81000,314.96062992126,4,2,27,65,1,0
81000,-90.9090909090909,4,2,27,65,0,0
81078,-90.9090909090909,4,2,27,5,0,0
81157,-71.4285714285714,4,2,27,65,0,0
81393,-71.4285714285714,4,2,27,5,0,0
81472,-71.4285714285714,4,2,27,65,0,0
81550,-71.4285714285714,4,2,27,5,0,0
81629,-66.6666666666667,4,2,27,65,0,0
81944,314.96062992126,4,2,27,65,1,0
82101,-76.9230769230769,4,2,27,65,0,0
82179,-76.9230769230769,4,2,27,5,0,0
82258,-76.9230769230769,4,2,27,65,0,0
82573,-62.5,4,2,27,65,0,0
83203,-76.9230769230769,4,2,27,65,0,0
83439,-76.9230769230769,4,2,27,5,0,0
83518,-90.9090909090909,4,2,27,65,0,0
83596,-90.9090909090909,4,2,27,5,0,0
83676,-71.4285714285714,4,2,27,65,0,0
83912,-71.4285714285714,4,2,27,5,0,0
83991,-71.4285714285714,4,2,27,65,0,0
84069,-71.4285714285714,4,2,27,5,0,0
84148,-66.6666666666667,4,2,27,65,0,0
84384,-66.6666666666667,4,2,27,5,0,0
84463,-100,4,2,27,65,0,0
84567,-100,4,2,27,5,0,0
84673,-100,4,2,27,65,0,0
84988,-100,4,2,27,5,0,0
85093,-100,4,2,27,65,0,0
85722,325.20325203252,4,2,27,80,1,0
85722,-76.9230769230769,4,2,27,80,0,1
88324,329.67032967033,4,2,27,80,1,1
88663,319.148936170213,4,2,27,80,1,1
89620,285.714285714286,4,2,27,50,1,1
89911,312.5,4,2,27,60,1,1
90223,-100,4,2,27,70,0,1
90542,333.333333333333,4,2,27,60,1,1
90894,336.134453781513,4,2,27,60,1,0
90894,-133.333333333333,4,2,27,60,0,0
92238,352.941176470589,4,2,27,60,1,0
92937,312.5,4,2,27,60,1,0
92937,-166.666666666667,4,2,27,60,0,0
93620,324.324324324324,4,2,27,40,1,0
94917,338.028169014084,4,2,27,50,1,0
94917,-133.333333333333,4,2,27,50,0,0
95931,333.333333333333,4,2,27,50,1,0
96042,342.857142857142,4,2,27,40,1,0
96156,413.793103448275,4,2,27,40,1,0
96293,540.540540540538,4,2,27,50,1,0
96293,-166.666666666667,4,2,27,50,0,0
96383,-166.666666666667,4,2,27,5,0,0
98455,444.444444444443,4,2,27,30,1,0
98899,521.73913043478,4,2,27,30,1,0
99420,521.73913043478,4,2,27,30,1,0
99420,-250,4,2,27,30,0,0
100202,428.571428571427,4,2,27,30,1,0
100416,472.440944881888,4,2,27,30,1,0
100416,-250,4,2,27,30,0,0
101360,504.201680672267,4,2,27,35,1,0
101360,-250,4,2,27,35,0,0
101864,566.037735849055,4,2,27,35,1,0
101864,-250,4,2,27,35,0,0
102430,566.037735849055,4,2,27,35,1,0
102430,-250,4,2,27,35,0,0
102996,882.352941176466,4,2,27,35,1,0
102996,-250,4,2,27,35,0,0
104799,389.61038961039,4,2,27,60,1,0
104896,307.692307692308,4,2,27,60,1,0
104972,333.333333333333,4,2,27,60,1,0
105055,298.507462686567,4,2,27,60,1,0
105129,458.015267175572,4,2,27,60,1,0
105129,-196.078431372549,4,2,27,60,0,0
106557,821.917808219178,4,2,27,30,1,0
107378,879.120879120879,4,2,27,30,1,0
108257,1052.63157894737,4,2,27,30,1,0
112467,-100,4,2,27,5,0,0
116678,-100,4,2,27,5,0,0

[Colours]
Combo1 : 121,121,121
Combo2 : 114,186,192
Combo3 : 172,169,205
Combo4 : 214,214,154
Combo5 : 82,226,190
Combo6 : 195,195,195

[HitObjects]
96,209,10,70,0,P|51:206|16:201,3,79.1999999999999,12|0|0|0,1:2|1:2|1:2|1:2,0:0:0:0:
191,271,1246,21,14,1:2:0:0:
202,274,1322,1,8,0:0:0:0:
221,266,1399,1,10,0:0:0:0:
230,244,1476,1,8,0:0:0:0:
216,202,1553,1,10,1:2:0:0:
162,171,1630,1,8,0:0:0:0:
168,99,1707,1,8,0:0:0:0:
223,66,1784,1,8,0:0:0:0:
264,93,1861,1,10,1:2:0:0:
260,129,1938,1,8,0:0:0:0:
299,147,2015,1,8,0:0:0:0:
337,124,2092,1,8,0:0:0:0:
378,123,2169,2,0,P|401:110|436:86,3,41.8,10|8|8|8,1:2|0:0|0:0|0:0,0:0:0:0:
489,65,2476,5,14,1:2:0:0:
467,68,2553,1,8,0:0:0:0:
450,97,2630,1,8,0:0:0:0:
460,133,2707,1,8,0:0:0:0:
497,153,2784,1,10,1:2:0:0:
512,211,2861,1,8,0:0:0:0:
473,268,2938,1,8,0:0:0:0:
413,223,3015,1,8,0:0:0:0:
336,241,3100,1,14,1:2:0:0:
313,294,3180,1,8,0:0:0:0:
313,326,3260,1,8,0:0:0:0:
296,345,3340,1,8,0:0:0:0:
275,342,3420,2,0,P|270:367|263:405,3,41.8,10|8|8|8,1:2|0:0|0:0|0:0,0:0:0:0:
192,324,3741,5,14,1:2:0:0:
129,358,3820,1,8,0:0:0:0:
78,314,3900,1,10,0:0:0:0:
91,258,3980,1,8,0:0:0:0:
130,232,4060,1,10,1:2:0:0:
188,242,4139,1,8,0:0:0:0:
242,195,4219,1,8,0:0:0:0:
233,123,4299,1,8,0:0:0:0:
162,92,4379,1,10,1:2:0:0:
107,136,4459,1,8,0:0:0:0:
56,136,4538,1,8,0:0:0:0:
23,164,4618,1,8,0:0:0:0:
1,148,4698,2,0,P|-9:118|-20:79,3,41.8,10|8|8|8,1:2|0:0|0:0|0:0,0:0:0:0:
102,47,5010,5,14,1:2:0:0:
163,13,5088,1,8,0:0:0:0:
220,39,5166,1,8,0:0:0:0:
233,94,5244,1,8,0:0:0:0:
273,123,5322,1,8,1:2:0:0:
313,95,5400,1,8,0:0:0:0:
308,81,5478,2,0,P|285:100|250:123,1,55,8|8,0:0|0:0,0:0:0:0:
64,311,5635,37,14,1:2:0:0:
59,324,5713,1,8,0:0:0:0:
70,358,5791,1,8,0:0:0:0:
124,384,5869,1,8,0:0:0:0:
167,357,5947,1,8,1:2:0:0:
200,313,6025,1,8,0:0:0:0:
246,279,6103,1,8,0:0:0:0:
315,282,6181,1,8,0:0:0:0:
362,343,6260,1,14,1:2:0:0:
428,365,6338,1,8,0:0:0:0:
488,333,6416,1,8,0:0:0:0:
499,268,6494,1,8,0:0:0:0:
457,228,6579,1,10,1:2:0:0:
398,234,6658,1,8,0:0:0:0:
347,204,6738,1,10,0:0:0:0:
338,146,6818,1,8,0:0:0:0:
374,105,6898,1,10,1:2:0:0:
428,104,6977,1,8,0:0:0:0:
473,69,7057,1,8,0:0:0:0:
458,17,7137,1,8,0:0:0:0:
449,25,7217,2,0,P|446:70|441:100,3,41.8,10|8|8|8,1:2|0:0|0:0|0:0,0:0:0:0:
289,86,7536,5,14,1:2:0:0:
249,90,7615,1,8,0:0:0:0:
219,60,7695,1,8,0:0:0:0:
173,50,7775,1,8,0:0:0:0:
134,75,7855,1,10,1:2:0:0:
116,118,7934,1,8,0:0:0:0:
64,133,8014,1,8,0:0:0:0:
35,84,8094,1,8,0:0:0:0:
90,42,8174,1,14,1:2:0:0:
155,63,8254,1,8,0:0:0:0:
157,140,8333,1,8,0:0:0:0:
95,184,8413,1,8,0:0:0:0:
71,254,8493,1,10,1:2:0:0:
110,319,8573,1,8,0:0:0:0:
170,326,8653,2,0,P|200:314|210:298,1,41.8,8|8,0:0|0:0,0:0:0:0:
407,208,8812,5,14,1:2:0:0:
368,140,8892,1,10,0:0:0:0:
298,141,8972,1,10,0:0:0:0:
258,197,9051,1,10,0:0:0:0:
277,255,9131,1,10,1:2:0:0:
324,265,9211,1,8,0:0:0:0:
351,242,9291,2,0,P|347:221|334:203,1,41.8,10|8,0:0|0:0,0:0:0:0:
251,68,9450,5,10,1:2:0:0:
174,59,9530,1,10,0:0:0:0:
141,116,9610,1,10,0:0:0:0:
86,98,9690,1,10,0:0:0:0:
67,124,9760,1,10,1:2:0:0:
45,118,9840,1,8,0:0:0:0:
36,134,9921,1,10,0:0:0:0:
27,131,10001,1,8,0:0:0:0:
27,131,10082,38,0,L|7:73,1,41.7999994897461,6|0,1:2|0:0,0:0:0:0:
67,232,10230,1,8,0:0:0:0:
229,0,10379,5,8,1:2:0:0:
251,68,10527,1,8,0:0:0:0:
492,68,10690,5,8,0:0:0:0:
388,188,10835,1,0,1:2:0:0:
512,267,10981,5,8,0:0:0:0:
509,259,11029,1,8,0:0:0:0:
466,327,11300,38,0,B|364:330|394:371|291:379,1,181.5,6|0,1:2|0:0,0:0:0:0:
292,306,11609,2,0,B|279:278|279:278|303:244,1,66,2|0,1:2|0:0,0:0:0:0:
361,281,11918,1,12,0:0:0:0:
223,360,12073,5,2,1:2:0:0:
149,336,12227,1,2,0:0:0:0:
76,311,12382,1,2,1:2:0:0:
187,165,12537,6,0,P|195:225|199:256,1,65.9999999999999,6|0,0:0|0:0,0:0:0:0:
17,119,12846,2,0,P|8:168|-3:228,1,99.0000000000001,10|0,0:0|0:0,0:0:0:0:
251,34,13155,6,0,P|265:131|277:212,1,165,6|8,1:2|0:0,0:0:0:0:
75,310,13774,38,0,P|95:244|215:247,1,181.5,6|0,1:2|0:0,0:0:0:0:
215,303,14086,2,0,B|184:314|184:314|155:298,1,66,2|0,1:2|0:0,0:0:0:0:
282,275,14399,1,12,0:0:0:0:
365,378,14555,5,2,1:2:0:0:
439,354,14711,1,2,0:0:0:0:
512,329,14867,1,2,1:2:0:0:
384,192,15031,5,14,0:0:0:0:
388,199,15072,1,8,0:0:0:0:
388,199,15940,5,2,0:0:0:0:
448,85,16250,38,0,B|346:76|378:37|275:23,1,181.5,6|0,1:2|0:0,0:0:0:0:
320,84,16569,2,0,B|340:109|340:109|382:113,1,66,2|0,1:2|0:0,0:0:0:0:
448,85,16888,1,12,0:0:0:0:
279,23,17039,5,2,1:2:0:0:
236,91,17191,1,2,0:0:0:0:
169,46,17342,1,2,1:2:0:0:
0,121,17504,5,6,0:0:0:0:
105,0,17645,1,8,0:0:0:0:
186,142,17787,2,0,B|164:127|164:127|78:149,1,82.5000000000002,2|0,0:0|0:0,0:0:0:0:
8,268,18099,6,0,B|45:249|45:249|169:286,1,165,14|8,1:2|0:0,0:0:0:0:
264,360,18724,38,0,P|215:337|246:221,1,181.5,6|0,1:2|0:0,0:0:0:0:
297,196,19016,2,0,B|307:229|307:229|288:268,1,66,2|0,1:2|0:0,0:0:0:0:
335,321,19338,1,12,0:0:0:0:
512,212,19495,5,2,1:2:0:0:
470,131,19631,1,2,0:0:0:0:
377,148,19769,5,2,1:2:0:0:
203,15,19926,5,10,0:0:0:0:
305,41,20074,1,2,1:2:0:0:
409,69,20223,1,2,1:2:0:0:
225,223,20370,6,0,L|215:181,1,36.6666666666667,10|0,0:0|0:0,0:0:0:0:
71,17,20662,6,0,L|64:54,1,33,10|0,0:0|0:0,0:0:0:0:
6,93,20956,6,0,P|27:207|44:289,1,165,0|0,1:2|0:0,0:0:0:0:
98,304,21265,1,2,1:2:0:0:
225,223,21421,2,0,B|184:188|184:188|113:217,1,110,14|2,0:0|0:0,0:0:0:0:
299,348,21733,5,2,1:2:0:0:
393,311,21889,1,2,1:2:0:0:
293,113,22045,1,14,0:0:0:0:
225,223,22200,1,0,0:0:0:0:
393,311,22356,5,2,1:2:0:0:
354,210,22512,1,2,1:2:0:0:
179,307,22668,2,0,B|87:318|115:356|30:372,1,165,14|0,0:0|0:0,0:0:0:0:
70,305,22980,5,2,1:2:0:0:
4,253,23135,1,2,1:2:0:0:
164,144,23291,1,14,0:0:0:0:
22,46,23447,1,2,1:2:0:0:
22,46,23525,1,2,1:2:0:0:
22,46,23603,38,0,B|-5:94|-5:94|18:149,1,110,2|2,1:2|1:2,0:0:0:0:
274,99,23915,1,14,0:0:0:0:
207,3,24071,1,0,0:0:0:0:
330,177,24226,5,2,1:2:0:0:
271,299,24382,1,2,1:2:0:0:
426,378,24538,5,14,0:0:0:0:
366,258,24694,1,2,0:0:0:0:
237,384,24855,1,4,1:2:0:0:
468,249,25016,5,10,0:0:0:0:
502,208,25096,1,8,0:0:0:0:
490,161,25177,1,2,1:2:0:0:
439,136,25258,1,0,1:2:0:0:
382,166,25338,1,0,1:2:0:0:
319,142,25419,1,0,1:2:0:0:
287,74,25500,1,14,1:2:0:0:
329,13,25571,1,0,1:2:0:0:
406,22,25650,1,10,1:2:0:0:
414,68,25730,1,0,1:2:0:0:
386,92,25810,1,10,1:3:0:0:
363,85,25890,1,8,1:3:0:0:
359,73,25969,1,6,1:3:0:0:
367,70,26049,1,4,1:3:0:0:
371,76,26144,37,14,1:2:0:0:
512,24,26299,1,8,0:0:0:0:
382,166,26454,2,0,P|306:150|202:130,1,154,6|0,1:2|0:0,0:0:0:0:
296,191,26890,1,10,0:0:0:0:
200,0,27036,5,6,1:2:0:0:
124,94,27190,1,2,1:2:0:0:
163,214,27370,1,6,1:2:0:0:
231,135,27527,1,2,1:2:0:0:
25,23,27685,2,0,P|39:96|48:149,1,98.9999999999998,14|0,0:0|0:0,0:0:0:0:
163,214,28001,6,0,P|157:239|151:267,1,55,6|0,1:2|0:0,0:0:0:0:
49,366,28309,5,8,0:0:0:0:
30,346,28414,37,8,0:0:0:0:
41,304,28519,5,8,0:0:0:0:
87,296,28626,6,0,B|186:313|141:350|252:373,1,181.5,6|0,1:2|0:0,0:0:0:0:
318,357,28926,2,0,B|333:328|333:328|314:282,1,66,2|0,1:2|0:0,0:0:0:0:
250,268,29241,1,12,0:0:0:0:
418,268,29389,5,2,1:2:0:0:
512,230,29538,1,2,0:0:0:0:
478,121,29686,1,2,1:2:0:0:
295,180,29851,5,14,0:0:0:0:
299,187,29900,1,8,0:0:0:0:
299,187,30468,6,0,P|232:177|178:169,1,98.9999999999998,10|0,1:3|0:0,0:0:0:0:
201,172,30795,1,6,1:3:0:0:
414,27,31100,6,0,P|475:48|466:174,1,181.5,6|0,1:2|0:0,0:0:0:0:
412,163,31417,2,0,B|386:201|386:201|409:258,1,88,6|0,1:2|0:0,0:0:0:0:
460,331,31893,5,10,0:0:0:0:
277,376,32034,1,6,1:2:0:0:
344,308,32183,1,2,1:2:0:0:
189,216,32340,1,2,0:0:0:0:
236,310,32498,1,2,0:0:0:0:
328,227,32656,2,0,P|338:174|347:129,1,82.5000000000002,14|0,0:0|0:0,0:0:0:0:
239,37,32959,6,0,P|245:64|252:91,1,55,14|0,1:2|0:0,0:0:0:0:
154,146,33259,5,8,0:0:0:0:
114,161,33360,37,8,0:0:0:0:
65,119,33461,5,8,0:0:0:0:
109,54,33569,6,0,P|86:160|58:285,1,181.5,6|0,1:2|0:0,0:0:0:0:
20,286,33875,2,0,B|-4:264|-4:264|1:221,1,66,2|0,1:2|0:0,0:0:0:0:
94,314,34194,1,12,0:0:0:0:
208,175,34353,1,2,1:2:0:0:
138,203,34503,1,2,0:0:0:0:
70,231,34653,1,2,1:2:0:0:
308,316,34803,5,10,0:0:0:0:
458,365,34953,1,2,1:2:0:0:
508,201,35103,1,2,1:2:0:0:
338,152,35253,6,0,L|352:212,1,36.6666666666667,10|0,0:0|0:0,0:0:0:0:
497,43,35573,6,0,L|502:10,1,33,10|0,0:0|0:0,0:0:0:0:
500,67,35854,6,0,P|454:16|336:61,1,164.274,0|0,1:2|0:0,0:0:0:0:
321,78,36156,1,2,1:2:0:0:
114,13,36312,2,0,P|106:47|88:116,1,55,14|0,0:0|0:0,0:0:0:0:
155,111,36469,1,2,0:0:0:0:
246,0,36627,5,2,1:2:0:0:
243,72,36785,1,2,1:2:0:0:
16,125,36943,2,0,P|6:95|-4:62,1,55,14|0,0:0|0:0,0:0:0:0:
133,209,37101,1,0,0:0:0:0:
155,111,37259,5,2,1:2:0:0:
0,246,37416,1,2,1:2:0:0:
196,292,37574,2,0,P|249:231|208:151,1,165,14|0,0:0|0:0,0:0:0:0:
155,111,37890,5,2,1:2:0:0:
133,209,38048,1,2,1:2:0:0:
272,298,38206,2,0,P|307:291|353:283,1,55,14|0,0:0|0:0,0:0:0:0:
139,367,38364,1,2,1:2:0:0:
139,367,38443,1,2,1:2:0:0:
139,367,38522,38,0,P|89:357|3:338,1,110,2|2,1:2|1:2,0:0:0:0:
133,209,38841,2,0,P|140:243|149:293,1,55,14|0,0:0|0:0,0:0:0:0:
199,309,39000,1,0,0:0:0:0:
1,245,39160,5,2,1:2:0:0:
63,145,39319,1,2,1:2:0:0:
243,144,39479,2,0,P|233:102|227:66,1,55,14|0,0:0|0:0,0:0:0:0:
184,0,39639,1,2,0:0:0:0:
133,209,39794,5,2,1:2:0:0:
331,103,39948,1,10,0:0:0:0:
331,103,40025,1,8,0:0:0:0:
331,103,40103,1,10,0:0:0:0:
67,26,40251,1,8,0:0:0:0:
184,0,40404,5,10,1:2:0:0:
151,137,40557,1,0,1:2:0:0:
330,102,40710,2,0,P|320:58|311:15,1,82.5000000000002,10|0,1:2|0:0,0:0:0:0:
230,214,41030,6,0,P|292:192|371:185,2,132,4|8|2,1:2|0:0|1:2,0:0:0:0:
203,283,41804,1,0,1:2:0:0:
122,179,41959,2,0,P|114:132|107:88,1,65.9999999999999,10|0,0:0|1:2,0:0:0:0:
76,255,42269,6,0,P|63:330|50:396,1,132,2|8,0:0|0:0,0:0:0:0:
111,328,42734,1,0,0:0:0:0:
0,269,42889,2,0,P|4:225|27:201,1,65.9999999999999,2|0,1:2|1:2,0:0:0:0:
110,113,43199,2,0,P|77:112|50:129,1,65.9999999999999,10|0,0:0|0:0,0:0:0:0:
195,225,43509,5,10,0:0:0:0:
287,107,43664,1,2,1:2:0:0:
151,21,43819,5,10,0:0:0:0:
242,166,43974,1,2,1:2:0:0:
392,61,44129,2,0,P|345:50|311:42,1,65.9999999999999,10|0,0:0|1:2,0:0:0:0:
465,207,44443,38,0,P|490:248|441:325,1,132,2|0,1:3|0:0,0:0:0:0:
384,351,44893,2,0,B|441:341|448:378|513:371,1,132,2|0,1:3|0:0,0:0:0:0:
335,272,45349,6,0,P|295:285|256:296,1,71.4999999999999,6|8,1:2|0:0,0:0:0:0:
264,308,45587,1,10,0:0:0:0:
264,308,45667,1,6,1:2:0:0:
120,359,45824,1,10,0:3:0:0:
120,359,45903,1,6,0:3:0:0:
120,359,45976,70,0,P|73:349|-22:330,2,132,6|8|2,1:2|0:0|0:0,0:0:0:0:
183,312,46761,1,0,1:2:0:0:
144,227,46918,2,0,P|117:258|121:301,1,65.9999999999999,10|0,0:0|1:2,0:0:0:0:
203,173,47232,2,0,P|209:128|217:81,1,65.9999999999999,2|0,0:0|1:2,0:0:0:0:
113,97,47546,2,0,P|106:141|99:189,1,65.9999999999999,8|0,0:0|0:0,0:0:0:0:
169,45,47860,2,0,B|239:29|219:16|294:-1,1,131.99999597168,2|8,1:2|0:0,0:0:0:0:
412,45,48332,1,0,3:0:0:0:
412,45,48410,1,0,3:0:0:0:
412,45,48489,6,0,P|401:93|393:137,1,65.9999999999999,6|0,0:0|0:0,0:0:0:0:
375,239,48803,1,8,0:0:0:0:
344,169,48960,1,0,0:0:0:0:
432,294,49107,2,0,P|348:276|281:263,1,132,6|8,0:0|0:0,0:0:0:0:
261,331,49578,1,0,1:2:0:0:
131,242,49741,2,0,P|120:283|104:328,1,65.9999999999999,6|0,0:0|1:2,0:0:0:0:
232,168,50044,2,0,P|236:210|245:257,1,65.9999999999999,10|0,0:0|1:2,0:0:0:0:
88,97,50354,37,14,0:0:0:0:
8,126,50505,1,2,1:2:0:0:
219,28,50657,5,10,0:0:0:0:
329,54,50808,1,2,1:2:0:0:
456,144,50957,6,0,P|444:97|436:60,1,65.9999999999999,4|0,1:2|1:2,0:0:0:0:
346,174,51286,2,0,P|335:246|324:323,1,129.19719597168,8|2,0:0|0:0,0:0:0:0:
373,368,51761,1,0,1:2:0:0:
452,294,51915,2,0,P|428:263|384:259,1,65.9999999999999,10|0,0:0|1:2,0:0:0:0:
218,332,52223,6,0,P|287:342|331:276,1,132,2|8,0:0|0:0,0:0:0:0:
252,251,52684,1,0,0:0:0:0:
136,307,52838,1,2,1:2:0:0:
218,332,52992,1,0,1:2:0:0:
146,220,53146,2,0,P|137:177|128:134,1,65.9999999999999,10|0,0:0|0:0,0:0:0:0:
264,22,53453,5,10,0:0:0:0:
211,138,53609,1,2,0:0:0:0:
364,209,53765,5,10,0:0:0:0:
325,89,53921,1,2,0:0:0:0:
252,251,54078,1,10,0:0:0:0:
252,251,54390,5,10,0:0:0:0:
364,209,54544,1,2,0:0:0:0:
462,337,54699,5,10,0:0:0:0:
328,285,54853,1,2,0:0:0:0:
470,185,55015,1,10,0:0:0:0:
470,185,55315,5,10,0:0:0:0:
361,354,55465,5,10,0:0:0:0:
285,155,55615,70,0,P|331:177|364:186,1,65.9999999999999,10|4,0:0|0:0,0:0:0:0:
175,305,55915,6,0,B|78:300|108:370|18:376,1,165.000006294251,0|8,1:2|0:0,0:0:0:0:
33,375,56553,2,0,P|2:348|19:285,1,82.5000000000002,2|0,1:2|1:2,0:0:0:0:
125,199,56872,2,0,P|115:239|107:279,1,82.5000000000002,10|0,0:0|1:2,0:0:0:0:
31,219,57191,1,2,0:0:0:0:
0,156,57336,1,2,1:2:0:0:
145,37,57482,2,0,P|191:56|227:70,1,82.5000000000002,10|0,0:0|0:0,0:0:0:0:
53,0,57794,1,2,1:2:0:0:
1,81,57950,1,0,1:2:0:0:
175,132,58107,2,0,P|241:111|314:90,1,123.75,14|0,0:0|0:0,0:0:0:0:
339,39,58419,6,0,B|433:80|377:111|493:169,1,187.000003566742,6|8,0:0|0:0,0:0:0:0:
373,168,58897,1,0,0:0:0:0:
461,37,59065,2,0,P|502:52|500:118,1,93.500001783371,2|0,0:0|1:2,0:0:0:0:
284,177,59359,2,0,P|269:139|298:92,1,93.500001783371,10|0,0:0|1:2,0:0:0:0:
472,250,59653,6,0,P|459:297|449:359,1,93.5000000000003,10|0,0:0|0:0,0:0:0:0:
20,178,59947,5,4,1:2:0:0:
29,185,60027,1,0,1:2:0:0:
54,179,60108,1,0,1:2:0:0:
87,198,60188,1,0,1:2:0:0:
150,159,60269,1,8,1:2:0:0:
198,209,60350,1,8,0:0:0:0:
244,193,60430,1,8,0:0:0:0:
276,220,60511,1,8,0:0:0:0:
337,177,60580,1,8,1:2:0:0:
383,232,60655,1,8,0:0:0:0:
430,207,60730,1,8,0:0:0:0:
472,250,60805,1,8,0:0:0:0:
472,250,60880,5,8,1:2:0:0:
497,228,65820,38,0,B|403:162|297:270|397:334|249:355,1,264,6|8,1:2|0:0,0:0:0:0:
301,341,66451,5,0,0:0:0:0:
250,239,66593,1,0,1:2:0:0:
418,331,66736,2,0,P|413:307|405:256,1,66,8|0,0:0|0:0,0:0:0:0:
347,134,66879,6,0,P|325:240|292:373,1,211.85999395752,4|0,1:2|0:0,0:0:0:0:
300,340,67184,1,0,1:2:0:0:
155,153,67336,6,0,P|158:109|197:80,1,66,10|0,0:0|0:0,0:0:0:0:
250,239,67488,1,2,0:0:0:0:
117,275,67641,2,0,P|62:263|-8:247,1,110,6|0,0:0|1:2,0:0:0:0:
430,134,67945,2,0,P|470:128|511:119,1,82.5000031471254,10|8,0:0|0:0,0:0:0:0:
367,93,68174,1,8,0:0:0:0:
367,93,68250,37,6,1:2:0:0:
437,212,68402,1,0,1:2:0:0:
421,32,68554,5,8,0:0:0:0:
371,249,68705,1,0,1:2:0:0:
194,80,68857,5,6,1:2:0:0:
274,112,69008,1,0,1:2:0:0:
136,138,69160,5,8,0:0:0:0:
334,57,69311,1,0,1:2:0:0:
60,307,69463,37,14,0:0:0:0:
102,220,69614,1,0,1:2:0:0:
395,115,69766,5,12,0:0:0:0:
446,282,69917,1,2,1:2:0:0:
103,13,70069,5,14,0:0:0:0:
11,231,70220,1,2,1:2:0:0:
401,384,70372,5,12,0:0:0:0:
360,243,70523,1,0,1:2:0:0:
203,373,70686,38,0,P|219:290|245:147,1,181.5,6|0,1:2|0:0,0:0:0:0:
181,247,70989,2,0,B|166:273|166:273|171:303,1,60.5,10|0,0:0|0:0,0:0:0:0:
321,169,71140,2,0,B|403:133|468:209|415:260|502:302,1,242,6|0,1:2|0:0,0:0:0:0:
161,38,71595,2,0,B|112:50|129:72|54:96,1,88,10|0,0:0|0:0,0:0:0:0:
87,84,72056,5,2,1:2:0:0:
236,194,72209,2,0,B|257:136|257:136|220:87,1,121,10|2,0:0|0:0,0:0:0:0:
0,333,72515,5,2,1:2:0:0:
138,191,72668,1,2,1:2:0:0:
191,384,72821,1,10,0:0:0:0:
43,271,72974,1,2,1:2:0:0:
216,314,73127,6,0,P|330:289|427:274,1,181.5,6|0,1:2|0:0,0:0:0:0:
315,221,73433,2,0,B|283:217|283:217|259:233,1,60.5,10|0,0:0|0:0,0:0:0:0:
480,332,73581,2,0,P|511:233|367:244,1,242,6|0,1:2|0:0,0:0:0:0:
290,70,74027,2,0,P|251:114|250:150,1,88,10|0,0:0|0:0,0:0:0:0:
288,323,74338,5,2,1:2:0:0:
335,146,74572,5,6,1:2:0:0:
160,196,74788,69,2,1:2:0:0:
268,238,75010,5,6,1:2:0:0:
271,218,75222,69,2,1:2:0:0:
255,225,75444,5,6,1:2:0:0:
22,178,75642,5,6,1:2:0:0:
175,107,75795,1,0,1:2:0:0:
50,2,75949,2,0,B|9:48|9:48|55:140,1,131.99999597168,8|0,0:0|1:2,0:0:0:0:
238,236,76257,5,4,1:2:0:0:
175,107,76411,1,0,1:2:0:0:
89,275,76565,2,0,P|141:262|192:250,1,65.9999979858399,8|0,0:0|0:0,0:0:0:0:
319,216,76718,2,0,P|236:196|104:164,1,181.500005538941,0|0,1:2|0:0,0:0:0:0:
142,173,77026,1,0,1:2:0:0:
336,349,77180,6,0,P|348:301|358:267,1,60.5000018463135,10|0,0:0|0:0,0:0:0:0:
463,260,77334,1,2,1:2:0:0:
304,107,77490,6,0,P|316:186|320:244,1,110,6|2,1:2|1:2,0:0:0:0:
491,183,77814,2,0,P|479:104|475:67,1,82.5000031471254,10|10,0:0|0:0,0:0:0:0:
304,9,78034,1,10,0:0:0:0:
304,9,78102,6,0,P|280:151|239:382,1,373.44778867035,2|2,1:2|3:2,0:0:0:0:
180,311,79780,6,0,B|168:320|168:320|155:321|155:321|151:330|151:330|125:344,1,65.9999979858399,0|0,3:2|0:0,0:0:0:0:
353,216,80092,2,0,B|386:226|386:226|392:239|392:239|423:251,1,82.5000000000002,2|0,3:2|0:0,0:0:0:0:
141,15,80392,1,8,0:0:0:0:
137,22,80439,1,8,0:0:0:0:
357,377,80696,70,0,B|425:346|382:300|446:219|537:276,1,214.5,6|0,1:2|0:0,0:0:0:0:
480,328,81000,2,0,P|465:370|448:417,1,60.5,6|0,1:2|0:0,0:0:0:0:
224,174,81157,6,0,B|113:143|113:143|106:145|106:145|-44:101,1,230.99999295044,2|0,0:0|0:0,0:0:0:0:
1,114,81472,2,0,P|13:156|30:217,1,77
250,384,81629,70,0,B|258:372|258:372|326:1,1,330.000012588501,6|4,1:2|1:2,0:0:0:0:
232,104,82101,6,0,B|215:134|215:134|224:187,1,71.5,2|0,0:0|0:0,0:0:0:0:
478,185,82258,2,0,P|442:114|348:140,1,143,6|2,1:2|0:0,0:0:0:0:
385,110,82495,1,0,0:0:0:0:
386,111,82573,2,0,B|380:116|380:116|353:275|353:275|346:278,2,176,6|2|6,1:2|0:0|1:2,0:0:0:0:
461,276,83046,1,2,0:0:0:0:
131,356,83203,70,0,B|41:316|41:316|73:197,1,214.49999018097,6|0,1:2|0:0,0:0:0:0:
32,324,83518,2,0,B|7:335|7:335|0:367,1,60.5000018463135,6|0,1:2|0:0,0:0:0:0:
31,85,83676,6,0,B|85:61|128:116|128:116|126:123|126:123|158:180|233:168,1,230.99999295044,2|0,0:0|0:0,0:0:0:0:
221,170,83991,2,0,B|252:156|252:156|257:113,1,77
107,0,84148,2,0,B|125:113|125:113|123:120|123:120|148:254,1,247.500009441376,6|0,1:2|0:0,0:0:0:0:
203,298,84463,70,0,P|246:290|278:245,1,73.3333333333333,6|0,1:2|0:0,0:0:0:0:
362,384,84673,2,0,P|377:337|358:297,1,73.3333333333333,2|4,0:0|1:2,0:0:0:0:
397,60,84883,6,0,P|377:88|395:134,1,73.3333333333333,2|0,0:0|0:0,0:0:0:0:
236,127,85093,2,0,P|258:178|297:206,2,73.3333333333333,6|0|2,1:2|0:0|0:0,0:0:0:0:
289,19,85408,1,4,1:2:0:0:
405,246,85566,5,8,0:0:0:0:
411,255,85644,1,8,0:0:0:0:
436,233,85722,2,0,P|456:130|467:64,1,143,6|8,1:2|0:0,0:0:0:0:
397,60,85965,1,8,0:0:0:0:
391,56,86047,1,0,1:2:0:0:
512,14,86209,1,8,0:0:0:0:
168,119,86372,5,0,1:2:0:0:
138,9,86535,1,8,0:0:0:0:
145,5,86616,1,8,0:0:0:0:
150,2,86697,1,0,1:2:0:0:
311,124,86860,1,8,0:0:0:0:
124,196,87022,5,0,1:2:0:0:
266,18,87185,1,8,0:0:0:0:
269,25,87266,1,8,0:0:0:0:
267,34,87348,1,0,1:2:0:0:
35,140,87510,1,8,0:0:0:0:
227,320,87673,5,2,1:2:0:0:
140,84,87835,1,8,0:0:0:0:
136,89,87917,1,8,0:0:0:0:
145,113,87998,1,0,1:2:0:0:
9,254,88161,1,8,0:0:0:0:
13,261,88242,1,8,0:0:0:0:
0,290,88324,38,0,P|78:271|116:260,1,110,6|8,1:2|0:0,0:0:0:0:
166,203,88571,1,8,0:0:0:0:
180,210,88663,1,0,1:2:0:0:
308,360,88822,1,8,0:0:0:0:
510,143,88982,5,0,1:2:0:0:
305,210,89141,1,8,0:0:0:0:
318,227,89221,1,8,0:0:0:0:
321,256,89301,1,0,1:2:0:0:
415,0,89460,1,8,0:0:0:0:
409,348,89620,5,2,1:2:0:0:
356,369,89715,5,8,0:0:0:0:
291,350,89810,37,8,0:0:0:0:
251,289,89911,5,8,1:2:0:0:
227,216,90015,5,8,0:0:0:0:
174,157,90119,5,8,0:0:0:0:
94,165,90223,6,0,P|51:194|1:212,2,73.3333333333333,8|8|8,0:0|0:0|0:0,0:0:0:0:
177,51,90542,5,8,0:0:0:0:
49,294,90708,1,0,1:2:0:0:
65,6,90894,70,0,P|115:170|158:362,2,330,6|4|4,1:2|1:2|1:2,0:0:0:0:
270,378,92937,6,0,B|331:345|303:322|363:287,1,131.99999597168,6|2,1:2|0:0,0:0:0:0:
495,335,93562,1,8,0:0:0:0:
498,342,93620,1,10,0:0:0:0:
281,114,94917,6,0,P|236:98|211:57,1,55.0000000000001,14|0,0:0|0:0,0:0:0:0:
158,114,95142,5,10,0:0:0:0:
98,59,95255,5,8,0:0:0:0:
30,98,95367,5,10,0:0:0:0:
29,167,95480,37,8,0:0:0:0:
75,191,95593,5,10,0:0:0:0:
104,167,95705,5,8,0:3:0:0:
97,140,95818,5,10,0:3:0:0:
78,132,95931,37,4,0:3:0:0:
73,137,96042,5,6,0:3:0:0:
78,143,96156,5,0,1:2:0:0:
130,237,96293,6,0,L|124:266,1,22,4|0,1:2|0:0,0:0:0:0:
125,258,98455,5,2,3:2:0:0:
323,349,98899,5,2,0:0:0:0:
485,205,99420,6,0,P|500:146|449:90,1,132,2|0,3:2|0:0,0:0:0:0:
502,35,100416,6,0,P|456:51|359:78,1,132,2|0,3:2|0:0,0:0:0:0:
294,85,101360,70,0,P|292:63|304:34,1,44,2|0,3:2|0:0,0:0:0:0:
253,155,101864,2,0,P|232:146|213:121,1,44,2|0,3:2|0:0,0:0:0:0:
315,215,102430,2,0,P|296:228|265:232,1,44,2|0,3:2|0:0,0:0:0:0:
406,191,102996,6,0,P|412:213|425:247,1,44,2|0,3:2|0:0,0:0:0:0:
127,318,104799,5,2,3:2:0:0:
113,312,104896,5,0,3:2:0:0:
112,294,104972,5,0,3:2:0:0:
125,288,105055,5,0,3:2:0:0:
136,306,105129,6,0,B|122:336|79:358|3:326|-13:242|-18:158|25:134|109:39|148:179|126:191|149:228|155:235|219:165|242:341|224:363|302:396|347:273|361:239|340:171|322:167|306:125|266:88|215:115|202:133|210:176,1,766.32545,0|0,3:2|3:2,0:0:0:0:
256,192,108520,12,0,112467,0:0:0:0:
