osu file format v14

[General]
AudioFilename: audio.mp3
AudioLeadIn: 0
PreviewTime: 0
Countdown: 0
SampleSet: Normal
StackLeniency: 0.7
Mode: 0
LetterboxInBreaks: 0
WidescreenStoryboard: 0

[Editor]
Bookmarks: 53
DistanceSpacing: 2.3
BeatDivisor: 2
GridSize: 32
TimelineZoom: 1

[Metadata]
Title:Intro
TitleUnicode:Intro
Artist:JANEE
ArtistUnicode:JANEE
Creator:Hakito007
Version:Hard
Source:
Tags:piano emotional instrumental slow vibes beautiful
BeatmapID:1407116
BeatmapSetID:664870

[Difficulty]
HPDrainRate:3.5
CircleSize:4.1
OverallDifficulty:3.5
ApproachRate:6
SliderMultiplier:1.4
SliderTickRate:1

[Events]
//Background and Video events
0,0,"alena-aenami-lighthouse1k.jpg",0,0
//Break Periods
//Storyboard Layer 0 (Background)
//Storyboard Layer 1 (Fail)
//Storyboard Layer 2 (Pass)
//Storyboard Layer 3 (Foreground)
//Storyboard Sound Samples

[TimingPoints]
60,560.747663551402,3,1,0,100,1,0
10130,-66.6666666666667,3,1,0,100,0,0
13936,550.45871559633,3,1,0,100,1,0
24975,571.428571428571,3,1,0,100,1,0
28402,550.45871559633,3,1,0,100,1,0
41020,576.923076923077,3,1,0,100,1,0
44312,555.555555555556,3,1,0,100,1,0
54765,550.45871559633,3,1,0,100,1,0
68152,547.945205479452,3,1,0,100,1,0
78110,566.037735849057,3,1,0,100,1,0
81864,552.995391705069,3,1,0,100,1,0
95298,547.945205479452,3,1,0,100,1,0
105240,566.037735849057,3,1,0,100,1,0
109050,568.720379146919,3,1,0,100,1,0
119286,582.52427184466,3,1,0,100,1,0
121032,631.578947368421,3,1,0,100,1,0
122294,705.882352941176,3,1,0,100,1,0

[Colours]
Combo1 : 252,176,120
Combo2 : 159,234,247
Combo3 : 130,186,255
Combo4 : 250,165,248

[HitObjects]
192,96,38,6,0,L|256:64,1,70,0|0,2:0|2:0,2:0:0:0:
274,108,620,2,0,L|209:138,1,70,0|0,2:0|2:0,2:0:0:0:
229,177,1181,2,0,L|297:146,1,70,0|0,2:0|2:0,2:0:0:0:
312,188,1742,2,0,L|226:228,1,70,0|0,2:0|2:0,2:0:0:0:
215,235,2302,2,0,L|129:272,2,70,0|0|0,2:0|2:0|2:0,2:0:0:0:
320,96,3424,6,0,L|256:64,1,70,0|0,2:0|2:0,2:0:0:0:
238,108,3985,2,0,L|303:138,1,70,0|0,2:0|2:0,2:0:0:0:
283,177,4545,2,0,L|215:146,1,70,0|0,2:0|2:0,2:0:0:0:
200,188,5106,2,0,L|286:228,1,70,0|0,2:0|2:0,2:0:0:0:
297,235,5667,2,0,L|383:272,2,70,0|0|0,2:0|2:0|2:0,2:0:0:0:
144,71,6788,5,0,2:0:0:0:
192,224,7069,1,0,2:0:0:0:
64,128,7349,1,0,2:0:0:0:
224,128,7630,1,0,2:0:0:0:
96,224,7910,1,0,2:0:0:0:
144,70,8190,1,0,2:0:0:0:
192,224,8471,1,0,2:0:0:0:
64,128,8751,1,0,2:0:0:0:
224,128,9031,1,0,2:0:0:0:
96,224,9312,1,0,2:0:0:0:
139,69,9592,1,0,2:0:0:0:
207,69,10153,6,0,P|277:95|203:93,1,210.000008010865,0|0,2:0|2:0,2:0:0:0:
387,70,11274,2,0,P|457:96|383:94,1,210.000008010865,0|0,2:0|2:0,2:0:0:0:
468,222,12396,2,0,B|328:369|200:222,1,315.000012016297,0|0,2:0|2:0,2:0:0:0:
85,264,13903,5,0,2:0:0:0:
202,127,14185,1,0,2:0:0:0:
65,130,14466,1,0,2:0:0:0:
200,226,14746,5,0,2:0:0:0:
293,76,15026,1,0,2:0:0:0:
373,212,15307,1,0,2:0:0:0:
199,287,15587,1,0,2:0:0:0:
182,149,16181,5,0,2:0:0:0:
224,320,16695,1,0,2:0:0:0:
378,241,17272,5,0,2:0:0:0:
243,161,17547,1,0,2:0:0:0:
379,94,17823,1,0,2:0:0:0:
319,258,18064,5,0,2:0:0:0:
195,129,18339,1,0,2:0:0:0:
160,302,18614,1,0,2:0:0:0:
66,152,18890,1,0,2:0:0:0:
353,191,19406,5,0,2:0:0:0:
171,33,19922,1,0,2:0:0:0:
162,292,20550,5,0,2:0:0:0:
10,108,21091,1,0,2:0:0:0:
155,175,21367,1,0,2:0:0:0:
287,93,21642,1,0,2:0:0:0:
329,245,21917,1,0,2:0:0:0:
188,286,22192,1,0,2:0:0:0:
389,120,22743,5,0,2:0:0:0:
189,177,23293,1,0,2:0:0:0:
414,310,23844,5,0,2:0:0:0:
82,196,24669,1,0,2:0:0:0:
100,140,24945,1,0,2:0:0:0:
143,94,25225,1,0,2:0:0:0:
206,84,25510,1,0,2:0:0:0:
278,264,27256,5,0,2:0:0:0:
348,174,28167,1,0,2:0:0:0:
224,152,28428,1,0,2:0:0:0:
246,91,28702,1,0,2:0:0:0:
296,78,28977,1,0,2:0:0:0:
