osu file format v14

[General]
AudioFilename: THE HERO.mp3
AudioLeadIn: 0
PreviewTime: 8005
Countdown: 0
SampleSet: Normal
StackLeniency: 0.7
Mode: 0
LetterboxInBreaks: 1
WidescreenStoryboard: 1

[Editor]
Bookmarks: 1043,4735,6581,8427,12120,15812,17658,21350,25043,28735,32427,36120,39812,47196,51812,52735,54581,57350,57581,57812,58043,61966,67504,69350,73043,74889,76273,76735,80427,84120,85966,86658,86889,87927
DistanceSpacing: 1.5
BeatDivisor: 8
GridSize: 4
TimelineZoom: 2.2

[Metadata]
Title:THE HERO !! ~Okoreru Kobushi ni Hi wo Tsukero~ (TV Edit)
TitleUnicode:THE HERO !! ~怒れる拳に火をつけろ~ (TV Edit)
Artist:JAM Project
ArtistUnicode:JAM Project
Creator:SHADIC_
Version:Insane
Source:ワンパンマン (One Punch Man)
Tags:one punch man rock bluekrait
BeatmapID:839656
BeatmapSetID:384225

[Difficulty]
HPDrainRate:5
CircleSize:4
OverallDifficulty:7.5
ApproachRate:9
SliderMultiplier:1.5
SliderTickRate:1

[Events]
//Background and Video events
Video,-1399,"OP.avi"
0,0,"onepunchman2.png",0,0
//Break Periods
//Storyboard Layer 0 (Background)
//Storyboard Layer 1 (Fail)
//Storyboard Layer 2 (Pass)
//Storyboard Layer 3 (Foreground)
//Storyboard Sound Samples

[TimingPoints]
120,230.769230769231,4,1,1,30,1,0
7273,-200,4,1,1,30,0,0
8196,-100,4,1,1,50,0,0
9812,-100,4,1,1,70,0,0
10272,-100,4,1,1,50,0,0
11658,-100,4,1,1,70,0,0
12120,-100,4,1,1,50,0,0
13504,-100,4,1,1,70,0,0
13966,-100,4,1,1,50,0,0
32889,-133.333333333333,4,1,1,50,0,0
33350,-100,4,1,1,50,0,0
36120,-133.333333333333,4,1,1,50,0,0
39235,-200,4,1,1,50,0,0
39812,-83.3333333333333,4,1,1,50,0,1
51812,-100,4,1,1,50,0,1
52735,-83.3333333333333,4,1,1,50,0,1
57350,-100,4,1,1,50,0,1
58273,-83.3333333333333,4,1,1,50,0,1
66581,-100,4,1,1,50,0,1
67504,-83.3333333333333,4,1,1,50,0,1
69350,-100,4,1,1,50,0,0
69696,-100,4,1,1,50,0,0
70735,-100,4,1,1,70,0,0
71196,-100,4,1,1,50,0,0
72581,-100,4,1,1,70,0,0
72985,-100,4,1,1,50,0,0
74427,-100,4,1,1,70,0,0
74889,-100,4,1,1,50,0,0
75927,-100,4,1,1,30,0,0
76331,-100,4,3,1,30,0,0
76389,-100,4,1,1,30,0,0
76446,-100,4,3,1,30,0,0
76504,-100,4,3,1,25,0,0
76562,-100,4,3,1,20,0,0
76620,-100,4,3,1,45,0,0
76735,-100,4,1,1,50,0,0
77081,-100,4,1,1,60,0,0
77427,-100,4,1,1,70,0,0
77773,-100,4,1,1,80,0,0
78062,-100,4,1,1,50,0,0
78120,-100,4,1,1,70,0,0
78927,-100,4,1,1,80,0,0
79273,-100,4,1,1,70,0,0
79620,-100,4,1,1,60,0,0
79908,-100,4,1,1,50,0,0
79966,-100,4,1,1,70,0,0
80427,-100,4,1,1,50,0,0
80773,-100,4,1,1,60,0,0
81120,-100,4,1,1,70,0,0
81466,-100,4,1,1,80,0,0
81754,-100,4,1,1,50,0,0
81812,-100,4,1,1,70,0,0
82620,-100,4,1,1,80,0,0
82966,-100,4,1,1,60,0,0
83312,-100,4,1,1,80,0,0
83658,-100,4,1,1,100,0,0
84062,-100,4,1,1,50,0,0
84120,-100,4,1,1,90,0,0
84350,-100,4,1,1,50,0,0
84466,-100,4,1,1,95,0,0
85043,-100,4,1,1,50,0,0
85158,-100,4,1,1,95,0,0
85735,-100,4,1,1,50,0,0
85850,-100,4,1,1,100,0,0
86196,-100,4,1,1,80,0,0
86543,-100,4,1,1,60,0,0
86658,-100,4,1,1,50,0,0
87120,-100,4,1,1,40,0,0
87350,-100,4,1,1,30,0,0
87581,-100,4,1,1,20,0,0
87812,-100,4,1,1,10,0,0
87927,-100,4,1,1,5,0,0

[Colours]
Combo1 : 128,128,128
Combo2 : 255,0,0
Combo3 : 255,128,0
Combo4 : 255,255,0
Combo5 : 255,255,128
Combo6 : 0,255,200
Combo7 : 128,128,255
Combo8 : 192,192,192

[HitObjects]
48,320,1043,6,0,P|120:344|192:264,1,187.5,0|0,0:0|2:0,0:0:0:0:
180,244,1390,2,0,P|159:180|232:88,1,187.5,0|0,0:0|2:0,0:0:0:0:
260,104,1736,2,0,B|304:132|320:168|320:168|300:272,1,187.5,0|0,0:0|2:0,0:0:0:0:
284,300,2082,2,0,P|326:341|452:320,1,187.5,0|0,0:0|2:0,0:0:0:0:
448,288,2428,6,0,P|463:251|503:219,1,75,0|0,0:0|2:0,0:0:0:0:
368,196,2659,2,0,P|351:145|320:104,1,75,0|0,0:0|2:0,0:0:0:0:
392,56,2889,6,0,B|312:8|208:52,1,187.5,0|0,0:0|2:0,0:0:0:0:
216,88,3235,2,0,B|240:136|240:136|300:116|300:116|304:188,1,187.5,0|0,0:0|2:0,0:0:0:0:
308,224,3581,54,0,B|356:300|356:300|380:188,1,187.5,0|0,0:0|2:0,0:0:0:0:
416,208,3927,2,0,P|448:280|380:356,1,187.5,0|0,0:0|2:0,0:0:0:0:
348,344,4273,6,0,B|369:310|369:310|328:262|279:323|279:323|256:282|268:212,1,262.5,0|0,0:0|2:0,0:0:0:0:
256,192,4736,12,0,6351,2:0:0:0:
191,169,6581,54,0,B|236:152|236:152|232:128|232:128|264:136|264:136|260:100|260:100|312:104,1,187.5,0|0,0:0|2:0,0:0:0:0:
340,124,6927,2,0,B|372:136|400:132|400:132|388:160|380:188|428:248,1,187.5,0|0,0:0|2:0,0:0:0:0:
420,288,7273,102,0,B|372:272|372:272|368:300|368:300|336:268|336:268|332:292|332:292|308:264|308:264|296:292|296:292|276:272|228:268,1,281.25,0|0,0:0|2:0,0:0:0:0:
200,260,8197,86,0,L|172:232,1,37.5,4|0,0:0|2:0,0:0:0:0:
48,240,8427,86,0,P|44:180|68:92,1,150,8|0,0:0|1:0,0:0:0:0:
140,120,8773,2,0,B|171:57|171:57|259:49,1,150,8|0,0:0|0:0,0:0:0:0:
320,84,9120,2,0,P|320:148|256:220,1,150,8|0,0:0|0:0,0:0:0:0:
204,248,9466,2,0,B|164:260|164:260|172:220|172:220|124:256|52:240,1,187.5,8|0,0:0|2:0,0:0:0:0:
56,208,9812,21,8,0:0:0:0:
52,80,9927,1,8,0:0:0:0:
172,128,10043,1,12,0:0:0:0:
360,88,10273,102,0,B|348:144|372:184|372:184|424:172,1,150,8|0,0:0|0:0,0:0:0:0:
472,228,10620,2,0,B|500:260|500:260|428:340,1,150
360,304,10966,2,0,B|327:309|299:277|294:231|294:231|278:272,1,150,8|0,0:0|0:0,0:0:0:0:
256,340,11312,2,0,P|156:308|183:259,1,187.5,0|0,0:0|2:0,0:0:0:0:
148,240,11658,6,0,P|111:255|79:295,1,75,8|0,0:0|2:0,0:0:0:0:
192,128,11889,2,0,P|174:88|142:60,1,75,12|0,0:0|2:0,0:0:0:0:
216,200,12120,86,0,P|272:224|354:184,1,150,8|0,0:0|0:0,0:0:0:0:
356,116,12466,2,0,P|362:182|422:242,1,150,8|0,0:0|0:0,0:0:0:0:
444,168,12812,2,0,B|469:142|512:148|512:148|480:96|424:92,1,150,8|0,0:0|0:0,0:0:0:0:
380,108,13158,2,0,P|272:112|204:168,1,187.5,8|0,0:0|2:0,2:0:0:0:
244,212,13504,22,0,P|288:209|329:192,1,75,8|0,0:0|2:0,0:0:0:0:
112,224,13735,2,0,P|111:261|128:296,1,75,12|0,0:0|2:0,0:0:0:0:
85,108,13966,102,0,P|169:112|213:164,1,150,8|0,0:0|0:0,0:0:0:0:
284,136,14312,2,0,L|428:64,1,150,8|0,0:0|0:0,0:0:0:0:
452,136,14658,2,0,P|474:180|464:232,1,75,8|0,0:0|0:0,0:0:0:0:
404,236,14889,101,0,0:0:0:0:
404,236,15004,1,8,0:0:0:0:
404,236,15120,2,0,P|417:277|442:315,1,75,8|0,0:0|0:3,0:0:0:0:
404,236,15350,2,0,B|416:184|416:184|388:200|388:200|432:144|348:72,1,225,12|0,0:0|0:0,0:0:0:0:
272,108,15812,21,0,0:0:0:0:
208,144,15927,2,0,L|220:64,1,75,0|0,0:0|2:0,0:0:0:0:
292,184,16158,5,0,0:0:0:0:
232,228,16273,2,0,L|244:148,1,75,0|0,0:0|2:0,0:0:0:0:
312,260,16504,5,0,0:0:0:0:
260,316,16620,2,0,L|272:236,1,75,0|0,0:0|2:0,0:0:0:0:
356,144,16850,5,0,0:0:0:0:
438,196,16966,2,0,L|450:116,1,75,0|0,0:0|2:0,0:0:0:0:
344,69,17196,2,0,L|355:143,1,75,0|0,0:0|2:0,0:0:0:0:
376,212,17427,2,0,P|357:180|356:136,1,75,0|0,0:0|2:0,0:0:0:0:
444,244,17658,6,0,L|432:318,2,75,2|2|8,0:0|0:0|0:0,0:0:0:0:
336,140,18120,1,2,0:0:0:0:
264,156,18235,1,2,0:0:0:0:
268,232,18350,2,0,L|320:288,1,75,10|0,0:0|0:0,0:0:0:0:
252,320,18581,6,0,P|211:315|179:291,1,75,2|0,0:0|0:0,0:0:0:0:
144,232,18812,1,10,0:0:0:0:
156,156,18927,2,0,L|168:76,1,75,2|0,0:0|0:0,0:0:0:0:
92,92,19158,2,0,P|81:59|105:3,1,75,2|8,0:0|0:0,0:0:0:0:
244,40,19504,102,0,P|283:31|333:50,1,75,2|0,0:0|0:0,0:0:0:0:
372,92,19735,1,8,0:0:0:0:
304,228,19966,54,0,P|342:214|398:210,1,75,2|0,0:0|0:0,0:0:0:0:
448,224,20196,1,8,0:0:0:0:
192,140,20427,70,0,P|128:136|60:200,1,150,2|8,0:0|0:0,0:0:0:0:
72,264,20773,1,8,0:0:0:0:
140,296,20889,1,2,0:0:0:0:
172,228,21004,2,0,B|212:228|237:261|237:261|252:248|252:248|284:264|316:260|336:248,1,150,8|0,0:0|0:0,0:0:0:0:
308,120,21350,38,0,P|284:160|288:208,1,75,2|0,0:0|0:0,0:0:0:0:
356,180,21581,1,0,0:0:0:0:
356,180,21696,1,0,0:0:0:0:
164,232,21812,6,0,P|200:240|232:272,1,75,10|0,0:0|0:0,0:0:0:0:
240,340,22043,1,0,0:0:0:0:
240,340,22158,1,0,0:0:0:0:
404,232,22273,102,0,P|400:272|376:304,1,75,2|8,0:0|0:0,0:0:0:0:
324,248,22504,1,0,0:0:0:0:
324,248,22620,2,0,P|288:240|256:208,1,75,2|10,0:0|0:0,0:0:0:0:
484,216,22966,1,10,0:0:0:0:
308,120,23196,5,2,0:0:0:0:
328,268,23312,1,10,0:0:0:0:
420,32,23543,37,2,0:0:0:0:
416,160,23658,1,10,0:0:0:0:
316,84,23773,1,0,0:0:0:0:
388,104,23889,2,0,B|392:128|416:136|416:136|396:148|396:148|448:192|440:248,1,150,10|0,0:0|0:0,0:0:0:0:
512,224,24235,37,10,0:0:0:0:
464,280,24350,2,0,P|442:318|402:351,1,75,2|0,0:0|0:0,0:0:0:0:
344,344,24581,1,8,0:0:0:0:
268,340,24696,1,8,0:0:0:0:
208,292,24812,1,8,0:0:0:0:
139,320,24927,1,8,0:0:0:0:
92,260,25043,6,0,P|58:240|34:200,1,75,2|0,0:0|0:0,0:0:0:0:
188,216,25273,2,0,B|240:200|240:200|268:168,1,75,8|0,0:0|0:0,0:0:0:0:
108,148,25504,2,0,B|71:107|71:107|41:90,1,75,2|0,0:0|0:0,0:0:0:0:
140,240,25735,2,0,P|148:279|134:324,1,75,8|0,0:0|0:0,0:0:0:0:
180,136,25966,6,0,L|189:62,1,75,2|0,0:0|0:0,0:0:0:0:
232,204,26196,2,0,B|248:284|248:284,1,75,8|0,0:0|0:0,0:0:0:0:
116,200,26427,2,0,B|62:187|62:187|91:218,1,75,2|0,0:0|0:0,0:0:0:0:
264,144,26658,2,0,B|301:104|301:104|260:113,1,75,8|0,0:0|0:0,0:0:0:0:
152,260,26889,6,0,P|140:296|148:344,1,75,2|0,0:0|0:0,0:0:0:0:
208,292,27120,2,0,L|240:216,1,75,8|0,0:0|0:0,0:0:0:0:
276,148,27350,2,0,L|332:236,1,75,2|0,0:0|0:0,0:0:0:0:
327,96,27581,2,0,L|244:32,1,75,8|0,0:0|0:0,0:0:0:0:
398,72,27812,6,0,B|444:176|352:292,1,225,2|0,0:0|0:0,0:0:0:0:
288,308,28273,1,0,0:0:0:0:
300,212,28389,1,8,0:0:0:0:
260,108,28504,1,8,0:0:0:0:
164,44,28620,1,8,0:0:0:0:
96,136,28735,69,2,0:0:0:0:
72,268,28850,1,0,0:0:0:0:
200,220,28966,1,0,0:0:0:0:
276,216,29081,2,0,B|307:218|339:202|339:202|373:251|308:300,1,150,2|0,0:0|0:0,0:0:0:0:
272,324,29427,2,0,P|225:335|189:333,1,75,2|0,0:0|0:0,0:0:0:0:
104,220,29658,5,2,0:0:0:0:
224,264,29773,1,8,0:0:0:0:
216,131,29889,1,0,0:0:0:0:
144,92,30004,2,0,P|144:172|180:244,1,150,2|0,0:0|0:0,0:0:0:0:
234,205,30350,2,0,B|216:128,1,75,2|0,0:0|0:0,0:0:0:0:
256,192,30581,12,8,31966,0:0:0:0:
372,277,32427,21,8,0:0:0:0:
332,300,32543,1,0,0:0:0:0:
288,304,32658,1,8,0:0:0:0:
407,162,32889,102,0,P|436:144|460:108,2,56.2500021457673,8|8|0,0:0|0:0|0:0,0:0:0:0:
308,232,33350,102,0,P|268:240|228:236,1,75,8|8,0:0|0:0,0:0:0:0:
164,212,33581,1,8,0:0:0:0:
60,104,33812,102,0,L|112:44,1,75,8|0,0:0|0:0,0:0:0:0:
184,52,34043,2,0,L|256:32,1,75,8|0,0:0|0:0,0:0:0:0:
258,130,34273,6,0,L|276:96,1,37.5,10|0,0:0|2:0,0:0:0:0:
320,120,34504,2,0,L|336:84,1,37.5,2|0,0:0|2:0,0:0:0:0:
376,108,34735,2,0,L|392:72,1,37.5,10|0,0:0|2:0,0:0:0:0:
428,88,34966,2,0,L|444:52,1,37.5,2|0,0:0|2:0,0:0:0:0:
424,164,35196,101,8,0:0:0:0:
284,216,35427,1,2,0:0:0:0:
428,260,35658,1,8,0:0:0:0:
412,312,35773,1,2,0:0:0:0:
364,348,35889,1,2,0:0:0:0:
296,352,36004,1,2,0:0:0:0:
222,326,36120,6,0,P|178:274|174:214,1,112.500004291535,2|2,0:0|0:0,0:0:0:0:
124,136,36581,2,0,P|161:178|168:256,1,112.500004291535,10|2,0:0|0:0,0:0:0:0:
304,312,36927,1,2,0:0:0:0:
264,204,37043,6,0,P|328:190|372:226,1,112.500004291535,10|2,0:0|0:0,0:0:0:0:
304,312,37504,1,8,0:0:0:0:
264,204,37735,1,10,0:0:0:0:
364,156,37966,1,2,0:0:0:0:
480,128,38196,101,8,0:0:0:0:
464,84,38312,1,10,0:0:0:0:
424,56,38427,1,10,0:0:0:0:
364,40,38543,1,4,0:3:0:0:
300,64,38658,1,4,0:3:0:0:
244,104,38773,1,4,0:3:0:0:
172,152,38889,101,4,0:3:0:0:
408,312,39350,2,0,P|440:234|440:176,1,131.25,0|0,0:0|2:0,0:0:0:0:
444,148,39812,6,0,P|403:156|344:200,1,89.9999972534181,2|0,0:0|0:0,0:0:0:0:
280,220,40043,2,0,P|268:176|272:128,1,89.9999972534181,8|0,0:0|0:0,0:0:0:0:
316,56,40273,1,2,0:0:0:0:
224,52,40389,1,2,0:0:0:0:
168,120,40504,2,0,P|146:153|136:212,1,89.9999972534181,10|0,0:0|0:0,0:0:0:0:
280,220,40735,6,0,P|291:262|284:320,1,89.9999972534181,2|0,0:0|0:0,0:0:0:0:
340,164,40966,2,0,P|370:194|392:240,1,89.9999972534181,8|0,0:0|0:0,0:0:0:0:
175,206,41196,2,0,P|133:194|92:160,1,89.9999972534181,2|0,0:0|0:0,0:0:0:0:
232,152,41427,2,0,P|201:121|180:76,1,89.9999972534181,8|0,0:0|0:0,0:0:0:0:
332,88,41658,6,0,P|372:91|420:76,1,89.9999972534181,2|0,0:0|0:0,0:0:0:0:
232,152,41889,2,0,P|202:181|180:232,1,89.9999972534181,8|0,0:0|0:0,0:0:0:0:
255,288,42120,2,0,P|264:244|296:200,1,89.9999972534181,2|0,0:0|0:0,0:0:0:0:
308,24,42350,2,0,P|326:60|332:112,1,89.9999972534181,8|0,0:0|0:0,0:0:0:0:
255,288,42581,2,0,P|296:200|372:176,1,179.999994506836,2|8,0:0|0:0,0:0:0:0:
456,208,42927,5,2,0:0:0:0:
424,292,43043,1,0,0:0:0:0:
336,296,43158,1,2,0:0:0:0:
280,224,43274,1,8,0:0:0:0:
260,136,43389,1,0,0:0:0:0:
236,48,43504,6,0,P|188:80|172:120,1,89.9999972534181,2|0,0:0|0:0,0:0:0:0:
172,200,43735,1,8,0:0:0:0:
76,40,43966,38,0,P|62:90|72:144,1,89.9999972534181,2|2,0:0|0:0,0:0:0:0:
92,212,44196,1,8,0:0:0:0:
260,164,44427,6,0,P|280:204|336:232,1,89.9999972534181,2|0,0:0|0:0,0:0:0:0:
408,236,44658,1,8,0:0:0:0:
412,148,44773,1,10,0:0:0:0:
484,88,44889,2,0,P|504:124|508:176,1,89.9999972534181,0|2,0:0|0:0,0:0:0:0:
408,76,45120,2,0,P|424:39|472:12,1,89.9999972534181,8|0,0:0|0:0,0:0:0:0:
328,76,45350,6,0,P|287:61|236:72,1,89.9999972534181,2|0,0:0|0:0,0:0:0:0:
364,212,45581,2,0,P|404:231|432:268,1,89.9999972534181,8|0,0:0|0:0,0:0:0:0:
244,164,45812,2,0,P|212:132|168:120,1,89.9999972534181,2|0,0:0|0:0,0:0:0:0:
188,236,46043,2,0,P|144:226|96:240,1,89.9999972534181,8|0,0:0|0:0,0:0:0:0:
16,264,46273,5,10,0:0:0:0:
96,144,46389,1,8,0:0:0:0:
240,144,46504,1,0,0:0:0:0:
364,220,46620,1,0,0:0:0:0:
276,240,46735,2,0,B|324:320,3,89.9999972534181,0|2|8|0,0:0|0:0|0:0|0:0,0:0:0:0:
276,180,47196,6,0,L|292:92,1,89.9999972534181,2|0,0:0|0:0,0:0:0:0:
180,92,47427,2,0,B|196:180,1,89.9999972534181,8|0,0:0|0:0,0:0:0:0:
228,264,47658,1,2,0:0:0:0:
316,264,47773,1,2,0:0:0:0:
400,236,47889,2,0,P|364:262|304:260,1,89.9999972534181,8|0,0:0|0:0,0:0:0:0:
344,128,48120,6,0,L|436:136,1,89.9999972534181,2|0,0:0|0:0,0:0:0:0:
192,188,48350,2,0,L|288:196,1,89.9999972534181,8|2,0:0|0:0,0:0:0:0:
352,300,48581,1,0,0:0:0:0:
472,220,48696,1,2,0:0:0:0:
452,76,48812,1,8,0:0:0:0:
316,36,48927,2,0,L|268:56,1,44.999998626709,0|0,0:0|2:0,0:0:0:0:
236,80,49043,38,0,P|228:125|240:176,1,89.9999972534181,2|0,0:0|0:0,0:0:0:0:
320,236,49273,1,8,0:0:0:0:
168,312,49504,6,0,P|125:292|96:252,1,89.9999972534181,2|2,0:0|0:0,0:0:0:0:
72,152,49735,1,8,0:0:0:0:
284,200,49966,6,0,P|254:222|200:232,1,89.9999972534181,2|0,0:0|0:0,0:0:0:0:
99,259,50196,1,8,0:0:0:0:
202,232,50312,2,0,P|268:283|360:256,1,179.999994506836,2|2,0:0|0:0,0:0:0:0:
412,168,50658,2,0,P|380:150|329:137,1,89.9999972534181,8|0,0:0|0:0,0:0:0:0:
220,132,50889,6,0,B|178:145|178:145|222:109|230:53|208:24,1,179.999994506836,2|8,0:0|0:0,0:0:0:0:
100,24,51235,1,0,0:0:0:0:
44,116,51350,2,0,P|34:159|48:228,1,89.9999972534181,2|0,0:0|0:0,0:0:0:0:
136,252,51581,2,0,B|168:290|168:290|216:296,1,89.9999972534181,8|0,0:0|0:0,0:0:0:0:
340,248,51812,6,0,L|332:200,1,37.5,2|0,0:0|2:0,0:0:0:0:
279,237,52043,2,0,L|272:184,1,37.5,10|0,0:0|2:0,0:0:0:0:
224,224,52273,2,0,L|216:172,1,37.5,2|0,0:0|2:0,0:0:0:0:
172,216,52504,2,0,L|164:152,1,37.5,10|0,0:0|2:0,0:0:0:0:
184,68,52734,21,2,0:0:0:0:
336,148,52850,1,0,0:0:0:0:
218,186,52966,1,2,0:0:0:0:
296,44,53081,1,8,0:0:0:0:
184,68,53196,2,0,P|143:114|124:160,1,89.9999972534181,0|2,0:0|0:0,0:0:0:0:
84,216,53427,2,0,L|100:312,1,89.9999972534181,8|0,0:0|0:0,0:0:0:0:
188,292,53658,6,0,P|252:336|340:288,1,179.999994506836,2|0,0:0|0:0,0:0:0:0:
380,216,54004,85,8,0:0:0:0:
356,128,54120,1,0,0:0:0:0:
276,92,54235,1,2,0:0:0:0:
200,136,54350,1,8,0:0:0:0:
176,224,54466,1,0,0:0:0:0:
264,235,54581,38,0,P|217:238|164:212,1,89.9999972534181,2|0,0:0|0:0,0:0:0:0:
114,163,54812,2,0,P|162:195|182:239,1,89.9999972534181,8|0,0:0|0:0,0:0:0:0:
152,308,55043,1,2,0:0:0:0:
72,268,55158,1,2,0:0:0:0:
40,184,55273,2,0,P|56:136|80:100,1,89.9999972534181,10|0,0:0|0:0,0:0:0:0:
156,120,55504,6,0,L|196:200,1,89.9999972534181,2|0,0:0|0:0,0:0:0:0:
168,288,55735,2,0,L|196:200,1,89.9999972534181,8|2,0:0|0:0,0:0:0:0:
240,128,55966,2,0,L|280:208,1,89.9999972534181,0|2,0:0|0:0,0:0:0:0:
320,288,56196,2,0,L|280:208,1,89.9999972534181,8|0,0:0|0:0,0:0:0:0:
316,124,56427,6,0,P|292:168|280:216,1,89.9999972534181,2|0,0:0|0:0,0:0:0:0:
372,212,56658,2,0,P|417:216|456:240,1,89.9999972534181,8|0,0:0|0:0,0:0:0:0:
388,300,56889,2,0,P|347:318|296:320,1,89.9999972534181,2|2,0:0|0:0,0:0:0:0:
219,299,57120,2,0,P|275:302|307:327,1,89.9999972534181,8|0,0:0|0:0,0:0:0:0:
304,204,57350,6,0,P|245:161|232:108,1,112.5,2|0,0:0|2:0,0:0:0:0:
196,120,57581,2,0,P|160:152|96:144,1,112.5,8|0,0:0|2:0,0:0:0:0:
104,108,57812,2,0,P|60:116|20:68,1,112.5,0|0,0:0|2:0,0:0:0:0:
52,48,58043,2,0,P|104:32|164:48,1,112.5,8|0,0:0|2:0,0:0:0:0:
208,68,58273,6,0,P|248:79|288:108,1,89.9999972534181,2|0,0:0|0:0,0:0:0:0:
356,204,58504,1,8,0:0:0:0:
496,344,58735,6,0,P|459:335|404:284,1,89.9999972534181,2|2,0:0|0:0,0:0:0:0:
356,204,58966,1,8,0:0:0:0:
417,304,59196,38,0,P|423:267|416:216,1,89.9999972534181,2|0,0:0|0:0,0:0:0:0:
332,144,59428,1,8,0:0:0:0:
224,148,59543,1,2,0:0:0:0:
160,236,59658,2,0,P|192:252|248:256,1,89.9999972534181,0|2,0:0|0:0,0:0:0:0:
186,322,59889,2,0,P|210:286|254:250,1,89.9999972534181,8|0,0:0|0:0,0:0:0:0:
364,148,60120,6,0,P|406:164|456:212,1,89.9999972534181,2|0,0:0|0:0,0:0:0:0:
320,72,60350,2,0,P|368:62|426:86,1,89.9999972534181,8|0,0:0|0:0,0:0:0:0:
224,128,60581,2,0,P|208:170|161:218,1,89.9999972534181,2|2,0:0|0:0,0:0:0:0:
293,163,60811,2,0,P|300:207|292:272,1,89.9999972534181,8|0,0:0|0:0,0:0:0:0:
213,323,61043,5,10,0:0:0:0:
220,170,61158,1,8,0:0:0:0:
118,283,61273,1,0,0:0:0:0:
126,129,61389,1,0,0:0:0:0:
48,203,61504,2,0,B|44:243|44:243|8:293,3,89.9999972534181,0|2|8|0,0:0|0:0|0:0|0:0,0:0:0:0:
118,283,61966,6,0,P|164:278|207:246,1,89.9999972534181,2|0,0:0|0:0,0:0:0:0:
235,90,62196,2,0,B|247:130|242:197,1,89.9999972534181,8|0,0:0|0:0,0:0:0:0:
271,265,62427,1,2,0:0:0:0:
345,214,62543,1,2,0:0:0:0:
326,126,62658,2,0,B|356:87|419:77,1,89.9999972534181,10|0,0:0|0:0,0:0:0:0:
476,184,62889,6,0,B|428:192|428:192|379:180,1,89.9999972534181,2|0,0:0|0:0,0:0:0:0:
480,292,63120,2,0,B|443:272|443:272|387:280,1,89.9999972534181,8|2,0:0|0:0,0:0:0:0:
306,289,63350,1,0,0:0:0:0:
215,291,63466,1,2,0:0:0:0:
129,264,63581,2,0,P|84:248|43:220,1,89.9999972534181,8|0,0:0|0:0,0:0:0:0:
48,136,63812,6,0,L|119:81,1,89.9999972534181,2|0,0:0|0:0,0:0:0:0:
207,107,64043,1,8,0:0:0:0:
304,260,64273,38,0,L|220:226,1,89.9999972534181,2|2,0:0|0:0,0:0:0:0:
156,164,64504,1,8,0:0:0:0:
288,40,64735,6,0,L|378:25,1,89.9999972534181,2|0,0:0|0:0,0:0:0:0:
404,112,64966,1,8,0:0:0:0:
387,198,65081,2,0,P|334:259|239:245,1,179.999994506836,2|2,0:0|0:0,0:0:0:0:
167,197,65427,2,0,P|199:168|245:156,1,89.9999972534181,8|0,0:0|0:0,0:0:0:0:
145,281,65658,6,0,P|147:235|168:195,1,89.9999972534181,2|0,0:0|0:0,0:0:0:0:
226,128,65889,1,8,0:0:0:0:
308,93,66004,1,0,0:0:0:0:
388,134,66120,2,0,P|398:91|386:47,1,89.9999972534181,2|2,0:0|0:0,0:0:0:0:
388,137,66350,2,0,P|432:151|485:138,1,89.9999972534181,8|0,0:0|0:0,0:0:0:0:
420,220,66581,6,0,L|404:272,1,37.5,2|0,0:0|2:0,0:0:0:0:
300,220,66812,2,0,L|292:280,1,37.5,10|0,0:0|2:0,0:0:0:0:
196,204,67043,2,0,L|200:276,1,37.5,2|0,0:0|2:0,0:0:0:0:
104,180,67273,2,0,L|116:252,1,37.5,10|0,0:0|2:0,0:0:0:0:
160,320,67504,6,0,P|116:312|63:277,1,89.9999972534181,2|0,0:0|0:0,0:0:0:0:
26,216,67734,1,8,0:0:0:0:
82,123,67850,1,8,0:0:0:0:
189,121,67965,1,2,0:0:0:0:
224,220,68081,1,8,0:0:0:0:
327,251,68196,5,10,0:0:0:0:
310,143,68312,1,2,0:0:0:0:
224,220,68427,2,0,P|219:271|242:322,1,89.9999972534181,8|0,0:0|0:0,0:0:0:0:
224,220,68658,2,0,P|172:214|122:239,1,89.9999972534181
148,296,68889,54,0,P|250:328|319:166,1,314.999990386963,8|0,0:0|2:0,0:0:0:0:
283,160,69350,38,0,B|267:72|363:8,1,150,8|0,0:0|0:0,0:0:0:0:
404,120,69696,2,0,P|325:118|288:56,1,150,8|2,0:0|0:0,0:0:0:0:
232,116,70043,2,0,B|319:159|292:269,1,150,8|2,0:0|0:0,0:0:0:0:
220,240,70389,2,0,P|160:296|208:340,1,150,8|0,0:0|2:0,0:0:0:0:
268,312,70735,5,8,0:0:0:0:
372,228,70850,1,8,0:0:0:0:
412,100,70966,1,12,0:0:0:0:
440,244,71196,102,0,B|468:308|468:308|408:364,1,150,8|2,0:0|0:0,0:0:0:0:
340,332,71543,2,0,B|260:312|260:312|219:333|164:340,1,150,0|2,0:0|0:0,0:0:0:0:
120,336,71889,2,0,P|174:259|240:280,1,150,8|0,0:0|0:0,0:0:0:0:
280,216,72235,2,0,B|204:200|184:148|184:148|160:172|160:172|96:156,1,187.5,0|0,0:0|2:0,0:0:0:0:
176,60,72581,54,0,L|264:68,1,75,8|2,0:0|0:0,0:0:0:0:
130,164,72812,2,0,L|42:172,1,75,12|0,0:0|0:0,0:0:0:0:
84,248,73043,70,0,P|108:296|196:320,1,150,10|2,0:0|0:0,0:0:0:0:
268,304,73389,2,0,B|303:260|303:156,1,150,0|2,0:0|0:0,0:0:0:0:
376,140,73735,2,0,P|323:81|239:121,1,150,8|2,0:0|0:0,0:0:0:0:
232,164,74081,2,0,B|192:156|192:156|204:140|204:140|152:160|96:88,1,187.5,0|0,0:0|2:0,0:0:0:0:
128,68,74427,38,0,P|168:49|204:52,1,75,8|2,0:0|0:0,0:0:0:0:
92,180,74658,2,0,P|109:225|108:264,1,75,12|2,0:0|0:0,0:0:0:0:
184,248,74889,85,8,0:0:0:0:
252,144,75004,1,8,0:0:0:0:
312,244,75120,1,2,0:0:0:0:
252,144,75235,1,8,0:0:0:0:
345,115,75350,2,0,P|380:128|416:172,1,75,0|2,0:0|0:0,0:0:0:0:
345,115,75581,2,0,P|342:71|356:40,1,75,8|0,0:0|0:0,0:0:0:0:
345,115,75812,2,0,P|309:144|260:154,1,75,2|10,0:0|0:0,0:0:0:0:
248,172,75985,5,8,0:0:0:0:
220,196,76043,1,8,0:0:0:0:
200,228,76101,1,8,0:0:0:0:
184,264,76158,1,8,0:0:0:0:
172,300,76216,1,8,0:0:0:0:
153,328,76273,6,0,L|88:360,6,37.5,10|4|2|4|4|12|4,0:0|0:0|0:0|0:0|0:0|0:0|0:0,0:0:0:0:
136,256,76735,6,0,B|236:209|236:209|280:228,1,150,2|2,0:0|0:0,0:0:0:0:
316,288,77081,2,0,P|351:221|295:153,1,150,8|2,0:0|0:0,0:0:0:0:
276,100,77427,2,0,P|348:171|412:172,1,150,8|2,0:0|0:0,0:0:0:0:
464,192,77773,2,0,B|376:148|272:224,1,187.5,8|0,0:0|2:0,0:0:0:0:
252,196,78120,6,0,B|268:120,1,75,12|2,0:1|0:0,0:1:0:0:
144,232,78350,2,0,L|160:316,1,75,12|2,0:1|0:0,0:1:0:0:
216,256,78581,6,0,B|291:248|291:248|324:176,1,150,0|2,0:0|0:0,0:0:0:0:
252,140,78927,2,0,P|326:104|400:160,1,150,8|2,0:0|0:0,0:0:0:0:
456,140,79273,2,0,B|444:207|388:219|312:216,1,150,8|2,0:0|0:0,0:0:0:0:
280,256,79620,2,0,P|320:132|264:104,1,187.5
300,76,79966,70,0,L|404:88,1,75,12|0,0:1|0:0,0:1:0:0:
284,260,80196,2,0,L|392:280,1,75,12|2,0:1|0:0,0:1:0:0:
335,114,80427,6,0,B|432:124|432:124|372:149,1,150,2|2,0:0|0:0,0:0:0:0:
320,188,80773,2,0,B|340:246|399:260|399:260|464:244,1,150,8|2,0:0|0:0,0:0:0:0:
460,324,81120,2,0,B|441:358|441:358|416:328|416:328|368:336|320:296,1,150,8|2,0:0|0:0,0:0:0:0:
280,280,81466,2,0,P|256:228|248:100,1,187.5,0|0,0:0|2:0,0:0:0:0:
284,84,81812,6,0,P|311:120|324:160,1,75,12|2,0:1|0:0,0:1:0:0:
172,136,82043,2,0,P|156:92|159:47,1,75,12|2,0:1|0:0,0:1:0:0:
84,80,82273,6,0,P|96:148|148:208,1,150,8|2,0:0|0:0,0:0:0:0:
208,164,82620,2,0,P|239:92|319:60,1,150,8|2,0:0|0:0,0:0:0:0:
376,76,82966,2,0,P|424:124|432:236,1,150,8|2,0:0|0:0,0:0:0:0:
392,260,83312,1,8,0:0:0:0:
328,300,83427,2,0,B|289:320|289:320|252:288|240:236,1,112.5,8|0,0:0|0:0,0:0:0:0:
232,232,83658,37,2,0:0:0:0:
184,128,83773,1,2,0:0:0:0:
116,228,83889,1,2,0:0:0:0:
232,232,84004,1,2,0:0:0:0:
288,128,84120,5,2,0:0:0:0:
340,180,84235,2,0,L|300:260,1,75,0|0,0:0|2:0,0:0:0:0:
272,316,84466,1,14,1:0:0:0:
464,200,84812,101,6,0:0:0:0:
448,128,84927,2,0,P|432:88|389:49,1,75,0|0,0:0|2:0,0:0:0:0:
340,40,85158,1,14,1:0:0:0:
184,200,85504,5,6,0:0:0:0:
192,276,85620,2,0,P|216:308|256:324,1,75,0|0,0:0|2:0,0:0:0:0:
320,320,85850,2,0,B|360:296|416:228|416:116|344:80|168:68|64:176,1,525,14|8,1:0|1:0,1:0:0:0:
44,204,86716,5,12,0:0:0:0:
32,240,86773,1,12,0:0:0:0:
24,276,86831,1,12,0:0:0:0:
24,312,86889,1,12,0:0:0:0:
256,192,86946,12,0,87927,2:0:0:0:
