osu file format v14

[General]
AudioFilename: audio.mp3
AudioLeadIn: 0
PreviewTime: 40742
Countdown: 1
SampleSet: Normal
StackLeniency: 0.7
Mode: 0
LetterboxInBreaks: 0
WidescreenStoryboard: 1

[Editor]
Bookmarks: 53550
DistanceSpacing: 2.5
BeatDivisor: 2
GridSize: 8
TimelineZoom: 2

[Metadata]
Title:THE HERO!! ~Ikareru Kobushi ni Hi o Tsukero~ (TV Size)
TitleUnicode:THE HERO!!~怒れる拳に火をつけろ~(TV Size)
Artist:JAM Project
ArtistUnicode:JAM Project
Creator:Alex3i2
Version:Insane
Source:
Tags:JAM Project THE HERO one punch man wanpanman opening op ost makoto miyazaki hironobu kageyama hiromitsu kawashima ryo yamagata saitama
BeatmapID:0
BeatmapSetID:-1

[Difficulty]
HPDrainRate:5
CircleSize:3.8
OverallDifficulty:7.5
ApproachRate:9.2
SliderMultiplier:2
SliderTickRate:1

[Events]
//Background and Video events
0,0,"656721.jpg",0,0
//Break Periods
//Storyboard Layer 0 (Background)
//Storyboard Layer 1 (Fail)
//Storyboard Layer 2 (Pass)
//Storyboard Layer 3 (Foreground)
//Storyboard Sound Samples

[TimingPoints]
2435,230.769230769231,4,1,1,100,1,0
2435,-133.333333333333,4,1,1,45,0,0
7973,-200,4,1,1,35,0,0
9588,-200,4,1,1,65,0,0
9819,-133.333333333333,4,1,1,65,0,0
17204,-153.846153846154,4,1,1,55,0,0
18819,-153.846153846153,4,1,1,70,0,0
23781,-117.647058823529,4,1,1,80,0,0
26435,-153.846153846153,4,1,1,70,0,0
30127,-117.647058823529,4,1,1,80,0,0
31973,-100,4,1,1,90,0,0
33819,-166.666666666667,4,1,1,45,0,0
41204,-117.647058823529,4,1,1,65,0,1
54127,-117.647058823529,4,1,1,75,0,1
55511,-117.647058823529,4,1,1,65,0,1
70281,-200,4,1,1,75,0,1
70742,-125,4,1,1,100,0,1
76511,-133.333333333333,4,1,1,100,0,1
78127,-117.647058823529,4,1,1,85,0,1
79973,-117.647058823529,4,1,1,90,0,1
81358,-117.647058823529,4,1,1,95,0,1
82165,-117.647058823529,4,1,1,100,0,1
85511,-133.333333333333,4,1,1,50,0,0

[HitObjects]
128,48,2435,6,0,B|176:48|176:48|224:80|224:80|288:80,1,150.000005722046
384,208,2781,6,0,B|336:208|336:208|288:176|288:176|224:176,1,150.000005722046
112,272,3127,2,0,P|224:272|272:240,1,150.000005722046
384,208,3473,6,0,B|410:167|410:167|463:144|463:144|487:107,1,150.000005722046
432,288,3819,2,0,P|461:265|481:233,1,75.0000028610231
342,132,4050,2,0,P|312:154|292:186,1,75.0000028610231
66,223,4281,6,0,B|113:225|113:225|160:259|160:259|224:263,1,150.000005722046
317,319,4627,2,0,P|334:258|239:171,1,150.000005722046
99,68,4973,6,0,B|147:68|147:68|195:100|195:100|259:100,1,150.000005722046
428,165,5319,2,0,P|350:202|254:144,1,150.000005722046
174,227,5665,2,0,P|215:255|270:270,1,75.0000028610231
345,87,5896,2,0,P|303:58|248:43,1,75.0000028610231
168,111,6127,6,0,B|202:144|202:144|259:154|259:154|305:199,1,150.000005722046
432,208,6473,2,0,P|409:277|344:310,1,150.000005722046
112,304,6819,6,0,B|159:313|159:313|200:353|200:353|262:365,1,150.000005722046
349,222,7165,2,0,P|360:149|317:91,1,150.000005722046
350,10,7511,2,0,P|382:30|402:62,1,75.0000028610231
279,165,7742,2,0,P|247:145|226:112,1,75.0000028610231
87,202,7973,5,0,0:0:0:0:
260,320,8319,1,0,0:0:0:0:
423,145,8665,2,0,B|360:199|400:275|400:275|254:235|273:181,1,300,0|8,0:0|0:0,0:0:0:0:
400,272,9588,5,12,0:0:0:0:
96,48,9819,6,0,B|142:61|142:61|179:105|179:105|240:122,1,150.000005722046
400,160,10165,6,0,B|358:184|358:184|301:182|301:182|246:214,1,150.000005722046
80,224,10512,2,8,P|140:287|257:269,1,150.000005722046,8|0,0:0|0:0,0:0:0:0:
384,256,10858,2,8,P|368:306|274:367,1,150.000005722046,0|8,0:0|0:0,0:0:0:0:
263,204,11204,2,0,P|311:124|343:108,1,75.0000028610231
261,59,11435,1,12,0:0:0:0:
261,59,11550,1,0,0:0:0:0:
166,27,11665,6,0,B|128:56|128:56|110:111|110:111|59:150,1,150.000005722046
181,294,12011,2,12,P|150:236|232:153,1,150.000005722046,2|0,0:0|0:0,0:0:0:0:
356,83,12358,6,0,B|339:127|339:127|291:160|291:160|269:220,1,150.000005722046
415,328,12704,2,12,P|351:243|389:185,1,150.000005722046,8|0,0:3|0:3,0:3:0:0:
476,101,13050,2,0,P|505:145|502:175,2,75.0000028610231,8|4|8,0:0|0:0|0:0,0:0:0:0:
476,101,13511,6,0,B|428:101|428:101|379:70|379:70|315:71,1,150.000005722046
96,70,13858,2,0,P|165:23|266:55,1,150.000005722046,2|0,0:0|0:0,0:0:0:0:
306,205,14204,2,0,L|147:237,1,150.000005722046
13,354,14550,6,0,B|53:335|53:335|110:343|110:343|153:323,1,150.000005722046
160,128,14896,2,0,P|115:149|70:143,2,75.0000028610231,2|2|12,0:0|0:0|0:0,0:0:0:0:
352,304,15358,6,0,B|399:265|399:265|383:137,1,150.000005722046,10|0,0:0|0:0,0:0:0:0:
160,128,15704,2,0,P|224:224|272:224,1,150.000005722046,2|0,0:0|0:0,0:0:0:0:
385,90,16050,2,0,B|299:81|244:140,1,150.000005722046,8|0,0:0|0:0,0:0:0:0:
96,16,16396,6,0,B|143:15|143:15|192:46|192:46|256:45,1,150.000005722046
336,16,16742,1,8,0:0:0:0:
384,16,16858,1,4,0:0:0:0:
432,32,16973,1,8,0:0:0:0:
464,64,17088,1,0,0:0:0:0:
464,112,17204,6,0,L|416:224,1,64.9999970245363,8|0,0:0|0:0,0:0:0:0:
272,304,17550,2,0,L|320:208,1,64.9999970245363,8|0,0:0|0:0,0:0:0:0:
192,112,17896,6,0,L|144:208,1,64.9999970245363,8|0,0:0|0:0,0:0:0:0:
0,304,18242,2,0,L|48:208,1,64.9999970245363,8|0,0:0|0:0,0:0:0:0:
48,64,18588,1,12,0:0:0:0:
48,64,19050,6,0,P|96:27|179:15,1,129.999994049073
464,112,19511,2,0,L|391:119,1,64.9999970245363
240,128,19742,2,0,B|219:178|219:178|286:244,1,129.999994049073
464,320,20204,1,0,0:0:0:0:
432,336,20319,2,0,P|352:352|288:320,1,129.999994049073
240,128,20665,6,0,L|380:187,1,129.999994049073
132,313,21127,5,0,0:0:0:0:
359,178,21358,1,0,0:0:0:0:
119,74,21588,2,0,L|95:173,1,64.9999970245363
266,272,21819,2,0,P|193:228|180:163,1,129.999994049073
275,89,22165,2,0,P|348:133|361:198,1,129.999994049073
272,181,22511,1,0,0:0:0:0:
132,313,22742,6,0,L|50:344,2,64.9999970245363
320,224,23204,1,0,0:0:0:0:
320,304,23319,2,0,P|384:272|320:144,1,194.999991073609
400,49,23781,2,0,P|447:64|474:112,1,85.0000016212464
300,116,24011,2,0,P|259:105|231:73,1,85.0000016212464
21,157,24358,5,0,0:0:0:0:
64,176,24473,1,0,0:0:0:0:
112,192,24588,2,0,P|160:208|208:192,2,85.0000016212464
160,96,24935,1,0,0:0:0:0:
128,80,25050,2,0,P|73:57|0:64,1,85.0000016212464
208,32,25281,1,0,0:0:0:0:
240,48,25396,2,0,P|320:80|352:64,1,85.0000016212464
352,160,25627,1,0,0:0:0:0:
320,160,25742,2,0,P|241:175|213:199,1,85.0000016212464
272,256,25973,5,0,0:0:0:0:
304,288,26088,1,0,0:0:0:0:
352,304,26204,1,0,0:0:0:0:
392,299,26319,1,0,0:0:0:0:
431,285,26435,6,0,P|495:237|495:173,1,129.999994049073
291,36,26896,2,0,L|387:68,1,64.9999970245363
477,96,27127,2,0,P|381:144|320:117,1,129.999994049073
128,224,27588,1,0,0:0:0:0:
160,240,27704,2,0,P|221:251|288:224,1,129.999994049073
400,192,28050,6,0,P|400:272|342:312,1,129.999994049073
217,155,28511,1,0,0:0:0:0:
82,68,28742,1,0,0:0:0:0:
29,281,28973,2,0,L|146:257,1,64.9999970245363
200,341,29204,1,0,0:0:0:0:
448,264,29435,2,0,P|375:241|321:241,1,129.999994049073
129,173,29781,6,0,L|207:192,2,64.9999970245363
295,134,30127,6,0,L|247:56,1,85.0000016212464
401,141,30358,2,0,L|477:194,1,85.0000016212464
337,242,30588,2,0,L|262:306,2,85.0000016212464
250,61,31050,6,0,L|218:156,1,85.0000016212464
119,217,31281,1,0,0:0:0:0:
119,217,31396,1,0,0:0:0:0:
56,319,31511,2,0,P|37:281|44:240,1,85.0000016212464
203,179,31742,2,0,P|179:144|140:129,1,85.0000016212464
56,319,31973,6,0,P|124:270|239:280,1,200
396,323,32319,2,0,B|322:322|322:322|268:355|268:355|188:355,1,200
203,179,32665,2,0,B|273:180|273:180|331:210|331:210|395:211,1,200
113,161,33127,6,0,P|123:209|153:248,1,100
243,91,33358,6,0,P|232:139|202:178,1,100
118,8,33588,6,0,P|128:56|158:95,1,100
482,74,33819,6,0,P|382:19|338:23,1,119.999996337891
385,224,34281,2,0,P|315:259|248:253,1,119.999996337891
77,121,34742,2,0,L|197:104,1,119.999996337891
450,138,35204,2,0,P|421:209|368:223,1,119.999996337891
145,243,35665,6,0,L|282:295,1,119.999996337891
491,342,36127,2,0,L|353:353,1,119.999996337891
206,180,36588,2,0,P|276:153|345:193,1,119.999996337891
271,244,37050,1,0,0:0:0:0:
322,264,37165,1,0,0:0:0:0:
377,266,37281,1,0,0:0:0:0:
425,241,37396,1,0,0:0:0:0:
447,186,37511,6,0,P|427:137|366:90,1,119.999996337891
283,321,37973,1,0,0:0:0:0:
96,145,38204,2,0,P|161:193|172:193,2,59.9999981689454
173,275,38665,1,0,0:0:0:0:
169,114,38896,1,0,0:0:0:0:
294,187,39127,1,0,0:0:0:0:
394,92,39358,5,0,0:0:0:0:
400,288,39588,2,0,P|373:301|343:304,1,59.9999981689454
320,304,39819,1,0,0:0:0:0:
288,304,39935,1,0,0:0:0:0:
256,304,40050,1,0,0:0:0:0:
224,304,40165,1,0,0:0:0:0:
192,304,40281,1,0,0:0:0:0:
148,304,40742,6,0,L|180:103,1,179.999994506836
66,36,41204,6,0,L|180:25,1,85.0000016212464,4|0,0:0|0:0,0:0:0:0:
416,128,41435,1,8,0:0:0:0:
392,114,41550,2,0,B|328:114|328:114|280:82|280:82|184:82,1,170.000003242493,0|2,0:0|0:0,0:0:0:0:
80,192,41896,2,0,P|162:207|216:205,1,85.0000016212464,8|0,0:0|0:0,0:0:0:0:
352,304,42127,2,0,P|294:335|249:334,1,85.0000016212464,2|0,0:0|0:0,0:0:0:0:
250,200,42358,1,8,0:0:0:0:
250,200,42473,1,2,0:0:0:0:
356,186,42588,2,0,P|336:136|298:104,1,85.0000016212464,0|2,0:0|0:0,0:0:0:0:
207,283,42819,2,0,P|234:315|272:336,1,85.0000016212464,8|0,0:0|0:0,0:0:0:0:
446,333,43050,6,0,P|465:281|465:233,1,85.0000016212464,2|0,0:0|0:0,0:0:0:0:
431,133,43281,1,8,0:0:0:0:
431,133,43396,1,0,0:0:0:0:
474,49,43511,2,0,P|406:42|345:73,1,85.0000016212464,2|2,0:0|0:0,0:0:0:0:
215,114,43742,2,0,L|354:158,1,85.0000016212464,8|0,0:0|0:0,0:0:0:0:
458,233,43973,2,0,P|405:274|351:272,1,85.0000016212464,2|0,0:0|0:0,0:0:0:0:
201,294,44204,1,8,0:0:0:0:
172,273,44319,2,0,B|147:231|147:231|94:206|94:206|62:152,1,170.000003242493,2|2,0:0|0:0,0:0:0:0:
215,114,44665,2,0,P|248:87|288:75,1,85.0000016212464,8|0,0:0|0:0,0:0:0:0:
417,187,44896,6,0,P|372:163|325:116,2,85.0000016212464,6|0|8,0:0|0:0|0:0,0:0:0:0:
75,189,45358,2,0,P|119:175|148:151,2,85.0000016212464,2|2|8,0:0|0:0|0:0,0:0:0:0:
397,81,45819,2,0,P|301:66|267:92,1,110.000003356934,2|0,0:0|0:0,0:0:0:0:
155,116,46050,1,8,0:0:0:0:
148,151,46165,2,0,B|179:187|179:187|187:244|187:244|229:292,1,170.000003242493,2|2,0:0|0:0,0:0:0:0:
391,280,46511,1,8,0:0:0:0:
391,280,46627,1,0,0:0:0:0:
425,161,46742,6,0,P|365:179|293:153,1,85.0000016212464,2|0,0:0|0:0,0:0:0:0:
208,72,46973,2,0,L|254:185,1,85.0000016212464,8|0,0:0|0:0,0:0:0:0:
296,312,47204,2,0,P|300:201|333:181,1,85.0000016212464,2|0,0:0|0:0,0:0:0:0:
397,51,47435,2,0,L|292:80,1,85.0000016212464,12|0,0:0|0:0,0:0:0:0:
151,117,47665,5,8,0:0:0:0:
119,148,47780,2,0,P|139:236|180:262,1,85.0000016212464,8|8,0:0|0:0,0:0:0:0:
244,358,48011,1,8,0:0:0:0:
276,337,48127,2,0,P|307:243|294:210,1,85.0000016212464,0|4,0:0|0:0,0:0:0:0:
455,173,48358,6,0,L|405:272,1,85.0000016212464,8|0,0:0|0:0,0:0:0:0:
265,171,48588,2,0,L|365:195,1,85.0000016212464,4|0,0:0|0:0,0:0:0:0:
485,90,48819,1,8,0:0:0:0:
454,71,48935,2,0,B|390:71|390:71|342:39|342:39|246:39,1,170.000003242493,0|2,0:0|0:0,0:0:0:0:
159,148,49281,2,0,P|223:171|321:150,1,110.000003356934,8|0,0:0|0:0,0:0:0:0:
336,265,49511,2,0,L|212:244,1,110.000003356934,2|0,0:0|0:0,0:0:0:0:
124,309,49742,1,8,0:0:0:0:
151,325,49858,2,0,B|198:328|198:328|244:363|244:363|307:367,1,170.000003242493,2|2,0:0|0:0,0:0:0:0:
477,336,50204,6,0,P|494:258|470:215,1,85.0000016212464,8|0,0:0|0:0,0:0:0:0:
393,116,50435,2,0,P|393:221|400:238,1,85.0000016212464,2|0,0:0|0:0,0:0:0:0:
293,240,50665,1,8,0:0:0:0:
293,240,50781,1,0,0:0:0:0:
264,145,50896,6,0,L|155:173,1,85.0000016212464,2|2,0:0|0:0,0:0:0:0:
75,261,51127,2,0,P|157:259|205:284,1,85.0000016212464,8|0,0:0|0:0,0:0:0:0:
280,338,51358,2,0,P|228:347|146:337,1,85.0000016212464,2|0,0:0|0:0,0:0:0:0:
138,187,51588,1,8,0:0:0:0:
105,168,51704,2,0,P|94:63|205:27,1,170.000003242493,2|2,0:0|0:0,0:0:0:0:
301,69,52050,2,0,P|352:159|356:178,1,85.0000016212464,8|0,0:0|0:0,0:0:0:0:
463,264,52281,2,0,L|525:352,2,85.0000016212464,2|0|8,0:0|0:0|0:0,0:0:0:0:
123,285,52742,6,0,P|162:247|219:235,1,85.0000016212464,2|2,0:0|0:0,0:0:0:0:
220,241,52973,1,8,0:0:0:0:
483,179,53204,6,0,P|377:155|369:138,1,85.0000016212464,2|0,0:0|0:0,0:0:0:0:
256,90,53435,1,8,0:0:0:0:
287,66,53550,2,0,B|351:66|351:66|415:98|415:98|495:98,1,170.000003242493,2|2,0:0|0:0,0:0:0:0:
487,264,53896,2,0,P|376:269|365:264,1,110.000003356934,8|0,0:0|0:0,0:0:0:0:
236,331,54127,5,4,0:0:0:0:
198,308,54242,2,0,P|189:243|224:192,1,85.0000016212464
287,66,54473,5,8,0:0:0:0:
323,87,54588,2,0,P|338:143|312:210,1,85.0000016212464,0|2,0:0|0:0,0:0:0:0:
163,162,54819,2,0,L|280:127,1,85.0000016212464,12|0,0:0|0:0,0:0:0:0:
393,213,55050,2,0,B|307:329|307:329|194:325|180:289,1,255.000004863739,2|8,0:0|0:0,0:0:0:0:
59,259,55511,6,0,L|179:236,1,85.0000016212464,0|2,0:0|0:0,0:0:0:0:
243,186,55742,2,0,P|174:163|96:160,1,85.0000016212464,8|0,0:0|0:0,0:0:0:0:
84,90,55973,2,0,P|135:68|188:62,1,85.0000016212464,4|0,0:0|0:0,0:0:0:0:
334,76,56204,1,8,0:0:0:0:
363,83,56319,2,0,B|416:117|416:117|439:170|439:170|520:223,1,170.000003242493,0|2,0:0|0:0,0:0:0:0:
334,287,56665,6,0,L|219:276,1,85.0000016212464,8|0,0:0|0:0,0:0:0:0:
99,195,56896,2,0,P|153:192|214:207,1,85.0000016212464,2|0,0:0|0:0,0:0:0:0:
272,142,57127,1,8,0:0:0:0:
272,142,57242,1,2,0:0:0:0:
363,83,57358,2,0,P|377:169|335:208,1,85.0000016212464,0|2,0:0|0:0,0:0:0:0:
453,314,57588,6,0,L|480:217,1,85.0000016212464,8|0,0:0|0:0,0:0:0:0:
305,246,57819,2,2,P|269:307|266:354,1,85.0000016212464,2|0,0:0|0:0,0:0:0:0:
96,341,58050,1,8,0:0:0:0:
61,315,58165,2,0,B|61:251|61:251|93:203|93:203|93:107,1,170.000003242493,0|2,0:0|0:0,0:0:0:0:
263,171,58511,2,0,L|156:197,1,85.0000016212464,8|0,0:0|0:0,0:0:0:0:
22,125,58742,2,0,P|104:76|169:78,1,85.0000016212464,2|0,0:0|0:0,0:0:0:0:
261,54,58973,5,8,0:0:0:0:
301,81,59088,2,0,P|349:139|450:160,1,170.000003242493,2|2,0:0|0:0,0:0:0:0:
403,330,59435,2,0,P|363:338|283:327,1,85.0000016212464,8|0,0:0|0:0,0:0:0:0:
156,291,59665,2,0,P|245:232|272:239,2,85.0000016212464,2|0|8,0:0|0:0|0:0,0:0:0:0:
383,123,60127,2,0,P|295:67|267:71,2,85.0000016212464,2|2|8,0:0|0:0|0:0,0:0:0:0:
156,291,60588,6,0,P|257:255|303:253,1,85.0000016212464,2|0,0:0|0:0,0:0:0:0:
401,223,60819,1,8,0:0:0:0:
378,198,60935,2,0,B|332:186|332:186|293:142|293:142|232:127,1,170.000003242493,2|2,0:0|0:0,0:0:0:0:
78,49,61281,6,0,P|140:36|207:64,1,85.0000016212464,8|0,0:0|0:0,0:0:0:0:
198,206,61512,2,0,P|156:177|115:164,1,85.0000016212464,2|0,0:0|0:0,0:0:0:0:
16,299,61743,2,0,P|79:335|145:345,1,85.0000016212464,8|0,0:0|0:0,0:0:0:0:
252,285,61974,2,0,L|291:197,1,85.0000016212464,2|0,0:0|0:0,0:0:0:0:
455,197,62204,2,0,P|421:235|375:255,1,85.0000016212464,12|0,0:0|0:0,0:0:0:0:
254,147,62435,5,10,0:0:0:0:
250,117,62550,2,0,P|302:82|379:78,1,85.0000016212464,10|8,0:0|0:0,0:0:0:0:
485,23,62781,1,8,0:0:0:0:
495,57,62896,2,0,P|462:109|381:145,1,85.0000016212464,0|4,0:0|0:0,0:0:0:0:
471,206,63127,2,0,P|418:221|384:217,1,85.0000016212464,8|0,0:0|0:0,0:0:0:0:
350,314,63358,6,0,P|290:257|278:226,1,85.0000016212464,4|0,0:0|0:0,0:0:0:0:
120,251,63588,1,8,0:0:0:0:
91,225,63704,2,0,B|104:163|104:163|146:123|146:123|168:29,1,170.000003242493,0|2,0:0|0:0,0:0:0:0:
326,49,64050,2,0,P|239:99|230:113,1,85.0000016212464,8|0,0:0|0:0,0:0:0:0:
164,232,64281,2,0,P|209:245|279:237,1,85.0000016212464,2|0,0:0|0:0,0:0:0:0:
415,261,64511,5,8,0:0:0:0:
393,299,64627,2,0,B|348:316|348:316|291:303|291:303|233:327,1,170.000003242493,2|2,0:0|0:0,0:0:0:0:
63,352,64973,6,0,P|147:300|181:305,1,85.0000016212464,8|0,0:0|0:0,0:0:0:0:
260,193,65204,2,0,L|153:225,1,85.0000016212464,2|0,0:0|0:0,0:0:0:0:
193,329,65435,1,8,0:0:0:0:
39,258,65550,2,0,B|56:213|56:213|43:156|43:156|67:98,1,170.000003242493,2|2,0:0|0:0,0:0:0:0:
228,40,65896,2,0,L|180:123,1,85.0000016212464,8|0,0:0|0:0,0:0:0:0:
223,269,66127,2,0,L|277:155,1,85.0000016212464,2|0,0:0|0:0,0:0:0:0:
366,167,66358,5,8,0:0:0:0:
366,167,66473,1,2,0:0:0:0:
465,30,66588,6,0,P|458:108|440:144,1,85.0000016212464,2|2,0:0|0:0,0:0:0:0:
288,80,66819,2,0,P|227:126|178:134,1,85.0000016212464,8|0,0:0|0:0,0:0:0:0:
90,240,67050,2,0,L|193:264,1,85.0000016212464,2|0,0:0|0:0,0:0:0:0:
318,348,67281,1,8,0:0:0:0:
278,359,67396,2,0,B|233:341|233:341|176:354|176:354|118:330,1,170.000003242493,0|4,0:0|0:0,0:0:0:0:
23,187,67742,6,0,P|81:139|156:148,1,85.0000016212464,2|0,0:0|0:0,0:0:0:0:
227,38,67973,2,0,P|169:44|99:17,2,85.0000016212464,6|0|8,0:0|0:0|0:0,0:0:0:0:
499,243,68435,2,0,P|445:238|395:248,1,85.0000016212464,2|2,0:0|0:0,0:0:0:0:
248,288,68665,1,8,0:0:0:0:
224,256,68781,2,0,B|195:207|195:207|147:190|147:190|114:135,1,170.000003242493,2|8,0:0|0:0,0:0:0:0:
248,32,69127,2,0,P|304:126|315:145,1,85.0000016212464,8|2,0:0|0:0,0:0:0:0:
320,136,69358,5,8,0:0:0:0:
488,344,69588,1,10,0:0:0:0:
464,320,69704,2,0,L|403:257,2,85.0000016212464,12|8|4,0:0|0:0|0:0,0:0:0:0:
98,199,70281,6,0,P|124:265|212:289,1,150,12|2,0:0|0:0,0:0:0:0:
336,360,70742,6,0,B|374:308|374:308|377:251|377:251|425:187,1,160,2|2,0:0|0:0,0:0:0:0:
504,96,71088,2,0,P|446:65|359:153,1,160,4|2,0:0|0:0,0:0:0:0:
256,264,71435,6,0,B|251:225|251:225|215:181|215:181|208:117,1,160,2|2,0:0|0:0,0:0:0:0:
40,16,71780,2,0,P|3:94|67:191,1,160,4|2,0:0|0:0,0:0:0:0:
64,360,72127,2,0,L|166:305,2,80,6|0|2,0:0|0:0|0:0,0:0:0:0:
104,88,72588,6,0,B|160:88|160:88|216:64|216:64|296:64,1,160,2|2,0:0|0:0,0:0:0:0:
432,160,72935,2,0,B|368:160|368:160|317:184|317:184|240:184,1,160,4|2,0:0|0:0,0:0:0:0:
96,264,73281,2,0,P|156:327|264:304,1,160,2|2,0:0|0:0,0:0:0:0:
336,160,73627,2,0,P|328:88|224:8,1,160,4|2,0:0|0:0,0:0:0:0:
240,112,73973,1,4,0:0:0:0:
208,136,74088,1,4,0:0:0:0:
192,176,74204,1,4,0:0:0:0:
200,216,74319,1,4,0:0:0:0:
224,248,74435,6,0,B|272:288|272:288|336:296|416:224,1,160,2|2,0:0|0:0,0:0:0:0:
504,112,74781,2,0,P|453:60|335:72,1,160,4|2,0:0|0:0,2:0:0:0:
176,0,75127,2,0,P|113:60|136:168,1,160,2|2,0:0|0:0,0:0:0:0:
288,224,75473,2,0,P|306:162|214:80,1,160,4|2,0:0|0:0,0:0:0:0:
161,231,75819,2,0,L|88:200,2,80,6|0|2,0:0|0:0|0:0,0:0:0:0:
200,320,76165,1,4,0:0:0:0:
200,320,76281,1,4,0:0:0:0:
360,304,76512,6,4,B|402:246|402:246|360:171,1,150.000005722046,6|0,0:0|0:0,0:0:0:0:
231,268,76973,2,0,P|181:195|186:138,1,150.000005722046,6|0,0:0|0:0,0:0:0:0:
485,95,77435,2,0,L|369:117,1,75.0000028610231,8|0,0:0|0:0,0:0:0:0:
409,259,77665,2,0,L|323:217,1,75.0000028610231,8|0,0:0|0:0,0:0:0:0:
231,268,77896,2,0,L|174:197,1,75.0000028610231,8|0,0:0|0:0,0:0:0:0:
48,80,78127,6,0,B|112:80|112:80|160:56|160:56|240:56,1,170.000003242493,2|2,0:0|0:0,0:0:0:0:
416,128,78474,2,0,B|352:128|352:128|304:160|304:160|216:160,1,170.000003242493,4|2,0:0|0:0,0:0:0:0:
48,200,78820,2,0,P|108:263|248:224,1,170.000003242493,2|2,0:0|0:0,0:0:0:0:
400,280,79166,2,0,P|336:344|224:352,1,170.000003242493,4|2,0:0|0:0,0:0:0:0:
184,160,79511,1,4,0:0:0:0:
152,128,79627,1,4,0:0:0:0:
104,112,79742,1,4,0:0:0:0:
64,136,79858,1,4,0:0:0:0:
48,176,79973,6,0,P|115:247|240:240,1,170.000003242493,2|2,0:0|0:0,0:0:0:0:
400,256,80319,2,0,P|291:190|188:232,1,170.000003242493,4|2,0:0|0:0,0:0:0:0:
120,40,80665,2,0,P|57:100|86:230,1,170.000003242493,2|2,0:0|0:0,0:0:0:0:
240,288,81011,2,0,B|163:253|163:253|171:173|115:157,1,170.000003242493,4|2,0:0|0:0,0:0:0:0:
360,200,81358,2,0,L|238:212,1,85.0000016212464,4|0,0:0|0:0,0:0:0:0:
96,320,81588,2,0,L|176:336,2,42.5000008106232,6|0|4,0:0|0:0|0:0,0:0:0:0:
330,355,81819,6,0,B|378:267|378:267|339:123,1,170.000003242493,2|2,0:0|0:0,0:0:0:0:
144,192,82165,2,0,P|253:258|352:216,1,170.000003242493,4|2,0:0|0:0,0:0:0:0:
248,120,82511,2,0,P|188:57|50:81,1,170.000003242493,2|2,0:0|0:0,0:0:0:0:
320,24,82857,2,0,B|408:68|408:68|394:135|442:203,1,170.000003242493,4|2,0:0|0:0,0:0:0:0:
496,336,83204,2,0,P|448:262|464:198,1,85.0000016212464,4|0,0:0|0:0,0:0:0:0:
328,120,83435,2,0,P|312:208|328:248,1,85.0000016212464,4|0,0:0|0:0,0:0:0:0:
152,344,83665,6,0,B|155:290|96:248|96:248|115:170,1,170.000003242493,2|2,0:0|0:0,0:0:0:0:
224,16,84011,2,0,P|259:85|146:165,1,170.000003242493,4|2,0:0|0:0,0:0:0:0:
272,256,84358,2,0,B|312:312|312:312|403:336|484:355,1,170.000003242493,2|2,0:0|0:0,0:0:0:0:
496,144,84704,2,0,P|354:142|280:96,1,170.000003242493,4|2,0:0|0:0,0:0:0:0:
200,200,85050,5,4,0:0:0:0:
152,184,85165,1,4,0:0:0:0:
112,160,85281,1,4,0:0:0:0:
88,120,85396,1,4,0:0:0:0:
96,72,85511,6,0,P|131:49|198:47,1,75.0000028610231,8|0,0:0|0:0,0:0:0:0:
152,320,85858,2,0,L|240:320,1,75.0000028610231,8|0,0:0|0:0,0:0:0:0:
333,95,86204,2,0,L|445:94,1,75.0000028610231,8|0,0:0|0:0,0:0:0:0:
325,320,86550,2,0,L|405:322,1,75.0000028610231,8|0,0:0|0:0,0:0:0:0:
395,216,86896,6,0,B|369:100|213:191|258:272|258:272|45:221|45:221|63:126|173:182|164:157|164:157|200:66,1,675.000025749208,8|4,0:0|0:0,0:0:0:0:
281,71,88050,2,0,L|375:53,2,75.0000028610231,6|0|4,0:0|0:0|0:0,0:0:0:0:
