osu file format v14

[General]
AudioFilename: ok.mp3
AudioLeadIn: 0
PreviewTime: 40974
Countdown: 0
SampleSet: Normal
StackLeniency: 0.3
Mode: 0
LetterboxInBreaks: 0
WidescreenStoryboard: 0

[Editor]
Bookmarks: 19282,56204,88512
DistanceSpacing: 1
BeatDivisor: 2
GridSize: 8
TimelineZoom: 1.3

[Metadata]
Title:THE HERO!! ~Ikareru Kobushi ni Hi o Tsukero~ (TV Size)
TitleUnicode:THE HERO!!~怒れる拳に火をつけろ~(TV Size)
Artist:JAM Project
ArtistUnicode:JAM Project
Creator:Kihhou
Version:Hard
Source:ワンパンマン
Tags:one punch man wanpanman opening op ost makoto miyazaki hironobu kageyama hiromitsu kawashima ryo yamagata saitama
BeatmapID:867343
BeatmapSetID:398176

[Difficulty]
HPDrainRate:5
CircleSize:4
OverallDifficulty:6
ApproachRate:8
SliderMultiplier:0.749999999999999
SliderTickRate:1

[Events]
//Background and Video events
0,0,"o.jpg",0,0
Video,350,"One+Punch.avi"
//Break Periods
//Storyboard Layer 0 (Background)
//Storyboard Layer 1 (Fail)
//Storyboard Layer 2 (Pass)
//Storyboard Layer 3 (Foreground)
//Storyboard Sound Samples

[TimingPoints]
820,230.769230769231,4,1,1,5,1,0
2666,-123.456790123457,4,1,1,35,0,0
8204,-185.185185185185,4,1,1,45,0,0
8435,-185.185185185185,4,1,1,15,0,0
8550,-185.185185185185,4,1,1,45,0,0
8666,-185.185185185185,4,1,1,15,0,0
8896,-185.185185185185,4,1,1,45,0,0
10050,-100,4,1,1,60,0,0
17435,-185.185185185185,4,1,1,45,0,0
19281,-100,4,1,1,60,0,0
22973,-83.3333333333333,4,1,1,70,0,0
26666,-100,4,1,1,60,0,0
30358,-83.3333333333333,4,1,1,70,0,0
34050,-123.456790123457,4,1,1,60,0,0
41435,-100,4,1,1,70,0,0
69127,-100,4,1,1,75,0,0
70512,-100,4,1,1,80,0,0
70973,-83.3333333333333,4,1,1,80,0,1
76512,-83.3333333333333,4,1,1,80,0,0
78358,-83.3333333333333,4,1,1,80,0,1
82050,-76.9230769230769,4,1,1,80,0,1
85743,-100,4,1,1,60,0,0
88281,-100,4,1,1,50,0,0

[Colours]
Combo1 : 243,80,24
Combo2 : 230,219,6
Combo3 : 226,16,73

[HitObjects]
232,72,2666,6,0,L|248:139,1,60.7500014831543,0|0,1:0|2:0,0:0:0:0:
283,150,3012,2,0,L|273:240,1,91.1250022247314,0|0,1:0|1:0,0:0:0:0:
155,288,3704,2,0,L|164:197,1,91.1250022247314,0|0,1:0|1:0,0:0:0:0:
120,124,4281,1,0,1:0:0:0:
232,72,4512,6,0,L|248:139,1,60.7500014831543,0|0,1:0|2:0,0:0:0:0:
283,150,4858,2,0,L|273:240,1,91.1250022247314,0|0,1:0|1:0,0:0:0:0:
155,288,5550,2,0,L|164:197,1,91.1250022247314,0|0,1:0|1:0,0:0:0:0:
232,72,6358,6,0,L|248:139,1,60.7500014831543,0|0,1:0|2:0,0:0:0:0:
283,150,6704,2,0,L|273:240,1,91.1250022247314,0|0,1:0|1:0,0:0:0:0:
155,288,7396,2,0,L|164:197,1,91.1250022247314,0|0,1:0|1:0,0:0:0:0:
120,124,7973,1,0,1:0:0:0:
232,72,8204,6,0,L|251:147,2,60.7500014831543,0|0|0,2:0|2:0|2:0,0:0:0:0:
389,138,10050,6,0,P|399:183|389:227,1,74.9999999999999,12|2,0:1|0:1,0:0:0:0:
366,245,10396,2,0,P|362:282|372:318,1,74.9999999999999,8|2,0:1|0:1,0:0:0:0:
408,345,10743,2,0,P|348:332|287:349,1,112.5,12|8,0:1|0:1,0:0:0:0:
151,273,11435,2,0,L|96:264,3,37.5,8|8|2|2,0:1|0:1|0:1|0:1,0:0:0:0:
74,287,11896,6,0,L|70:203,1,74.9999999999999,12|2,0:1|0:1,0:0:0:0:
103,180,12243,2,0,L|99:96,1,74.9999999999999,2|2,0:1|0:1,0:0:0:0:
132,73,12589,1,12,0:1:0:0:
198,133,12820,1,2,0:1:0:0:
281,169,13050,2,0,P|316:146|336:115,1,74.9999999999999,2|12,0:1|0:1,0:0:0:0:
366,34,13512,1,12,0:1:0:0:
435,91,13743,6,0,P|445:130|439:184,1,74.9999999999999,12|2,0:1|0:1,0:0:0:0:
489,169,14089,2,0,P|480:209|450:253,1,74.9999999999999,8|2,0:1|0:1,0:0:0:0:
501,263,14435,2,0,P|471:299|377:323,1,112.5,12|8,0:1|0:1,0:0:0:0:
335,212,15127,2,0,L|322:146,3,37.5,8|2|2|2,0:1|0:1|0:1|0:1,0:0:0:0:
334,130,15589,6,0,P|294:107|252:102,1,74.9999999999999,12|2,0:1|0:1,0:0:0:0:
242,140,15935,2,0,P|202:163|160:168,1,74.9999999999999,8|2,0:1|0:1,0:0:0:0:
150,130,16281,2,0,P|93:103|37:107,1,112.5,12|12,0:1|0:1,0:0:0:0:
7,131,16743,1,8,0:1:0:0:
97,197,16973,1,2,0:1:0:0:
97,197,17089,1,8,0:3:0:0:
97,197,17204,1,4,0:3:0:0:
97,197,17320,1,4,0:3:0:0:
97,197,17435,6,0,L|105:270,1,60.7500014831543,0|0,3:0|3:0,0:0:0:0:
225,175,18127,2,0,L|169:150,1,60.7500014831543,0|0,3:0|3:0,0:0:0:0:
180,245,18820,2,0,L|210:286,1,40.5000009887695,0|0,3:0|0:0,0:0:0:0:
225,306,19281,6,0,L|321:315,1,74.9999999999999,6|8,0:1|0:1,0:0:0:0:
373,252,19743,1,2,0:1:0:0:
373,252,19858,1,2,0:1:0:0:
373,252,19973,1,8,0:1:0:0:
292,197,20204,2,0,P|280:151|285:119,1,74.9999999999999,2|8,0:1|0:1,0:0:0:0:
302,83,20550,2,0,L|378:79,1,74.9999999999999,2|2,0:1|0:1,0:0:0:0:
415,55,20896,1,8,0:1:0:0:
342,2,21127,6,0,L|267:5,1,74.9999999999999,6|8,0:1|0:1,0:0:0:0:
194,60,21589,2,0,L|119:56,1,74.9999999999999,2|8,0:1|0:1,0:0:0:0:
35,22,22050,2,0,P|21:63|29:115,1,74.9999999999999,2|8,0:1|0:1,0:0:0:0:
48,131,22396,2,0,P|63:171|65:209,1,74.9999999999999,2|2,0:1|0:1,0:0:0:0:
37,239,22743,1,12,0:1:0:0:
101,301,22973,6,0,P|153:275|221:276,1,89.9999972534179,6|2,0:1|0:1,0:0:0:0:
267,306,23435,2,0,L|314:317,2,44.999998626709,8|2|0,0:1|0:1|0:0,0:0:0:0:
259,216,23896,2,0,L|268:74,1,134.999995880127,2|2,0:1|0:1,0:0:0:0:
248,40,24358,1,8,0:1:0:0:
368,31,24589,1,8,0:1:0:0:
368,31,24704,1,8,0:1:0:0:
368,31,24820,6,0,L|360:166,1,134.999995880127,6|2,0:1|0:1,0:0:0:0:
336,214,25281,2,0,P|304:174|292:127,1,89.9999972534179,8|12,0:1|0:1,0:0:0:0:
268,90,25627,2,0,P|236:130|224:177,1,89.9999972534179,2|8,0:1|0:1,0:0:0:0:
200,214,25973,1,0,0:0:0:0:
136,149,26204,2,0,L|125:98,3,44.999998626709,8|8|8|8,0:1|0:1|0:1|0:1,0:0:0:0:
116,63,26666,5,6,0:1:0:0:
204,75,26896,1,8,0:1:0:0:
274,18,27127,1,2,0:1:0:0:
274,18,27243,1,2,0:1:0:0:
274,18,27358,1,8,0:1:0:0:
293,105,27589,2,0,P|331:100|369:70,1,74.9999999999999,2|8,0:1|0:1,0:0:0:0:
365,34,27935,2,0,P|401:25|438:24,1,74.9999999999999,2|2,0:1|0:1,0:0:0:0:
476,49,28281,1,8,0:1:0:0:
428,144,28512,6,0,L|420:227,1,74.9999999999999,6|8,0:1|0:1,0:0:0:0:
324,167,28973,2,0,L|316:250,1,74.9999999999999,2|8,0:1|0:1,0:0:0:0:
220,190,29435,2,0,L|212:273,1,74.9999999999999,2|12,0:1|0:1,0:0:0:0:
135,310,29896,2,0,L|81:303,3,37.5,2|8|8|8,0:1|0:1|0:1|0:1,0:0:0:0:
55,321,30358,6,0,L|46:200,1,89.9999972534179,6|0,0:1|0:0,0:0:0:0:
72,192,30705,1,0,0:0:0:0:
72,192,30820,2,0,L|52:140,1,44.999998626709,8|2,0:1|0:1,0:0:0:0:
175,87,31281,2,0,L|184:208,1,89.9999972534179,2|0,0:1|0:0,0:0:0:0:
158,216,31627,1,0,0:0:0:0:
158,216,31743,2,0,L|178:268,1,44.999998626709,8|0,0:1|0:0,0:0:0:0:
278,344,32204,6,0,P|297:307|292:254,1,89.9999972534179,6|2,0:1|0:1,0:0:0:0:
290,214,32550,2,0,P|330:191|375:186,1,89.9999972534179,8|2,0:1|0:1,0:0:0:0:
401,224,32896,1,12,0:1:0:0:
477,275,33127,1,2,0:1:0:0:
512,190,33358,1,8,0:1:0:0:
436,139,33589,2,0,L|420:78,3,44.999998626709,10|2|4|4,0:1|0:1|0:3|0:3,0:0:0:0:
386,76,34050,5,8,0:1:0:0:
319,205,34512,1,8,0:1:0:0:
282,53,34973,1,8,0:1:0:0:
215,181,35435,1,8,0:1:0:0:
178,29,35896,1,8,0:1:0:0:
111,157,36358,1,8,0:1:0:0:
74,5,36820,1,8,0:1:0:0:
8,134,37282,1,8,0:1:0:0:
8,134,37396,1,2,0:1:0:0:
8,134,37512,1,4,0:3:0:0:
64,204,37743,6,0,L|56:280,1,60.7500014831543,6|2,0:1|0:1,0:0:0:0:
134,147,38204,2,0,L|140:86,1,60.7500014831543,10|2,0:1|0:1,0:0:0:0:
190,217,38666,2,0,L|183:277,1,60.7500014831543,10|2,0:1|0:1,0:0:0:0:
260,160,39127,2,0,L|266:99,1,60.7500014831543,10|2,0:1|0:1,0:0:0:0:
316,230,39589,5,14,0:1:0:0:
372,300,39820,1,10,0:1:0:0:
442,243,40050,1,10,0:1:0:0:
448,241,40166,1,8,0:3:0:0:
454,241,40281,1,4,0:3:0:0:
460,240,40396,1,4,0:3:0:0:
466,239,40512,1,10,0:1:0:0:
417,79,40973,1,0,0:2:0:0:
417,79,41435,6,0,L|311:76,1,74.9999999999999,4|8,0:1|0:1,0:0:0:0:
307,105,41781,2,0,P|254:81|181:86,1,112.5,0|8,0:0|0:1,0:0:0:0:
149,154,42358,2,0,P|106:177|78:184,1,74.9999999999999,2|8,0:1|0:1,0:0:0:0:
43,100,42820,2,0,P|86:77|114:70,1,74.9999999999999,0|8,0:0|0:1,0:0:0:0:
200,80,43281,6,0,L|275:74,1,74.9999999999999,2|8,0:1|0:1,0:0:0:0:
326,148,43743,1,2,0:1:0:0:
265,214,43973,1,8,0:1:0:0:
296,299,44204,2,0,P|333:301|369:292,1,74.9999999999999,2|8,0:1|0:1,0:0:0:0:
403,323,44550,2,0,P|386:269|397:215,1,112.5,2|8,0:1|0:1,0:0:0:0:
473,133,45127,6,0,L|482:44,1,74.9999999999999,6|8,0:1|0:1,0:0:0:0:
391,42,45589,2,0,L|383:116,1,74.9999999999999,2|8,0:1|0:1,0:0:0:0:
312,171,46050,2,0,P|232:216|160:208,1,150,2|0,0:1|0:0,0:0:0:0:
94,251,46743,1,8,0:1:0:0:
167,302,46973,6,0,L|258:316,1,74.9999999999999,2|8,0:1|0:1,0:0:0:0:
324,349,47435,1,2,0:1:0:0:
365,269,47666,2,0,P|398:252|433:241,1,74.9999999999999,12|8,0:1|0:1,0:0:0:0:
462,205,48012,2,0,P|428:188|393:177,1,74.9999999999999,8|8,0:1|0:3,0:0:0:0:
347,173,48358,1,0,0:0:0:0:
373,86,48589,1,8,0:1:0:0:
252,78,48820,6,0,P|215:81|180:93,1,74.9999999999999,4|8,0:1|0:1,0:0:0:0:
143,119,49166,2,0,P|151:182|127:242,1,112.5,0|8,0:0|0:1,0:0:0:0:
93,307,49743,2,0,L|177:311,1,74.9999999999999,2|8,0:1|0:1,0:0:0:0:
204,336,50089,2,0,P|251:307|306:299,1,112.5,2|8,0:1|0:1,0:0:0:0:
372,238,50666,6,0,P|391:199|388:152,1,74.9999999999999,2|8,0:1|0:1,0:0:0:0:
305,142,51127,2,0,P|286:181|289:228,1,74.9999999999999,2|8,0:1|0:1,0:0:0:0:
307,299,51589,2,0,P|262:334|187:318,2,112.5,2|2|8,0:1|0:1|0:1,0:0:0:0:
393,325,52512,6,0,P|433:339|489:334,1,74.9999999999999,2|8,0:1|0:1,0:0:0:0:
484,251,52973,2,0,P|444:237|388:242,1,74.9999999999999,2|8,0:1|0:1,0:0:0:0:
339,181,53435,2,0,L|327:91,1,74.9999999999999,2|8,0:1|0:1,0:0:0:0:
350,67,53781,2,0,P|295:75|243:57,1,112.5,2|8,0:1|0:1,0:0:0:0:
154,42,54358,6,0,P|137:78|135:119,1,74.9999999999999,4|0,0:1|0:0,0:0:0:0:
90,102,54704,2,0,P|89:141|103:180,1,74.9999999999999,8|2,0:1|0:1,0:0:0:0:
55,182,55050,2,0,P|70:218|99:247,1,74.9999999999999,12|2,0:1|0:1,0:0:0:0:
181,219,55512,1,2,0:1:0:0:
256,267,55743,2,0,L|268:308,3,37.5,0|2|8|0,0:0|0:1|0:1|0:0,0:0:0:0:
297,346,56204,6,0,P|334:352|371:347,1,74.9999999999999,4|8,0:1|0:1,0:0:0:0:
409,322,56550,2,0,P|434:257|471:223,1,112.5,0|8,0:0|0:1,0:0:0:0:
500,145,57127,2,0,L|425:136,1,74.9999999999999,2|8,0:1|0:1,0:0:0:0:
342,173,57589,2,0,L|267:164,1,74.9999999999999,0|8,0:0|0:1,0:0:0:0:
219,88,58050,5,2,0:1:0:0:
165,160,58281,1,8,0:1:0:0:
212,236,58512,2,0,P|229:294|227:326,1,74.9999999999999,2|8,0:1|0:1,0:0:0:0:
310,346,58973,2,0,P|313:308|327:273,1,74.9999999999999,2|8,0:1|0:1,0:0:0:0:
366,250,59320,2,0,P|387:196|366:132,1,112.5,2|8,0:1|0:1,0:0:0:0:
309,81,59896,6,0,P|264:81|225:69,1,74.9999999999999,2|8,0:1|0:1,0:0:0:0:
163,18,60358,2,0,P|125:17|89:25,1,74.9999999999999,2|8,0:1|0:1,0:0:0:0:
37,99,60820,2,0,L|47:181,1,74.9999999999999,2|8,0:1|0:1,0:0:0:0:
85,195,61166,2,0,P|76:253|86:319,1,112.5,2|8,0:1|0:1,0:0:0:0:
169,285,61743,6,0,P|202:281|254:291,1,74.9999999999999,2|8,0:1|0:1,0:0:0:0:
329,311,62204,1,2,0:1:0:0:
379,236,62435,1,12,0:1:0:0:
334,157,62666,2,0,P|330:115|353:63,1,74.9999999999999,10|8,0:1|0:3,0:0:0:0:
428,98,63127,2,0,L|449:136,3,37.5,0|4|8|0,0:0|0:3|0:1|0:0,0:0:0:0:
487,164,63589,6,0,L|474:237,1,74.9999999999999,4|8,0:1|0:1,0:0:0:0:
444,271,63935,2,0,P|385:254|325:260,1,112.5,0|8,0:0|0:1,0:0:0:0:
286,333,64512,2,0,P|251:346|198:352,1,74.9999999999999,2|8,0:1|0:1,0:0:0:0:
190,313,64858,2,0,P|140:284|73:277,1,112.5,2|8,0:1|0:1,0:0:0:0:
110,189,65435,6,0,L|195:179,1,74.9999999999999,2|8,0:1|0:1,0:0:0:0:
199,91,65896,2,0,L|124:99,1,74.9999999999999,2|8,0:1|0:1,0:0:0:0:
41,132,66358,2,0,P|16:108|21:21,2,112.5,2|2|8,0:1|0:1|0:1,0:0:0:0:
152,196,67281,6,0,P|142:265|119:298,1,74.9999999999999,6|8,0:1|0:1,0:0:0:0:
230,281,67743,2,0,P|192:340|158:360,1,74.9999999999999,2|8,0:1|0:1,0:0:0:0:
100,348,68204,2,0,P|77:337|29:331,1,74.9999999999999,2|8,0:1|0:1,0:0:0:0:
11,289,68550,2,0,P|43:225|35:158,1,112.5,2|8,0:1|0:1,0:0:0:0:
14,72,69127,5,6,0:1:0:0:
108,103,69358,1,8,0:1:0:0:
108,103,69473,1,8,0:1:0:0:
108,103,69589,2,0,L|158:98,3,37.5,2|8|8|2,0:1|0:1|0:1|0:1,0:0:0:0:
183,122,70050,2,0,L|233:117,3,37.5,12|8|4|4,0:1|0:3|0:3|0:3,0:0:0:0:
258,141,70512,1,10,0:1:0:0:
367,294,70973,6,0,P|402:264|450:254,1,89.9999972534179,6|2,0:1|0:1,0:0:0:0:
483,277,71320,2,0,P|500:218|467:145,2,134.999995880127,8|12|8,0:1|0:1|0:1,0:0:0:0:
379,372,72358,2,0,L|334:375,3,44.999998626709,8|8|2|2,0:1|0:1|0:1|0:1,0:0:0:0:
295,351,72820,6,0,P|246:320|212:318,1,89.9999972534179,12|2,0:1|0:1,0:0:0:0:
173,335,73166,2,0,P|106:335|75:310,1,89.9999972534179,2|2,0:1|0:1,0:0:0:0:
47,342,73512,2,0,P|76:278|63:211,1,134.999995880127,12|2,0:1|0:1,0:0:0:0:
163,123,74204,2,0,L|156:78,3,44.999998626709,12|2|2|0,0:1|0:1|0:1|0:0,0:0:0:0:
117,56,74666,6,0,P|66:60|28:77,1,89.9999972534179,6|2,0:1|0:1,0:0:0:0:
40,119,75012,2,0,P|60:186|34:248,2,134.999995880127,2|12|2,0:1|0:1|0:1,0:0:0:0:
153,192,76050,2,0,P|195:205|259:202,1,89.9999972534179,12|2,0:1|0:1,0:0:0:0:
310,262,76512,6,0,P|380:232|461:243,1,134.999995880127,12|8,0:1|0:1,0:0:0:0:
472,263,76973,2,0,L|482:158,1,89.9999972534179,0|8,0:0|0:1,0:0:0:0:
447,89,77435,1,6,0:1:0:0:
499,15,77666,1,8,0:1:0:0:
381,18,77896,2,0,L|369:64,3,44.999998626709,2|2|4|4,0:1|0:1|0:3|0:3,0:0:0:0:
338,94,78358,6,0,P|294:103|258:129,1,89.9999972534179,6|2,0:1|0:1,0:0:0:0:
239,170,78704,2,0,P|221:119|228:30,2,134.999995880127,8|12|8,0:1|0:1|0:1,0:0:0:0:
359,231,79743,2,0,P|372:282|366:326,1,89.9999972534179,12|8,0:1|0:1,0:0:0:0:
297,374,80204,6,0,P|241:335|185:329,1,89.9999972534179,12|2,0:1|0:1,0:0:0:0:
178,346,80550,2,0,P|171:302|180:258,1,89.9999972534179,8|2,0:1|0:1,0:0:0:0:
220,237,80896,2,0,P|205:176|142:134,1,134.999995880127,12|0,0:1|0:0,0:0:0:0:
220,22,81589,1,0,0:0:0:0:
277,91,81820,1,12,0:1:0:0:
364,51,82050,6,0,P|411:78|438:117,1,97.4999955368043,6|2,0:1|0:1,0:0:0:0:
410,154,82396,2,0,P|393:247|421:313,2,146.249993305206,8|12|8,0:1|0:1|0:1,0:0:0:0:
267,189,83435,2,0,P|273:232|304:300,1,97.4999955368043,12|2,0:1|0:1,0:0:0:0:
224,352,83896,6,0,P|176:323|116:338,1,97.4999955368043,12|2,0:1|0:1,0:0:0:0:
87,333,84243,2,0,P|94:226|67:217,1,146.249993305206,8|12,0:1|0:1,0:0:0:0:
13,148,84820,1,2,0:0:0:0:
13,148,84935,1,8,0:1:0:0:
13,148,85050,1,8,0:1:0:0:
122,111,85281,1,8,0:3:0:0:
127,117,85396,1,8,0:3:0:0:
132,122,85512,1,4,0:3:0:0:
136,127,85627,1,4,0:3:0:0:
141,133,85743,6,0,P|196:127|237:91,1,112.5,10|8,0:1|0:1,0:0:0:0:
283,194,86435,2,0,P|227:199|186:235,1,112.5,8|2,0:1|0:1,0:0:0:0:
73,223,87127,1,8,0:1:0:0:
121,327,87473,6,0,P|256:348|185:235,1,337.5,6|4,0:1|0:3,0:0:0:0:
