osu file format v14

[General]
AudioFilename: audio.mp3
AudioLeadIn: 0
PreviewTime: -1
Countdown: 1
SampleSet: Normal
StackLeniency: 0.7
Mode: 0
LetterboxInBreaks: 0
WidescreenStoryboard: 1

[Editor]
DistanceSpacing: 1
BeatDivisor: 16
GridSize: 4
TimelineZoom: 1

[Metadata]
Title:WE LIT JOIN QUICK
TitleUnicode:WE LIT JOIN QUICK
Artist:JACOURIAMOSLEY11
ArtistUnicode:JACOURIAMOSLEY11
Creator:XII
Version:IM FLEXING
Source:compton
Tags:
BeatmapID:1539936
BeatmapSetID:729556

[Difficulty]
HPDrainRate:5
CircleSize:2
OverallDifficulty:5
ApproachRate:0
SliderMultiplier:3.59999990463257
SliderTickRate:1

[Events]
//Background and Video events
0,0,"unknown (3).png",0,0
Video,0,"ezgif.com-resize.mp4"
//Break Periods
//Storyboard Layer 0 (Background)
//Storyboard Layer 1 (Fail)
//Storyboard Layer 2 (Pass)
//Storyboard Layer 3 (Foreground)
//Storyboard Sound Samples

[TimingPoints]
0,8.6095566078347,4,1,0,100,1,0
1707.25529851558,389.61038961039,4,1,0,100,1,0
6333,60.0600600600601,4,1,0,100,1,0

[HitObjects]
272,140,0,5,0,0:0:0:0:
272,140,8,1,0,0:0:0:0:
296,56,10,1,0,0:0:0:0:
40,176,12,1,0,0:0:0:0:
332,116,13,1,0,0:0:0:0:
320,96,17,1,0,0:0:0:0:
152,120,18,1,0,0:0:0:0:
136,240,19,1,0,0:0:0:0:
332,116,20,1,0,0:0:0:0:
136,24,21,1,0,0:0:0:0:
220,28,23,1,0,0:0:0:0:
272,140,24,1,0,0:0:0:0:
188,196,26,1,0,0:0:0:0:
24,276,27,1,0,0:0:0:0:
280,152,28,1,0,0:0:0:0:
156,132,30,1,0,0:0:0:0:
44,112,31,1,0,0:0:0:0:
364,128,33,1,0,0:0:0:0:
280,152,34,1,0,0:0:0:0:
320,132,35,1,0,0:0:0:0:
84,96,41,1,0,0:0:0:0:
104,72,43,1,0,0:0:0:0:
280,152,45,1,0,0:0:0:0:
280,152,47,1,0,0:0:0:0:
316,72,48,1,0,0:0:0:0:
228,168,50,1,0,0:0:0:0:
56,184,51,1,0,0:0:0:0:
480,292,53,1,0,0:0:0:0:
360,344,57,1,0,0:0:0:0:
280,152,61,1,0,0:0:0:0:
276,56,65,1,0,0:0:0:0:
320,132,71,1,0,0:0:0:0:
280,152,81,1,0,0:0:0:0:
320,132,84,1,0,0:0:0:0:
356,108,85,1,0,0:0:0:0:
200,104,88,1,0,0:0:0:0:
376,124,90,1,0,0:0:0:0:
280,160,91,1,0,0:0:0:0:
472,156,92,1,0,0:0:0:0:
300,136,93,1,0,0:0:0:0:
280,272,96,1,0,0:0:0:0:
168,72,101,1,0,0:0:0:0:
272,152,111,1,0,0:0:0:0:
332,264,113,1,0,0:0:0:0:
272,184,117,1,0,0:0:0:0:
300,292,118,1,0,0:0:0:0:
280,152,122,1,0,0:0:0:0:
176,252,126,1,0,0:0:0:0:
356,32,129,1,0,0:0:0:0:
424,188,133,1,0,0:0:0:0:
156,248,136,1,0,0:0:0:0:
124,96,137,1,0,0:0:0:0:
404,96,139,1,0,0:0:0:0:
272,140,140,1,0,0:0:0:0:
180,24,141,1,0,0:0:0:0:
256,220,143,1,0,0:0:0:0:
280,152,146,1,0,0:0:0:0:
216,116,147,1,0,0:0:0:0:
160,152,148,1,0,0:0:0:0:
64,208,149,1,0,0:0:0:0:
172,128,150,1,0,0:0:0:0:
60,72,151,1,0,0:0:0:0:
408,112,152,1,0,0:0:0:0:
12,272,154,1,0,0:0:0:0:
228,256,155,1,0,0:0:0:0:
320,132,161,1,0,0:0:0:0:
220,124,167,1,0,0:0:0:0:
152,192,168,1,0,0:0:0:0:
280,152,171,1,0,0:0:0:0:
384,156,172,1,0,0:0:0:0:
88,76,173,1,0,0:0:0:0:
332,116,175,1,0,0:0:0:0:
244,336,179,1,0,0:0:0:0:
164,148,180,1,0,0:0:0:0:
76,212,181,1,0,0:0:0:0:
280,152,184,1,0,0:0:0:0:
296,120,185,1,0,0:0:0:0:
312,168,188,1,0,0:0:0:0:
380,128,191,1,0,0:0:0:0:
168,136,194,1,0,0:0:0:0:
280,152,197,1,0,0:0:0:0:
280,152,198,1,0,0:0:0:0:
420,100,199,1,0,0:0:0:0:
84,80,200,1,0,0:0:0:0:
280,152,201,1,0,0:0:0:0:
320,132,203,1,0,0:0:0:0:
44,72,204,1,0,0:0:0:0:
392,248,207,1,0,0:0:0:0:
204,240,211,1,0,0:0:0:0:
312,116,215,1,0,0:0:0:0:
220,88,219,1,0,0:0:0:0:
320,132,224,1,0,0:0:0:0:
280,152,226,1,0,0:0:0:0:
344,108,227,1,0,0:0:0:0:
332,268,230,1,0,0:0:0:0:
480,172,231,1,0,0:0:0:0:
176,148,236,1,0,0:0:0:0:
312,112,240,1,0,0:0:0:0:
176,68,243,1,0,0:0:0:0:
216,260,247,1,0,0:0:0:0:
280,152,299,1,0,0:0:0:0:
176,80,307,1,0,0:0:0:0:
160,152,312,1,0,0:0:0:0:
36,156,334,1,0,0:0:0:0:
312,112,377,1,0,0:0:0:0:
208,104,411,1,0,0:0:0:0:
192,104,437,1,0,0:0:0:0:
280,152,457,1,0,0:0:0:0:
192,56,465,1,0,0:0:0:0:
76,60,468,1,0,0:0:0:0:
236,148,470,1,0,0:0:0:0:
264,104,493,1,0,0:0:0:0:
112,180,504,1,0,0:0:0:0:
292,124,517,1,0,0:0:0:0:
288,128,534,1,0,0:0:0:0:
488,84,541,1,0,0:0:0:0:
348,152,558,1,0,0:0:0:0:
208,104,566,1,0,0:0:0:0:
268,152,599,1,0,0:0:0:0:
280,152,602,1,0,0:0:0:0:
240,88,606,1,0,0:0:0:0:
264,60,627,1,0,0:0:0:0:
208,104,628,1,0,0:0:0:0:
44,72,635,1,0,0:0:0:0:
300,120,640,1,0,0:0:0:0:
16,136,674,1,0,0:0:0:0:
208,104,721,1,0,0:0:0:0:
96,296,737,1,0,0:0:0:0:
292,100,749,1,0,0:0:0:0:
280,152,755,1,0,0:0:0:0:
208,104,782,1,0,0:0:0:0:
56,72,800,1,0,0:0:0:0:
176,44,862,1,0,0:0:0:0:
236,148,863,1,0,0:0:0:0:
280,152,900,1,0,0:0:0:0:
232,304,905,1,0,0:0:0:0:
68,256,916,1,0,0:0:0:0:
272,148,942,1,0,0:0:0:0:
312,308,1026,1,0,0:0:0:0:
344,108,1037,1,0,0:0:0:0:
120,276,1038,1,0,0:0:0:0:
28,228,1048,1,0,0:0:0:0:
100,96,1052,1,0,0:0:0:0:
84,72,1058,1,0,0:0:0:0:
16,160,1061,1,0,0:0:0:0:
208,104,1076,1,0,0:0:0:0:
12,136,1113,1,0,0:0:0:0:
208,104,1140,1,0,0:0:0:0:
340,308,1160,1,0,0:0:0:0:
400,272,1172,1,0,0:0:0:0:
264,32,1186,1,0,0:0:0:0:
52,112,1188,1,0,0:0:0:0:
8,188,1189,1,0,0:0:0:0:
160,96,1191,1,0,0:0:0:0:
136,48,1193,1,0,0:0:0:0:
316,128,1215,1,0,0:0:0:0:
296,196,1219,1,0,0:0:0:0:
84,64,1220,1,0,0:0:0:0:
236,148,1287,1,0,0:0:0:0:
236,148,1301,1,0,0:0:0:0:
380,272,1311,1,0,0:0:0:0:
352,304,1313,1,0,0:0:0:0:
432,56,1317,1,0,0:0:0:0:
476,184,1319,1,0,0:0:0:0:
368,32,1320,1,0,0:0:0:0:
436,264,1321,1,0,0:0:0:0:
208,36,1329,1,0,0:0:0:0:
304,32,1331,1,0,0:0:0:0:
244,120,1337,1,0,0:0:0:0:
472,112,1345,1,0,0:0:0:0:
104,56,1373,1,0,0:0:0:0:
236,148,1420,1,0,0:0:0:0:
384,304,1442,1,0,0:0:0:0:
216,176,1448,1,0,0:0:0:0:
464,220,1461,1,0,0:0:0:0:
256,56,1463,1,0,0:0:0:0:
344,32,1467,1,0,0:0:0:0:
456,80,1471,1,0,0:0:0:0:
420,44,1477,1,0,0:0:0:0:
208,104,1490,1,0,0:0:0:0:
172,124,1561,1,0,0:0:0:0:
432,304,1570,1,0,0:0:0:0:
160,212,1598,2,0,B|260:240|608:184|636:136|612:84|596:72|496:88|380:160|268:200|220:216|192:216|248:224|260:216|300:224|-144:212|116:188|200:152|304:168|168:136|240:108|48:136|0:96|28:68|76:56|24:56|-44:52|-44:236|-32:232|104:240,143,1237.49996721745
128,56,1658,1,0,0:0:0:0:
284,152,1683,1,0,0:0:0:0:
228,156,1688,1,0,0:0:0:0:
488,292,1707,1,0,0:0:0:0:
296,64,1829,1,0,0:0:0:0:
244,60,1902,1,0,0:0:0:0:
160,292,1975,1,0,0:0:0:0:
296,136,1999,1,0,0:0:0:0:
492,192,2145,1,0,0:0:0:0:
180,164,2194,1,0,0:0:0:0:
256,244,2218,1,0,0:0:0:0:
468,188,2291,1,0,0:0:0:0:
472,180,2462,1,0,0:0:0:0:
416,104,2608,1,0,0:0:0:0:
304,140,2656,1,0,0:0:0:0:
336,88,2754,1,0,0:0:0:0:
220,204,2851,1,0,0:0:0:0:
276,96,2900,1,0,0:0:0:0:
344,200,3022,2,0,B|68:208|224:296|272:336|316:368|656:324|680:252|628:128|580:72|368:32|216:36|112:48|24:56|-20:56|-56:56|-76:88|-108:152|-64:200|-48:264|32:320|480:368|668:248|676:88|540:8|344:8|200:16|32:4|-120:40|-112:172|60:328|560:320|540:184,2,2429.99993562699
168,120,3046,1,0,0:0:0:0:
180,172,3192,1,0,0:0:0:0:
292,212,3338,1,0,0:0:0:0:
396,256,3436,1,0,0:0:0:0:
248,216,3509,1,0,0:0:0:0:
404,176,3533,1,0,0:0:0:0:
312,64,3557,1,0,0:0:0:0:
228,84,3704,1,0,0:0:0:0:
92,144,3850,1,0,0:0:0:0:
248,80,3971,1,0,0:0:0:0:
172,144,4117,1,0,0:0:0:0:
128,44,4142,1,0,0:0:0:0:
160,216,4264,1,0,0:0:0:0:
304,48,4288,1,0,0:0:0:0:
292,272,4410,1,0,0:0:0:0:
404,56,4434,1,0,0:0:0:0:
472,136,4580,1,0,0:0:0:0:
456,204,4726,1,0,0:0:0:0:
412,264,4872,1,0,0:0:0:0:
96,184,4897,2,0,B|324:96|368:32|608:48|344:208|-104:372|-148:204|360:160|676:144|620:112|560:40|552:88,1,922.499975562096
320,284,5018,1,0,0:0:0:0:
112,344,5530,2,0,B|656:408|544:52|656:40|688:400|648:4,6,787.499979138375
28,252,5871,2,0,B|260:72|280:0|436:56|496:92|504:192|544:316|560:100|468:96|416:128|452:140|224:164,1,854.999977350235
412,220,7068,2,0,B|248:272|148:260|136:124|288:96|448:88|564:124|496:320|320:316|248:196|504:136|604:212|240:320|244:136|524:112|632:352|304:384|108:76|584:60|568:356|480:380|152:280|76:344,1,854.999977350235
76,240,9899,1,0,0:0:0:0:
172,220,9951,1,0,0:0:0:0:
48,220,10154,1,0,0:0:0:0:
8,248,10169,1,0,0:0:0:0:
284,224,10364,1,0,0:0:0:0:
40,160,10372,1,0,0:0:0:0:
60,288,10473,1,0,0:0:0:0:
400,208,10492,1,0,0:0:0:0:
112,96,10567,1,0,0:0:0:0:
144,328,10612,1,0,0:0:0:0:
96,136,10634,2,0,B|252:116|488:160|292:92|156:224|24:236|-172:148|-144:152|164:176|28:232,4,674.999982118607
216,328,10754,1,0,0:0:0:0:
332,308,10890,1,0,0:0:0:0:
448,280,11040,1,0,0:0:0:0:
84,88,11062,1,0,0:0:0:0:
196,76,11073,1,0,0:0:0:0:
224,36,11100,1,0,0:0:0:0:
460,172,11186,1,0,0:0:0:0:
196,32,11246,1,0,0:0:0:0:
316,88,11257,1,0,0:0:0:0:
300,40,11280,1,0,0:0:0:0:
464,136,11314,1,0,0:0:0:0:
136,36,11393,1,0,0:0:0:0:
420,112,11449,1,0,0:0:0:0:
392,40,11483,1,0,0:0:0:0:
104,48,11535,1,0,0:0:0:0:
280,84,11546,1,0,0:0:0:0:
464,32,11625,1,0,0:0:0:0:
88,56,11674,1,0,0:0:0:0:
340,164,11719,1,0,0:0:0:0:
504,52,11790,1,0,0:0:0:0:
76,64,11813,1,0,0:0:0:0:
208,196,11866,1,0,0:0:0:0:
40,80,11963,1,0,0:0:0:0:
256,192,12173,12,0,13247,0:0:0:0:
256,192,13645,12,0,14110,0:0:0:0:
256,192,14403,12,0,14628,0:0:0:0:
256,192,14790,12,0,15049,0:0:0:0:
