osu file format v14

[General]
AudioFilename: audio.mp3
AudioLeadIn: 0
PreviewTime: 180214
Countdown: 1
SampleSet: Normal
StackLeniency: 0.7
Mode: 1
LetterboxInBreaks: 0
WidescreenStoryboard: 0

[Editor]
Bookmarks: 21548,42881,85548,128214,160214,202881,224214,245548,277548,298881,341548
DistanceSpacing: 0.2
BeatDivisor: 4
GridSize: 16
TimelineZoom: 2.4

[Metadata]
Title:Infinite Memory Overwrite
TitleUnicode:Infinite Memory Overwrite
Artist:JACKALQ~1.EXE ft. ROTTEEN.DM
ArtistUnicode:JACKALQ~1.EXE ft. ROTTEEN.DM
Creator:eae
Version:Overload
Source:
Tags:speedcore halley labs lapfox trax b-side u: 2016 vol. 1 renard hirok
BeatmapID:1943582
BeatmapSetID:930718

[Difficulty]
HPDrainRate:4.8
CircleSize:5
OverallDifficulty:6.3
ApproachRate:5
SliderMultiplier:1.4
SliderTickRate:1

[Events]
//Background and Video events
0,0,"BG infinite.jpg",0,50
//Break Periods
//Storyboard Layer 0 (Background)
//Storyboard Layer 1 (Fail)
//Storyboard Layer 2 (Pass)
//Storyboard Layer 3 (Foreground)
//Storyboard Sound Samples

[TimingPoints]
215,333.333333333333,4,1,0,50,1,0
215,-76.9230769230769,4,1,0,50,0,0
464,-111.111111111111,4,1,0,50,0,0
5214,-98.0392156862745,4,1,0,50,0,0
5270,-100,4,1,0,50,0,0
5326,-102.040816326531,4,1,0,50,0,0
5381,-104.166666666667,4,1,0,50,0,0
5437,-106.382978723404,4,1,0,50,0,0
5492,-108.695652173913,4,1,0,50,0,0
5548,-111.111111111111,4,1,0,50,0,0
9714,-108.695652173913,4,1,0,50,0,0
9798,-106.382978723404,4,1,0,50,0,0
9881,-104.166666666667,4,1,0,50,0,0
9937,-102.040816326531,4,1,0,50,0,0
9992,-100,4,1,0,50,0,0
10048,-98.0392156862745,4,1,0,50,0,0
10214,-96.1538461538461,4,1,0,50,0,0
10298,-94.3396226415094,4,1,0,50,0,0
10381,-92.5925925925926,4,1,0,50,0,0
10437,-90.9090909090909,4,1,0,50,0,0
10492,-89.2857142857143,4,1,0,50,0,0
10548,-87.719298245614,4,1,0,50,0,0
10714,-86.2068965517241,4,1,0,50,0,0
10770,-87.719298245614,4,1,0,50,0,0
10826,-89.2857142857143,4,1,0,50,0,0
10881,-90.9090909090909,4,1,0,50,0,0
11214,-111.111111111111,4,1,0,50,0,0
15881,-98.0392156862745,4,1,0,50,0,0
15937,-100,4,1,0,50,0,0
15992,-102.040816326531,4,1,0,50,0,0
16048,-104.166666666667,4,1,0,50,0,0
16103,-106.382978723404,4,1,0,50,0,0
16159,-108.695652173913,4,1,0,50,0,0
16214,-111.111111111111,4,1,0,50,0,0
20381,-108.695652173913,4,1,0,50,0,0
20464,-106.382978723404,4,1,0,50,0,0
20548,-104.166666666667,4,1,0,50,0,0
20603,-102.040816326531,4,1,0,50,0,0
20659,-100,4,1,0,50,0,0
20714,-98.0392156862745,4,1,0,50,0,0
20881,-96.1538461538461,4,1,0,50,0,0
20964,-94.3396226415094,4,1,0,50,0,0
21048,-92.5925925925926,4,1,0,50,0,0
21214,-58.8235294117647,4,1,0,50,0,0
21464,-83.3333333333333,4,1,0,50,0,0
22631,-111.111111111111,4,1,0,40,0,0
24131,-125,4,1,0,40,0,0
25298,-142.857142857143,4,1,0,40,0,0
26798,-90.9090909090909,4,1,0,40,0,0
27964,-111.111111111111,4,1,0,40,0,0
29464,-125,4,1,0,40,0,0
30631,-142.857142857143,4,1,0,40,0,0
31464,-125,4,1,0,40,0,0
31798,-111.111111111111,4,1,0,40,0,0
32131,-99.9999999999999,4,1,0,40,0,0
33298,-111.111111111111,4,1,0,40,0,0
33548,-90.9090909090909,4,1,0,40,0,0
34798,-125,4,1,0,40,0,0
35964,-142.857142857143,4,1,0,40,0,0
36131,-100,4,1,0,40,0,0
37464,-90.9090909090909,4,1,0,40,0,0
38631,-111.111111111111,4,1,0,40,0,0
38798,-66.6666666666667,4,1,0,40,0,0
40131,-125,4,1,0,40,0,0
41298,-142.857142857143,4,1,0,40,0,0
41548,-55.5555555555556,4,1,0,40,0,0
42464,-71.4285714285714,4,1,0,40,0,0
42798,-100,4,1,0,70,0,0
43464,-83.3333333333333,4,1,0,70,0,0
44131,-71.4285714285714,4,1,0,70,0,0
44798,-62.5,4,1,0,70,0,0
45131,-50,4,1,0,70,0,0
45548,-83.3333333333333,4,1,0,70,0,1
45714,-84.7457627118644,4,1,0,70,0,1
45798,-86.2068965517241,4,1,0,70,0,1
45881,-87.719298245614,4,1,0,70,0,1
46048,-89.2857142857143,4,1,0,70,0,1
46214,-90.9090909090909,4,1,0,70,0,1
46298,-92.5925925925926,4,1,0,70,0,1
46381,-94.3396226415094,4,1,0,70,0,1
46464,-96.1538461538461,4,1,0,70,0,1
46548,-98.0392156862745,4,1,0,70,0,1
46714,-100,4,1,0,70,0,1
46798,-102.040816326531,4,1,0,70,0,1
46881,-104.166666666667,4,1,0,70,0,1
47214,-102.040816326531,4,1,0,70,0,1
47381,-100,4,1,0,70,0,1
47464,-98.0392156862745,4,1,0,70,0,1
47548,-96.1538461538461,4,1,0,70,0,1
47631,-94.3396226415094,4,1,0,70,0,1
47714,-92.5925925925926,4,1,0,70,0,1
47798,-90.9090909090909,4,1,0,70,0,1
47881,-89.2857142857143,4,1,0,70,0,1
47964,-87.719298245614,4,1,0,70,0,1
48048,-86.2068965517241,4,1,0,70,0,1
48214,-83.3333333333333,4,1,0,70,0,1
48381,-84.7457627118644,4,1,0,70,0,1
48464,-86.2068965517241,4,1,0,70,0,1
48548,-87.719298245614,4,1,0,70,0,1
48714,-89.2857142857143,4,1,0,70,0,1
48881,-90.9090909090909,4,1,0,70,0,1
48964,-92.5925925925926,4,1,0,70,0,1
49048,-94.3396226415094,4,1,0,70,0,1
49131,-96.1538461538461,4,1,0,70,0,1
49214,-98.0392156862745,4,1,0,70,0,1
49381,-100,4,1,0,70,0,1
49464,-102.040816326531,4,1,0,70,0,1
49548,-104.166666666667,4,1,0,70,0,1
49881,-106.382978723404,4,1,0,70,0,1
50048,-107.52688172043,4,1,0,70,0,1
50131,-108.695652173913,4,1,0,70,0,1
50298,-109.89010989011,4,1,0,70,0,1
50381,-111.111111111111,4,1,0,70,0,1
50464,-112.359550561798,4,1,0,70,0,1
50548,-113.636363636364,4,1,0,70,0,1
50881,-71.4285714285714,4,1,0,70,0,1
51131,-83.3333333333333,4,1,0,70,0,1
51298,-76.9230769230769,4,1,0,70,0,1
51631,-95.2380952380952,4,1,0,70,0,1
51798,-97.5609756097561,4,1,0,70,0,1
52214,-76.9230769230769,4,1,0,70,0,1
52298,-78.4313725490196,4,1,0,70,0,1
52381,-80,4,1,0,70,0,1
52464,-81.6326530612245,4,1,0,70,0,1
52548,-83.3333333333333,4,1,0,70,0,1
52631,-85.1063829787234,4,1,0,70,0,1
52714,-86.9565217391304,4,1,0,70,0,1
52798,-88.8888888888889,4,1,0,70,0,1
52881,-90.9090909090909,4,1,0,70,0,1
52964,-93.0232558139535,4,1,0,70,0,1
53048,-95.2380952380952,4,1,0,70,0,1
53131,-97.5609756097561,4,1,0,70,0,1
53214,-100,4,1,0,70,0,1
53548,-83.3333333333333,4,1,0,70,0,1
53714,-84.7457627118644,4,1,0,70,0,1
53798,-86.2068965517241,4,1,0,70,0,1
53881,-87.719298245614,4,1,0,70,0,1
54048,-89.2857142857143,4,1,0,70,0,1
54214,-90.9090909090909,4,1,0,70,0,1
54298,-92.5925925925926,4,1,0,70,0,1
54381,-94.3396226415094,4,1,0,70,0,1
54464,-96.1538461538461,4,1,0,70,0,1
54548,-98.0392156862745,4,1,0,70,0,1
54714,-100,4,1,0,70,0,1
54798,-102.040816326531,4,1,0,70,0,1
54881,-104.166666666667,4,1,0,70,0,1
55214,-106.382978723404,4,1,0,70,0,1
55381,-107.52688172043,4,1,0,70,0,1
55464,-108.695652173913,4,1,0,70,0,1
55631,-109.89010989011,4,1,0,70,0,1
55714,-111.111111111111,4,1,0,70,0,1
55798,-112.359550561798,4,1,0,70,0,1
55881,-113.636363636364,4,1,0,70,0,1
56214,-83.3333333333333,4,1,0,70,0,1
56381,-84.7457627118644,4,1,0,70,0,1
56464,-86.2068965517241,4,1,0,70,0,1
56548,-87.719298245614,4,1,0,70,0,1
56714,-89.2857142857143,4,1,0,70,0,1
56881,-90.9090909090909,4,1,0,70,0,1
56964,-92.5925925925926,4,1,0,70,0,1
57048,-94.3396226415094,4,1,0,70,0,1
57131,-96.1538461538461,4,1,0,70,0,1
57214,-98.0392156862745,4,1,0,70,0,1
57381,-100,4,1,0,70,0,1
57464,-102.040816326531,4,1,0,70,0,1
57548,-104.166666666667,4,1,0,70,0,1
57881,-102.040816326531,4,1,0,70,0,1
58048,-100,4,1,0,70,0,1
58131,-98.0392156862745,4,1,0,70,0,1
58214,-96.1538461538461,4,1,0,70,0,1
58298,-94.3396226415094,4,1,0,70,0,1
58381,-92.5925925925926,4,1,0,70,0,1
58464,-90.9090909090909,4,1,0,70,0,1
58548,-89.2857142857143,4,1,0,70,0,1
58631,-87.719298245614,4,1,0,70,0,1
58714,-86.2068965517241,4,1,0,70,0,1
58881,-83.3333333333333,4,1,0,70,0,1
59048,-84.7457627118644,4,1,0,70,0,1
59131,-86.2068965517241,4,1,0,70,0,1
59214,-87.719298245614,4,1,0,70,0,1
59381,-89.2857142857143,4,1,0,70,0,1
59548,-90.9090909090909,4,1,0,70,0,1
59631,-92.5925925925926,4,1,0,70,0,1
59714,-94.3396226415094,4,1,0,70,0,1
59798,-96.1538461538461,4,1,0,70,0,1
59881,-98.0392156862745,4,1,0,70,0,1
60048,-100,4,1,0,70,0,1
60131,-102.040816326531,4,1,0,70,0,1
60214,-104.166666666667,4,1,0,70,0,1
60548,-106.382978723404,4,1,0,70,0,1
60714,-107.52688172043,4,1,0,70,0,1
60798,-108.695652173913,4,1,0,70,0,1
60964,-109.89010989011,4,1,0,70,0,1
61048,-111.111111111111,4,1,0,70,0,1
61131,-112.359550561798,4,1,0,70,0,1
61214,-113.636363636364,4,1,0,70,0,1
61548,-71.4285714285714,4,1,0,70,0,1
61881,-83.3333333333333,4,1,0,70,0,1
62048,-76.9230769230769,4,1,0,70,0,1
62381,-95.2380952380952,4,1,0,70,0,1
62548,-97.5609756097561,4,1,0,70,0,1
62881,-76.9230769230769,4,1,0,70,0,1
62964,-78.4313725490196,4,1,0,70,0,1
63048,-80,4,1,0,70,0,1
63131,-81.6326530612245,4,1,0,70,0,1
63214,-83.3333333333333,4,1,0,70,0,1
63298,-85.1063829787234,4,1,0,70,0,1
63381,-86.9565217391304,4,1,0,70,0,1
63464,-88.8888888888889,4,1,0,70,0,1
63548,-90.9090909090909,4,1,0,70,0,1
63631,-93.0232558139535,4,1,0,70,0,1
63714,-95.2380952380952,4,1,0,70,0,1
63798,-97.5609756097561,4,1,0,70,0,1
63881,-100,4,1,0,70,0,1
64214,-100,4,1,0,70,0,0
64798,-83.3333333333333,4,1,0,70,0,0
65464,-71.4285714285714,4,1,0,70,0,0
66131,-62.5,4,1,0,70,0,0
66464,-50,4,1,0,70,0,0
66881,-83.3333333333333,4,1,0,70,0,1
67048,-84.7457627118644,4,1,0,70,0,1
67131,-86.2068965517241,4,1,0,70,0,1
67214,-87.719298245614,4,1,0,70,0,1
67381,-89.2857142857143,4,1,0,70,0,1
67548,-90.9090909090909,4,1,0,70,0,1
67631,-92.5925925925926,4,1,0,70,0,1
67714,-94.3396226415094,4,1,0,70,0,1
67798,-96.1538461538461,4,1,0,70,0,1
67881,-98.0392156862745,4,1,0,70,0,1
68048,-100,4,1,0,70,0,1
68131,-102.040816326531,4,1,0,70,0,1
68214,-104.166666666667,4,1,0,70,0,1
68548,-102.040816326531,4,1,0,70,0,1
68714,-100,4,1,0,70,0,1
68798,-98.0392156862745,4,1,0,70,0,1
68881,-96.1538461538461,4,1,0,70,0,1
68964,-94.3396226415094,4,1,0,70,0,1
69048,-92.5925925925926,4,1,0,70,0,1
69131,-90.9090909090909,4,1,0,70,0,1
69214,-89.2857142857143,4,1,0,70,0,1
69298,-87.719298245614,4,1,0,70,0,1
69381,-86.2068965517241,4,1,0,70,0,1
69548,-83.3333333333333,4,1,0,70,0,1
69714,-84.7457627118644,4,1,0,70,0,1
69798,-86.2068965517241,4,1,0,70,0,1
69881,-87.719298245614,4,1,0,70,0,1
70048,-89.2857142857143,4,1,0,70,0,1
70214,-90.9090909090909,4,1,0,70,0,1
70298,-92.5925925925926,4,1,0,70,0,1
70381,-94.3396226415094,4,1,0,70,0,1
70464,-96.1538461538461,4,1,0,70,0,1
70548,-98.0392156862745,4,1,0,70,0,1
70714,-100,4,1,0,70,0,1
70798,-102.040816326531,4,1,0,70,0,1
70881,-104.166666666667,4,1,0,70,0,1
71048,-102.040816326531,4,1,0,70,0,1
71214,-100,4,1,0,70,0,1
71381,-98.0392156862745,4,1,0,70,0,1
71464,-96.1538461538461,4,1,0,70,0,1
71548,-94.3396226415094,4,1,0,70,0,1
71631,-92.5925925925926,4,1,0,70,0,1
71714,-90.9090909090909,4,1,0,70,0,1
71881,-89.2857142857143,4,1,0,70,0,1
72214,-71.4285714285714,4,1,0,70,0,1
72548,-83.3333333333333,4,1,0,70,0,1
72714,-76.9230769230769,4,1,0,70,0,1
73048,-95.2380952380952,4,1,0,70,0,1
73214,-97.5609756097561,4,1,0,70,0,1
73548,-76.9230769230769,4,1,0,70,0,1
73631,-78.4313725490196,4,1,0,70,0,1
73714,-80,4,1,0,70,0,1
73798,-81.6326530612245,4,1,0,70,0,1
73881,-83.3333333333333,4,1,0,70,0,1
73964,-85.1063829787234,4,1,0,70,0,1
74048,-86.9565217391304,4,1,0,70,0,1
74131,-88.8888888888889,4,1,0,70,0,1
74214,-90.9090909090909,4,1,0,70,0,1
74298,-93.0232558139535,4,1,0,70,0,1
74381,-95.2380952380952,4,1,0,70,0,1
74464,-97.5609756097561,4,1,0,70,0,1
74548,-100,4,1,0,70,0,1
74881,-83.3333333333333,4,1,0,70,0,1
75048,-84.7457627118644,4,1,0,70,0,1
75131,-86.2068965517241,4,1,0,70,0,1
75214,-87.719298245614,4,1,0,70,0,1
75381,-89.2857142857143,4,1,0,70,0,1
75548,-90.9090909090909,4,1,0,70,0,1
75631,-92.5925925925926,4,1,0,70,0,1
75714,-94.3396226415094,4,1,0,70,0,1
75798,-96.1538461538461,4,1,0,70,0,1
75881,-98.0392156862745,4,1,0,70,0,1
76048,-100,4,1,0,70,0,1
76131,-102.040816326531,4,1,0,70,0,1
76214,-104.166666666667,4,1,0,70,0,1
76381,-102.040816326531,4,1,0,70,0,1
76548,-100,4,1,0,70,0,1
76714,-98.0392156862745,4,1,0,70,0,1
76798,-96.1538461538461,4,1,0,70,0,1
76881,-94.3396226415094,4,1,0,70,0,1
76964,-92.5925925925926,4,1,0,70,0,1
77048,-90.9090909090909,4,1,0,70,0,1
77214,-89.2857142857143,4,1,0,70,0,1
77548,-83.3333333333333,4,1,0,70,0,1
77714,-84.7457627118644,4,1,0,70,0,1
77798,-86.2068965517241,4,1,0,70,0,1
77881,-87.719298245614,4,1,0,70,0,1
78048,-89.2857142857143,4,1,0,70,0,1
78214,-90.9090909090909,4,1,0,70,0,1
78298,-92.5925925925926,4,1,0,70,0,1
78381,-94.3396226415094,4,1,0,70,0,1
78464,-96.1538461538461,4,1,0,70,0,1
78548,-98.0392156862745,4,1,0,70,0,1
78714,-100,4,1,0,70,0,1
78798,-102.040816326531,4,1,0,70,0,1
78881,-104.166666666667,4,1,0,70,0,1
79214,-102.040816326531,4,1,0,70,0,1
79381,-100,4,1,0,70,0,1
79464,-98.0392156862745,4,1,0,70,0,1
79548,-96.1538461538461,4,1,0,70,0,1
79631,-94.3396226415094,4,1,0,70,0,1
79714,-92.5925925925926,4,1,0,70,0,1
79798,-90.9090909090909,4,1,0,70,0,1
79881,-89.2857142857143,4,1,0,70,0,1
79964,-87.719298245614,4,1,0,70,0,1
80048,-86.2068965517241,4,1,0,70,0,1
80214,-83.3333333333333,4,1,0,70,0,1
80381,-84.7457627118644,4,1,0,70,0,1
80464,-86.2068965517241,4,1,0,70,0,1
80548,-87.719298245614,4,1,0,70,0,1
80714,-89.2857142857143,4,1,0,70,0,1
80881,-90.9090909090909,4,1,0,70,0,1
80964,-92.5925925925926,4,1,0,70,0,1
81048,-94.3396226415094,4,1,0,70,0,1
81131,-96.1538461538461,4,1,0,70,0,1
81214,-98.0392156862745,4,1,0,70,0,1
81381,-100,4,1,0,70,0,1
81464,-102.040816326531,4,1,0,70,0,1
81548,-104.166666666667,4,1,0,70,0,1
81714,-102.040816326531,4,1,0,70,0,1
81881,-100,4,1,0,70,0,1
82048,-98.0392156862745,4,1,0,70,0,1
82131,-96.1538461538461,4,1,0,70,0,1
82214,-94.3396226415094,4,1,0,70,0,1
82298,-92.5925925925926,4,1,0,70,0,1
82381,-90.9090909090909,4,1,0,70,0,1
82548,-89.2857142857143,4,1,0,70,0,1
82881,-71.4285714285714,4,1,0,70,0,1
83214,-83.3333333333333,4,1,0,70,0,1
83381,-76.9230769230769,4,1,0,70,0,1
83714,-95.2380952380952,4,1,0,70,0,1
83881,-97.5609756097561,4,1,0,70,0,1
84214,-76.9230769230769,4,1,0,70,0,1
84298,-78.4313725490196,4,1,0,70,0,1
84381,-80,4,1,0,70,0,1
84464,-81.6326530612245,4,1,0,70,0,1
84548,-83.3333333333333,4,1,0,70,0,1
84631,-85.1063829787234,4,1,0,70,0,1
84714,-86.9565217391304,4,1,0,70,0,1
84798,-88.8888888888889,4,1,0,70,0,1
84881,-90.9090909090909,4,1,0,70,0,1
84964,-93.0232558139535,4,1,0,70,0,1
85048,-95.2380952380952,4,1,0,70,0,1
85131,-97.5609756097561,4,1,0,70,0,1
85214,-100,4,1,0,70,0,1
85548,-111.111111111111,4,1,0,70,0,0
86881,-108.695652173913,4,1,0,70,0,0
87048,-106.382978723404,4,1,0,70,0,0
87214,-104.166666666667,4,1,0,70,0,0
87381,-102.040816326531,4,1,0,70,0,0
87464,-100,4,1,0,70,0,0
87631,-97.5609756097561,4,1,0,70,0,0
87714,-95.2380952380954,4,1,0,70,0,0
87798,-93.0232558139535,4,1,0,70,0,0
87881,-71.4285714285714,4,1,0,70,0,0
88214,-100,4,1,0,70,0,0
90298,-97.5609756097561,4,1,0,70,0,0
90381,-95.2380952380952,4,1,0,70,0,0
90464,-93.0232558139535,4,1,0,70,0,0
90548,-90.9090909090909,4,1,0,70,0,0
90631,-88.8888888888889,4,1,0,70,0,0
90714,-86.9565217391304,4,1,0,70,0,0
90798,-85.1063829787234,4,1,0,70,0,0
90881,-83.3333333333333,4,1,0,70,0,0
94798,-75.7575757575758,4,1,0,70,0,0
94881,-76.9230769230769,4,1,0,70,0,0
94964,-78.125,4,1,0,70,0,0
95048,-79.3650793650794,4,1,0,70,0,0
95131,-80.6451612903226,4,1,0,70,0,0
95214,-81.9672131147541,4,1,0,70,0,0
95298,-83.3333333333333,4,1,0,70,0,0
95381,-84.7457627118644,4,1,0,70,0,0
95464,-86.2068965517241,4,1,0,70,0,0
95548,-87.719298245614,4,1,0,70,0,0
95631,-89.2857142857143,4,1,0,70,0,0
95714,-90.9090909090909,4,1,0,70,0,0
95798,-92.5925925925926,4,1,0,70,0,0
95881,-94.3396226415094,4,1,0,70,0,0
96048,-96.1538461538461,4,1,0,70,0,0
96131,-98.0392156862745,4,1,0,70,0,0
96214,-100,4,1,0,70,0,0
100964,-97.5609756097561,4,1,0,70,0,0
101048,-95.2380952380952,4,1,0,70,0,0
101131,-93.0232558139535,4,1,0,70,0,0
101214,-90.9090909090909,4,1,0,70,0,0
101298,-88.8888888888889,4,1,0,70,0,0
101381,-86.9565217391304,4,1,0,70,0,0
101464,-85.1063829787234,4,1,0,70,0,0
101548,-83.3333333333333,4,1,0,70,0,0
105464,-74.0740740740741,4,1,0,70,0,0
105548,-75.4716981132076,4,1,0,70,0,0
105631,-76.9230769230769,4,1,0,70,0,0
105714,-78.4313725490196,4,1,0,70,0,0
105798,-80,4,1,0,70,0,0
105881,-81.6326530612245,4,1,0,70,0,0
105964,-83.3333333333333,4,1,0,70,0,0
106048,-85.1063829787234,4,1,0,70,0,0
106131,-86.9565217391304,4,1,0,70,0,0
106214,-88.8888888888889,4,1,0,70,0,0
106298,-90.9090909090909,4,1,0,70,0,0
106381,-93.0232558139535,4,1,0,70,0,0
106464,-95.2380952380952,4,1,0,70,0,0
106548,-97.5609756097561,4,1,0,70,0,0
106881,-90.9090909090909,4,1,0,70,0,0
111631,-88.8888888888889,4,1,0,70,0,0
111714,-86.9565217391304,4,1,0,70,0,0
111798,-85.1063829787234,4,1,0,70,0,0
111881,-83.3333333333333,4,1,0,70,0,0
111964,-81.6326530612245,4,1,0,70,0,0
112048,-80,4,1,0,70,0,0
112131,-78.4313725490196,4,1,0,70,0,0
112214,-76.9230769230769,4,1,0,70,0,0
116048,-69.4444444444444,4,1,0,70,0,0
116131,-70.4225352112676,4,1,0,70,0,0
116214,-71.4285714285714,4,1,0,70,0,0
116298,-72.463768115942,4,1,0,70,0,0
116381,-73.5294117647059,4,1,0,70,0,0
116464,-74.6268656716418,4,1,0,70,0,0
116548,-75.7575757575758,4,1,0,70,0,0
116631,-76.9230769230769,4,1,0,70,0,0
116714,-78.125,4,1,0,70,0,0
116798,-79.3650793650794,4,1,0,70,0,0
116881,-80.6451612903226,4,1,0,70,0,0
116964,-81.9672131147541,4,1,0,70,0,0
117048,-83.3333333333333,4,1,0,70,0,0
117131,-84.7457627118644,4,1,0,70,0,0
117214,-86.2068965517241,4,1,0,70,0,0
117381,-87.719298245614,4,1,0,70,0,0
117464,-89.2857142857143,4,1,0,70,0,0
117548,-90.9090909090909,4,1,0,70,0,0
122298,-88.8888888888889,4,1,0,70,0,0
122381,-86.9565217391304,4,1,0,70,0,0
122464,-85.1063829787234,4,1,0,70,0,0
122548,-83.3333333333333,4,1,0,70,0,0
122631,-81.6326530612245,4,1,0,70,0,0
122714,-80,4,1,0,70,0,0
122798,-78.4313725490196,4,1,0,70,0,0
122881,-76.9230769230769,4,1,0,70,0,0
126714,-74.0740740740741,4,1,0,70,0,0
126798,-75.4716981132076,4,1,0,70,0,0
126881,-76.9230769230769,4,1,0,70,0,0
126964,-78.4313725490196,4,1,0,70,0,0
127048,-80,4,1,0,70,0,0
127131,-81.6326530612245,4,1,0,70,0,0
127214,-83.3333333333333,4,1,0,70,0,0
127298,-85.1063829787234,4,1,0,70,0,0
127381,-86.9565217391304,4,1,0,70,0,0
127464,-88.8888888888889,4,1,0,70,0,0
127548,-90.9090909090909,4,1,0,70,0,0
127631,-93.0232558139535,4,1,0,70,0,0
127714,-95.2380952380952,4,1,0,70,0,0
127798,-97.5609756097561,4,1,0,70,0,0
127881,-100,4,1,0,70,0,0
128214,-62.5,4,1,0,70,0,0
129381,-111.111111111111,4,1,0,70,0,0
149548,-125,4,1,0,70,0,0
150548,-121.212121212121,4,1,0,70,0,0
150881,-117.647058823529,4,1,0,70,0,0
151881,-114.285714285714,4,1,0,70,0,0
152214,-111.111111111111,4,1,0,70,0,0
153214,-108.108108108108,4,1,0,70,0,0
153548,-105.263157894737,4,1,0,70,0,0
154548,-102.564102564103,4,1,0,70,0,0
154881,-100,4,1,0,70,0,0
155048,-98.0392156862745,4,1,0,70,0,0
155214,-96.1538461538461,4,1,0,70,0,0
155381,-96.1538461538461,4,1,0,70,0,0
155548,-94.3396226415094,4,1,0,70,0,0
155714,-92.5925925925926,4,1,0,70,0,0
155881,-90.9090909090909,4,1,0,70,0,0
156048,-89.2857142857143,4,1,0,70,0,0
156214,-87.719298245614,4,1,0,70,0,0
156381,-86.2068965517241,4,1,0,70,0,0
156548,-84.7457627118644,4,1,0,70,0,0
156714,-83.3333333333333,4,1,0,70,0,0
156881,-81.9672131147541,4,1,0,70,0,0
157048,-80.6451612903226,4,1,0,70,0,0
157214,-79.3650793650794,4,1,0,70,0,0
157381,-78.125,4,1,0,70,0,0
157548,-76.9230769230769,4,1,0,70,0,0
157631,-78.125,4,1,0,70,0,0
157714,-79.3650793650794,4,1,0,70,0,0
157798,-80.6451612903226,4,1,0,70,0,0
157881,-81.9672131147541,4,1,0,70,0,0
157964,-83.3333333333333,4,1,0,70,0,0
158048,-84.7457627118644,4,1,0,70,0,0
158131,-86.2068965517241,4,1,0,70,0,0
158214,-87.719298245614,4,1,0,70,0,0
158298,-89.2857142857143,4,1,0,70,0,0
158381,-90.9090909090909,4,1,0,70,0,0
158464,-92.5925925925926,4,1,0,70,0,0
158548,-94.3396226415094,4,1,0,70,0,0
158631,-96.1538461538461,4,1,0,70,0,0
158714,-98.0392156862745,4,1,0,70,0,0
158798,-100,4,1,0,70,0,0
158881,-102.040816326531,4,1,0,70,0,0
159881,-71.4285714285714,4,1,0,70,0,0
160214,-125,4,1,0,60,0,0
164881,-117.647058823529,4,1,0,60,0,0
165548,-121.212121212121,4,1,0,60,0,0
165714,-125,4,1,0,60,0,0
169548,-90.9090909090909,4,1,0,70,0,0
170548,-95.2380952380952,4,1,0,70,0,0
170631,-100,4,1,0,70,0,0
170714,-105.263157894737,4,1,0,70,0,0
170881,-111.111111111111,4,1,0,70,0,0
171048,-117.64705882353,4,1,0,70,0,0
171214,-125,4,1,0,60,0,0
175548,-117.647058823529,4,1,0,60,0,0
176214,-121.212121212121,4,1,0,60,0,0
176381,-125,4,1,0,60,0,0
180131,-83.3333333333333,4,1,0,70,0,0
181214,-71.4285714285714,4,1,0,70,0,0
181548,-100,4,1,0,70,0,1
181714,-97.5609756097561,4,1,0,70,0,1
181798,-95.2380952380952,4,1,0,70,0,1
181881,-93.0232558139535,4,1,0,70,0,1
182048,-90.9090909090909,4,1,0,70,0,1
182131,-88.8888888888889,4,1,0,70,0,1
182214,-86.9565217391304,4,1,0,70,0,1
182298,-85.1063829787234,4,1,0,70,0,1
182464,-83.3333333333333,4,1,0,70,0,1
182548,-84.7457627118644,4,1,0,70,0,1
182631,-86.2068965517241,4,1,0,70,0,1
182714,-87.719298245614,4,1,0,70,0,1
182798,-89.2857142857143,4,1,0,70,0,1
182881,-90.9090909090909,4,1,0,70,0,1
183048,-87.719298245614,4,1,0,70,0,1
183131,-89.2857142857143,4,1,0,70,0,1
183214,-90.9090909090909,4,1,0,70,0,1
183298,-92.5925925925926,4,1,0,70,0,1
183381,-94.3396226415094,4,1,0,70,0,1
183464,-96.1538461538461,4,1,0,70,0,1
183548,-98.0392156862745,4,1,0,70,0,1
183714,-92.5925925925926,4,1,0,70,0,1
183881,-94.3396226415094,4,1,0,70,0,1
183964,-96.1538461538461,4,1,0,70,0,1
184048,-98.0392156862745,4,1,0,70,0,1
184214,-100,4,1,0,70,0,1
184381,-97.5609756097561,4,1,0,70,0,1
184464,-95.2380952380952,4,1,0,70,0,1
184548,-93.0232558139535,4,1,0,70,0,1
184714,-90.9090909090909,4,1,0,70,0,1
184798,-88.8888888888889,4,1,0,70,0,1
184881,-86.9565217391304,4,1,0,70,0,1
184964,-85.1063829787234,4,1,0,70,0,1
185131,-83.3333333333333,4,1,0,70,0,1
185214,-84.7457627118644,4,1,0,70,0,1
185298,-86.2068965517241,4,1,0,70,0,1
185381,-87.719298245614,4,1,0,70,0,1
185464,-89.2857142857143,4,1,0,70,0,1
185548,-90.9090909090909,4,1,0,70,0,1
185714,-92.5925925925926,4,1,0,70,0,1
185798,-94.3396226415094,4,1,0,70,0,1
185881,-96.1538461538461,4,1,0,70,0,1
185964,-98.0392156862745,4,1,0,70,0,1
186048,-100,4,1,0,70,0,1
186214,-98.0392156862745,4,1,0,70,0,1
186381,-86.9565217391304,4,1,0,70,0,1
186423,-88.4955752212389,4,1,0,70,0,1
186548,-90.9090909090909,4,1,0,70,0,1
186589,-92.5925925925926,4,1,0,70,0,1
186714,-95.2380952380952,4,1,0,70,0,1
186756,-97.0873786407767,4,1,0,70,0,1
186881,-100,4,1,0,70,0,1
187048,-97.5609756097561,4,1,0,70,0,1
187131,-95.2380952380952,4,1,0,70,0,1
187214,-93.0232558139535,4,1,0,70,0,1
187381,-90.9090909090909,4,1,0,70,0,1
187464,-88.8888888888889,4,1,0,70,0,1
187548,-86.9565217391304,4,1,0,70,0,1
187631,-85.1063829787234,4,1,0,70,0,1
187798,-83.3333333333333,4,1,0,70,0,1
187881,-84.7457627118644,4,1,0,70,0,1
187964,-86.2068965517241,4,1,0,70,0,1
188131,-87.719298245614,4,1,0,70,0,1
188214,-89.2857142857143,4,1,0,70,0,1
188381,-90.9090909090909,4,1,0,70,0,1
188464,-92.5925925925926,4,1,0,70,0,1
188548,-94.3396226415094,4,1,0,70,0,1
188631,-96.1538461538461,4,1,0,70,0,1
188714,-98.0392156862745,4,1,0,70,0,1
188881,-100,4,1,0,70,0,1
188964,-98.0392156862745,4,1,0,70,0,1
189048,-96.1538461538461,4,1,0,70,0,1
189214,-94.3396226415094,4,1,0,70,0,1
189381,-90.9090909090909,4,1,0,70,0,1
189548,-76.9230769230769,4,1,0,70,0,1
189714,-78.4313725490196,4,1,0,70,0,1
189798,-80,4,1,0,70,0,1
189881,-81.6326530612245,4,1,0,70,0,1
190048,-83.3333333333333,4,1,0,70,0,1
190214,-85.1063829787234,4,1,0,70,0,1
190298,-86.9565217391304,4,1,0,70,0,1
190381,-88.8888888888889,4,1,0,70,0,1
190548,-90.9090909090909,4,1,0,70,0,1
190631,-93.0232558139535,4,1,0,70,0,1
190714,-95.2380952380952,4,1,0,70,0,1
190881,-83.3333333333333,4,1,0,70,0,1
191048,-86.9565217391304,4,1,0,70,0,1
191381,-90.9090909090909,4,1,0,70,0,1
191881,-95.2380952380952,4,1,0,70,0,1
192214,-100,4,1,0,70,0,1
192381,-97.5609756097561,4,1,0,70,0,1
192464,-95.2380952380952,4,1,0,70,0,1
192548,-93.0232558139535,4,1,0,70,0,1
192714,-90.9090909090909,4,1,0,70,0,1
192798,-88.8888888888889,4,1,0,70,0,1
192881,-86.9565217391304,4,1,0,70,0,1
192964,-85.1063829787234,4,1,0,70,0,1
193131,-83.3333333333333,4,1,0,70,0,1
193214,-84.7457627118644,4,1,0,70,0,1
193297,-86.2068965517241,4,1,0,70,0,1
193381,-87.719298245614,4,1,0,70,0,1
193464,-89.2857142857143,4,1,0,70,0,1
193548,-90.9090909090909,4,1,0,70,0,1
193714,-87.719298245614,4,1,0,70,0,1
193798,-89.2857142857143,4,1,0,70,0,1
193881,-90.9090909090909,4,1,0,70,0,1
193964,-92.5925925925926,4,1,0,70,0,1
194048,-94.3396226415094,4,1,0,70,0,1
194131,-96.1538461538461,4,1,0,70,0,1
194214,-98.0392156862745,4,1,0,70,0,1
194381,-92.5925925925926,4,1,0,70,0,1
194548,-94.3396226415094,4,1,0,70,0,1
194631,-96.1538461538461,4,1,0,70,0,1
194714,-98.0392156862745,4,1,0,70,0,1
194881,-100,4,1,0,70,0,1
195048,-97.5609756097561,4,1,0,70,0,1
195131,-95.2380952380952,4,1,0,70,0,1
195214,-93.0232558139535,4,1,0,70,0,1
195381,-90.9090909090909,4,1,0,70,0,1
195464,-88.8888888888889,4,1,0,70,0,1
195548,-86.9565217391304,4,1,0,70,0,1
195631,-85.1063829787234,4,1,0,70,0,1
195798,-83.3333333333333,4,1,0,70,0,1
195881,-84.7457627118644,4,1,0,70,0,1
195964,-86.2068965517241,4,1,0,70,0,1
196048,-87.719298245614,4,1,0,70,0,1
196131,-89.2857142857143,4,1,0,70,0,1
196214,-90.9090909090909,4,1,0,70,0,1
196381,-92.5925925925926,4,1,0,70,0,1
196464,-94.3396226415094,4,1,0,70,0,1
196548,-96.1538461538461,4,1,0,70,0,1
196631,-98.0392156862745,4,1,0,70,0,1
196714,-100,4,1,0,70,0,1
196881,-98.0392156862745,4,1,0,70,0,1
197048,-86.9565217391304,4,1,0,70,0,1
197089,-88.4955752212389,4,1,0,70,0,1
197214,-90.9090909090909,4,1,0,70,0,1
197256,-92.5925925925926,4,1,0,70,0,1
197381,-95.2380952380952,4,1,0,70,0,1
197423,-97.0873786407767,4,1,0,70,0,1
197548,-100,4,1,0,70,0,1
197714,-97.5609756097561,4,1,0,70,0,1
197798,-95.2380952380952,4,1,0,70,0,1
197881,-93.0232558139535,4,1,0,70,0,1
198048,-90.9090909090909,4,1,0,70,0,1
198131,-88.8888888888889,4,1,0,70,0,1
198214,-86.9565217391304,4,1,0,70,0,1
198298,-85.1063829787234,4,1,0,70,0,1
198464,-83.3333333333333,4,1,0,70,0,1
198548,-84.7457627118644,4,1,0,70,0,1
198631,-86.2068965517241,4,1,0,70,0,1
198798,-87.719298245614,4,1,0,70,0,1
198881,-89.2857142857143,4,1,0,70,0,1
199048,-90.9090909090909,4,1,0,70,0,1
199131,-92.5925925925926,4,1,0,70,0,1
199214,-94.3396226415094,4,1,0,70,0,1
199298,-96.1538461538461,4,1,0,70,0,1
199381,-98.0392156862745,4,1,0,70,0,1
199548,-100,4,1,0,70,0,1
199631,-98.0392156862745,4,1,0,70,0,1
199714,-96.1538461538461,4,1,0,70,0,1
199881,-94.3396226415094,4,1,0,70,0,1
200048,-90.9090909090909,4,1,0,70,0,1
200214,-76.9230769230769,4,1,0,70,0,1
200381,-78.4313725490196,4,1,0,70,0,1
200464,-80,4,1,0,70,0,1
200548,-81.6326530612245,4,1,0,70,0,1
200714,-83.3333333333333,4,1,0,70,0,1
200881,-85.1063829787234,4,1,0,70,0,1
200964,-86.9565217391304,4,1,0,70,0,1
201048,-88.8888888888889,4,1,0,70,0,1
201214,-90.9090909090909,4,1,0,70,0,1
201298,-93.0232558139535,4,1,0,70,0,1
201381,-95.2380952380952,4,1,0,70,0,1
201548,-80,4,1,0,70,0,1
202881,-100,4,1,0,70,0,0
207631,-97.5609756097561,4,1,0,70,0,0
207714,-95.2380952380952,4,1,0,70,0,0
207798,-93.0232558139535,4,1,0,70,0,0
207881,-90.9090909090909,4,1,0,70,0,0
207964,-88.8888888888889,4,1,0,70,0,0
208048,-86.9565217391304,4,1,0,70,0,0
208131,-85.1063829787234,4,1,0,70,0,0
208214,-83.3333333333333,4,1,0,70,0,0
212964,-85.1063829787234,4,1,0,70,0,0
213048,-86.9565217391304,4,1,0,70,0,0
213131,-88.8888888888889,4,1,0,70,0,0
213214,-90.9090909090909,4,1,0,70,0,0
213298,-93.0232558139535,4,1,0,70,0,0
213381,-95.2380952380952,4,1,0,70,0,0
213464,-97.5609756097561,4,1,0,70,0,0
213548,-100,4,1,0,70,0,0
218298,-97.5609756097561,4,1,0,70,0,0
218381,-95.2380952380952,4,1,0,70,0,0
218464,-93.0232558139535,4,1,0,70,0,0
218548,-90.9090909090909,4,1,0,70,0,0
218631,-88.8888888888889,4,1,0,70,0,0
218714,-86.9565217391304,4,1,0,70,0,0
218798,-85.1063829787234,4,1,0,70,0,0
218881,-83.3333333333333,4,1,0,70,0,0
222714,-90.9090909090909,4,1,0,70,0,0
222798,-95.2380952380952,4,1,0,70,0,0
222881,-99.9999999999999,4,1,0,70,0,0
224048,-95.2380952380952,4,1,0,70,0,0
224214,-90.9090909090909,4,1,0,60,0,1
228881,-89.6860986547085,4,1,0,60,0,1
228964,-88.8888888888889,4,1,0,60,0,1
229048,-86.9565217391304,4,1,0,60,0,1
229131,-85.1063829787234,4,1,0,60,0,1
229214,-83.3333333333333,4,1,0,60,0,1
229298,-81.6326530612245,4,1,0,60,0,1
229381,-80,4,1,0,60,0,1
229464,-78.4313725490196,4,1,0,60,0,1
229548,-76.9230769230769,4,1,0,60,0,1
234298,-78.4313725490196,4,1,0,60,0,1
234381,-80,4,1,0,60,0,1
234464,-81.6326530612245,4,1,0,60,0,1
234548,-83.3333333333333,4,1,0,60,0,1
234631,-85.1063829787234,4,1,0,60,0,1
234714,-86.9565217391304,4,1,0,60,0,1
234798,-88.8888888888889,4,1,0,60,0,1
234881,-90.9090909090909,4,1,0,60,0,1
239548,-89.6860986547085,4,1,0,60,0,1
239631,-88.8888888888889,4,1,0,60,0,1
239714,-86.9565217391304,4,1,0,60,0,1
239798,-85.1063829787234,4,1,0,60,0,1
239881,-83.3333333333333,4,1,0,60,0,1
239964,-81.6326530612245,4,1,0,60,0,1
240048,-80,4,1,0,60,0,1
240131,-78.4313725490196,4,1,0,60,0,1
240214,-76.9230769230769,4,1,0,60,0,1
245131,-68.9655172413793,4,1,0,60,0,1
245548,-60.6060606060606,4,1,0,70,0,0
245631,-111.111111111111,4,1,0,70,0,0
266881,-125,4,1,0,70,0,0
267881,-121.212121212121,4,1,0,70,0,0
268214,-117.647058823529,4,1,0,70,0,0
269214,-114.285714285714,4,1,0,70,0,0
269548,-111.111111111111,4,1,0,70,0,0
270548,-108.108108108108,4,1,0,70,0,0
270881,-105.263157894737,4,1,0,70,0,0
271881,-102.564102564103,4,1,0,70,0,0
272214,-99.9999999999999,4,1,0,70,0,0
272381,-98.0392156862745,4,1,0,70,0,0
272548,-96.1538461538461,4,1,0,70,0,0
272714,-94.3396226415094,4,1,0,70,0,0
272881,-92.5925925925926,4,1,0,70,0,0
273048,-90.9090909090908,4,1,0,70,0,0
273214,-89.2857142857143,4,1,0,70,0,0
273381,-87.719298245614,4,1,0,70,0,0
273548,-86.2068965517241,4,1,0,70,0,0
273714,-84.7457627118644,4,1,0,70,0,0
273881,-83.3333333333333,4,1,0,70,0,0
274048,-81.9672131147541,4,1,0,70,0,0
274214,-80.6451612903226,4,1,0,70,0,0
274381,-79.3650793650794,4,1,0,70,0,0
274548,-78.125,4,1,0,70,0,0
274714,-76.9230769230769,4,1,0,70,0,0
274881,-78.125,4,1,0,70,0,0
274964,-79.3650793650794,4,1,0,70,0,0
275048,-80.6451612903226,4,1,0,70,0,0
275131,-81.9672131147541,4,1,0,70,0,0
275214,-83.3333333333333,4,1,0,70,0,0
275298,-84.7457627118644,4,1,0,70,0,0
275381,-86.2068965517241,4,1,0,70,0,0
275464,-87.719298245614,4,1,0,70,0,0
275548,-89.2857142857143,4,1,0,70,0,0
275631,-90.9090909090908,4,1,0,70,0,0
275714,-92.5925925925926,4,1,0,70,0,0
275798,-94.3396226415094,4,1,0,70,0,0
275881,-96.1538461538461,4,1,0,70,0,0
275964,-98.0392156862745,4,1,0,70,0,0
276048,-99.9999999999999,4,1,0,70,0,0
276131,-102.040816326531,4,1,0,70,0,0
276214,-104.166666666667,4,1,0,70,0,0
277214,-83.3333333333333,4,1,0,70,0,0
277548,-100,4,1,0,70,0,0
277631,-100,4,1,0,40,0,0
278631,-100,4,1,0,40,0,0
280131,-100,4,1,0,40,0,0
281298,-100,4,1,0,40,0,0
282798,-100,4,1,0,40,0,0
283964,-100,4,1,0,40,0,0
285464,-100,4,1,0,40,0,0
286631,-100,4,1,0,40,0,0
287464,-100,4,1,0,40,0,0
287798,-100,4,1,0,40,0,0
288131,-100,4,1,0,40,0,0
289298,-100,4,1,0,40,0,0
290798,-100,4,1,0,40,0,0
291964,-100,4,1,0,40,0,0
293464,-100,4,1,0,40,0,0
294631,-100,4,1,0,40,0,0
296131,-100,4,1,0,40,0,0
297298,-100,4,1,0,40,0,0
298464,-100,4,1,0,70,0,0
298881,-100,4,1,0,70,0,0
299548,-100,4,1,0,70,0,0
300214,-100,4,1,0,70,0,0
300881,-100,4,1,0,70,0,0
301214,-100,4,1,0,70,0,0
301548,-100,4,1,0,70,0,1
301714,-100,4,1,0,70,0,1
301798,-100,4,1,0,70,0,1
301881,-100,4,1,0,70,0,1
302048,-100,4,1,0,70,0,1
302214,-100,4,1,0,70,0,1
302298,-100,4,1,0,70,0,1
302381,-100,4,1,0,70,0,1
302464,-100,4,1,0,70,0,1
302548,-100,4,1,0,70,0,1
302714,-100,4,1,0,70,0,1
302798,-100,4,1,0,70,0,1
302881,-100,4,1,0,70,0,1
303214,-100,4,1,0,70,0,1
303381,-100,4,1,0,70,0,1
303464,-100,4,1,0,70,0,1
303548,-100,4,1,0,70,0,1
303631,-100,4,1,0,70,0,1
303714,-100,4,1,0,70,0,1
303798,-100,4,1,0,70,0,1
303881,-100,4,1,0,70,0,1
303964,-100,4,1,0,70,0,1
304048,-100,4,1,0,70,0,1
304214,-100,4,1,0,70,0,1
304381,-100,4,1,0,70,0,1
304464,-100,4,1,0,70,0,1
304548,-100,4,1,0,70,0,1
304631,-100,4,1,0,70,0,1
304798,-100,4,1,0,70,0,1
304881,-100,4,1,0,70,0,1
304964,-100,4,1,0,70,0,1
305048,-100,4,1,0,70,0,1
305131,-100,4,1,0,70,0,1
305214,-100,4,1,0,70,0,1
305381,-100,4,1,0,70,0,1
305464,-100,4,1,0,70,0,1
305548,-100,4,1,0,70,0,1
305881,-100,4,1,0,70,0,1
306048,-100,4,1,0,70,0,1
306131,-100,4,1,0,70,0,1
306298,-100,4,1,0,70,0,1
306381,-100,4,1,0,70,0,1
306464,-100,4,1,0,70,0,1
306548,-100,4,1,0,70,0,1
306881,-100,4,1,0,70,0,1
307214,-100,4,1,0,70,0,1
307381,-100,4,1,0,70,0,1
307714,-100,4,1,0,70,0,1
307881,-100,4,1,0,70,0,1
308214,-100,4,1,0,70,0,1
308298,-100,4,1,0,70,0,1
308381,-100,4,1,0,70,0,1
308464,-100,4,1,0,70,0,1
308548,-100,4,1,0,70,0,1
308631,-100,4,1,0,70,0,1
308714,-100,4,1,0,70,0,1
308798,-100,4,1,0,70,0,1
308881,-100,4,1,0,70,0,1
308964,-100,4,1,0,70,0,1
309048,-100,4,1,0,70,0,1
309131,-100,4,1,0,70,0,1
309214,-100,4,1,0,70,0,1
309548,-100,4,1,0,70,0,1
309714,-100,4,1,0,70,0,1
309798,-100,4,1,0,70,0,1
309881,-100,4,1,0,70,0,1
310048,-100,4,1,0,70,0,1
310214,-100,4,1,0,70,0,1
310298,-100,4,1,0,70,0,1
310381,-100,4,1,0,70,0,1
310464,-100,4,1,0,70,0,1
310548,-100,4,1,0,70,0,1
310714,-100,4,1,0,70,0,1
310798,-100,4,1,0,70,0,1
310881,-100,4,1,0,70,0,1
311214,-100,4,1,0,70,0,1
311381,-100,4,1,0,70,0,1
311464,-100,4,1,0,70,0,1
311631,-100,4,1,0,70,0,1
311714,-100,4,1,0,70,0,1
311798,-100,4,1,0,70,0,1
311881,-100,4,1,0,70,0,1
312214,-100,4,1,0,70,0,1
312381,-100,4,1,0,70,0,1
312464,-100,4,1,0,70,0,1
312548,-100,4,1,0,70,0,1
312714,-100,4,1,0,70,0,1
312881,-100,4,1,0,70,0,1
312964,-100,4,1,0,70,0,1
313048,-100,4,1,0,70,0,1
313131,-100,4,1,0,70,0,1
313214,-100,4,1,0,70,0,1
313381,-100,4,1,0,70,0,1
313464,-100,4,1,0,70,0,1
313548,-100,4,1,0,70,0,1
313881,-100,4,1,0,70,0,1
314048,-100,4,1,0,70,0,1
314131,-100,4,1,0,70,0,1
314214,-100,4,1,0,70,0,1
314298,-100,4,1,0,70,0,1
314381,-100,4,1,0,70,0,1
314464,-100,4,1,0,70,0,1
314548,-100,4,1,0,70,0,1
314631,-100,4,1,0,70,0,1
314714,-100,4,1,0,70,0,1
314881,-100,4,1,0,70,0,1
315048,-100,4,1,0,70,0,1
315131,-100,4,1,0,70,0,1
315214,-100,4,1,0,70,0,1
315381,-100,4,1,0,70,0,1
315548,-100,4,1,0,70,0,1
315631,-100,4,1,0,70,0,1
315714,-100,4,1,0,70,0,1
315798,-100,4,1,0,70,0,1
315881,-100,4,1,0,70,0,1
316048,-100,4,1,0,70,0,1
316131,-100,4,1,0,70,0,1
316214,-100,4,1,0,70,0,1
316548,-100,4,1,0,70,0,1
316714,-100,4,1,0,70,0,1
316798,-100,4,1,0,70,0,1
316964,-100,4,1,0,70,0,1
317048,-100,4,1,0,70,0,1
317131,-100,4,1,0,70,0,1
317214,-100,4,1,0,70,0,1
317548,-100,4,1,0,70,0,1
317881,-100,4,1,0,70,0,1
318048,-100,4,1,0,70,0,1
318381,-100,4,1,0,70,0,1
318548,-100,4,1,0,70,0,1
318881,-100,4,1,0,70,0,1
318964,-100,4,1,0,70,0,1
319048,-100,4,1,0,70,0,1
319131,-100,4,1,0,70,0,1
319214,-100,4,1,0,70,0,1
319298,-100,4,1,0,70,0,1
319381,-100,4,1,0,70,0,1
319464,-100,4,1,0,70,0,1
319548,-100,4,1,0,70,0,1
319631,-100,4,1,0,70,0,1
319714,-100,4,1,0,70,0,1
319798,-100,4,1,0,70,0,1
319881,-100,4,1,0,70,0,1
320214,-100,4,1,0,70,0,0
320881,-100,4,1,0,70,0,0
321548,-100,4,1,0,70,0,0
322214,-100,4,1,0,70,0,0
322548,-100,4,1,0,70,0,0
322881,-100,4,1,0,70,0,1
323048,-100,4,1,0,70,0,1
323131,-100,4,1,0,70,0,1
323214,-100,4,1,0,70,0,1
323381,-100,4,1,0,70,0,1
323548,-100,4,1,0,70,0,1
323631,-100,4,1,0,70,0,1
323714,-100,4,1,0,70,0,1
323798,-100,4,1,0,70,0,1
323881,-100,4,1,0,70,0,1
324048,-100,4,1,0,70,0,1
324131,-100,4,1,0,70,0,1
324214,-100,4,1,0,70,0,1
324548,-100,4,1,0,70,0,1
324714,-100,4,1,0,70,0,1
324798,-100,4,1,0,70,0,1
324881,-100,4,1,0,70,0,1
324964,-100,4,1,0,70,0,1
325048,-100,4,1,0,70,0,1
325131,-100,4,1,0,70,0,1
325214,-100,4,1,0,70,0,1
325298,-100,4,1,0,70,0,1
325381,-100,4,1,0,70,0,1
325548,-100,4,1,0,70,0,1
325714,-100,4,1,0,70,0,1
325798,-100,4,1,0,70,0,1
325881,-100,4,1,0,70,0,1
326048,-100,4,1,0,70,0,1
326214,-100,4,1,0,70,0,1
326298,-100,4,1,0,70,0,1
326381,-100,4,1,0,70,0,1
326464,-100,4,1,0,70,0,1
326548,-100,4,1,0,70,0,1
326714,-100,4,1,0,70,0,1
326798,-100,4,1,0,70,0,1
326881,-100,4,1,0,70,0,1
327048,-100,4,1,0,70,0,1
327214,-100,4,1,0,70,0,1
327381,-100,4,1,0,70,0,1
327464,-100,4,1,0,70,0,1
327548,-100,4,1,0,70,0,1
327631,-100,4,1,0,70,0,1
327714,-100,4,1,0,70,0,1
327881,-100,4,1,0,70,0,1
328214,-100,4,1,0,70,0,1
328548,-100,4,1,0,70,0,1
328714,-100,4,1,0,70,0,1
329048,-100,4,1,0,70,0,1
329214,-100,4,1,0,70,0,1
329548,-100,4,1,0,70,0,1
329631,-100,4,1,0,70,0,1
329714,-100,4,1,0,70,0,1
329798,-100,4,1,0,70,0,1
329881,-100,4,1,0,70,0,1
329964,-100,4,1,0,70,0,1
330048,-100,4,1,0,70,0,1
330131,-100,4,1,0,70,0,1
330214,-100,4,1,0,70,0,1
330298,-100,4,1,0,70,0,1
330381,-100,4,1,0,70,0,1
330464,-100,4,1,0,70,0,1
330548,-100,4,1,0,70,0,1
330881,-100,4,1,0,70,0,1
331048,-100,4,1,0,70,0,1
331131,-100,4,1,0,70,0,1
331214,-100,4,1,0,70,0,1
331381,-100,4,1,0,70,0,1
331548,-100,4,1,0,70,0,1
331631,-100,4,1,0,70,0,1
331714,-100,4,1,0,70,0,1
331798,-100,4,1,0,70,0,1
331881,-100,4,1,0,70,0,1
332048,-100,4,1,0,70,0,1
332131,-100,4,1,0,70,0,1
332214,-100,4,1,0,70,0,1
332381,-100,4,1,0,70,0,1
332548,-100,4,1,0,70,0,1
332714,-100,4,1,0,70,0,1
332798,-100,4,1,0,70,0,1
332881,-100,4,1,0,70,0,1
332964,-100,4,1,0,70,0,1
333048,-100,4,1,0,70,0,1
333214,-100,4,1,0,70,0,1
333548,-100,4,1,0,70,0,1
333714,-100,4,1,0,70,0,1
333798,-100,4,1,0,70,0,1
333881,-100,4,1,0,70,0,1
334048,-100,4,1,0,70,0,1
334214,-100,4,1,0,70,0,1
334298,-100,4,1,0,70,0,1
334381,-100,4,1,0,70,0,1
334464,-100,4,1,0,70,0,1
334548,-100,4,1,0,70,0,1
334714,-100,4,1,0,70,0,1
334798,-100,4,1,0,70,0,1
334881,-100,4,1,0,70,0,1
335214,-100,4,1,0,70,0,1
335381,-100,4,1,0,70,0,1
335464,-100,4,1,0,70,0,1
335548,-100,4,1,0,70,0,1
335631,-100,4,1,0,70,0,1
335714,-100,4,1,0,70,0,1
335798,-100,4,1,0,70,0,1
335881,-100,4,1,0,70,0,1
335964,-100,4,1,0,70,0,1
336048,-100,4,1,0,70,0,1
336214,-100,4,1,0,70,0,1
336381,-100,4,1,0,70,0,1
336464,-100,4,1,0,70,0,1
336548,-100,4,1,0,70,0,1
336714,-100,4,1,0,70,0,1
336881,-100,4,1,0,70,0,1
336964,-100,4,1,0,70,0,1
337048,-100,4,1,0,70,0,1
337131,-100,4,1,0,70,0,1
337214,-100,4,1,0,70,0,1
337381,-100,4,1,0,70,0,1
337464,-100,4,1,0,70,0,1
337548,-100,4,1,0,70,0,1
337714,-100,4,1,0,70,0,1
337881,-100,4,1,0,70,0,1
338048,-100,4,1,0,70,0,1
338131,-100,4,1,0,70,0,1
338214,-100,4,1,0,70,0,1
338298,-100,4,1,0,70,0,1
338381,-100,4,1,0,70,0,1
338548,-100,4,1,0,70,0,1
338881,-100,4,1,0,70,0,1
339214,-100,4,1,0,70,0,1
339381,-100,4,1,0,70,0,1
339714,-100,4,1,0,70,0,1
339881,-100,4,1,0,70,0,1
340214,-100,4,1,0,70,0,1
340298,-100,4,1,0,70,0,1
340381,-100,4,1,0,70,0,1
340464,-100,4,1,0,70,0,1
340548,-100,4,1,0,70,0,1
340631,-100,4,1,0,70,0,1
340714,-100,4,1,0,70,0,1
340798,-100,4,1,0,70,0,1
340881,-100,4,1,0,70,0,1
340964,-100,4,1,0,70,0,1
341048,-100,4,1,0,70,0,1
341131,-100,4,1,0,70,0,1
341214,-100,4,1,0,70,0,1
341548,-100,4,1,0,70,0,0
346548,-100,4,1,0,70,0,0
346603,-100,4,1,0,70,0,0
346659,-100,4,1,0,70,0,0
346714,-100,4,1,0,70,0,0
346770,-100,4,1,0,70,0,0
346826,-100,4,1,0,70,0,0
346881,-100,4,1,0,70,0,0
351048,-100,4,1,0,70,0,0
351131,-100,4,1,0,70,0,0
351214,-100,4,1,0,70,0,0
351270,-100,4,1,0,70,0,0
351326,-100,4,1,0,70,0,0
351381,-100,4,1,0,70,0,0
351548,-100,4,1,0,70,0,0
351714,-100,4,1,0,70,0,0
351770,-100,4,1,0,70,0,0
351826,-100,4,1,0,70,0,0
351881,-100,4,1,0,70,0,0
352048,-100,4,1,0,70,0,0
352103,-100,4,1,0,70,0,0
352159,-100,4,1,0,70,0,0
352214,-100,4,1,0,70,0,0
357214,-100,4,1,0,70,0,0
357270,-100,4,1,0,70,0,0
357326,-100,4,1,0,70,0,0
357381,-100,4,1,0,70,0,0
357437,-100,4,1,0,70,0,0
357492,-100,4,1,0,70,0,0
357548,-100,4,1,0,70,0,0
361714,-100,4,1,0,70,0,0
361798,-100,4,1,0,70,0,0
361881,-100,4,1,0,70,0,0
361937,-100,4,1,0,70,0,0
361992,-100,4,1,0,70,0,0
362048,-100,4,1,0,70,0,0
362214,-100,4,1,0,70,0,0
362298,-100,4,1,0,70,0,0
362381,-100,4,1,0,70,0,0
362548,-100,4,1,0,70,0,0

[HitObjects]
262,188,215,5,4,0:0:0:0:
266,179,548,1,8,0:0:0:0:
266,179,714,1,0,0:0:0:0:
266,179,881,1,0,0:0:0:0:
266,179,964,1,0,0:0:0:0:
266,179,1048,1,8,0:0:0:0:
255,172,1214,1,0,0:0:0:0:
255,172,1298,1,8,0:0:0:0:
255,172,1464,1,8,0:0:0:0:
255,172,1548,1,0,0:0:0:0:
255,172,1714,1,8,0:0:0:0:
255,172,1798,1,8,0:0:0:0:
255,172,1881,1,0,0:0:0:0:
255,172,2048,1,8,0:0:0:0:
255,172,2214,1,0,0:0:0:0:
255,172,2298,1,8,0:0:0:0:
255,172,2381,1,8,0:0:0:0:
255,172,2548,1,0,0:0:0:0:
255,172,2631,1,0,0:0:0:0:
255,172,2714,1,8,0:0:0:0:
261,168,2881,1,0,0:0:0:0:
221,158,2964,1,0,0:0:0:0:
261,168,3048,1,8,0:0:0:0:
261,168,3131,1,0,0:0:0:0:
261,168,3214,1,8,0:0:0:0:
261,168,3298,1,8,0:0:0:0:
261,168,3381,1,0,0:0:0:0:
261,168,3464,1,8,0:0:0:0:
261,168,3631,1,0,0:0:0:0:
261,168,3714,1,8,0:0:0:0:
261,168,3798,1,8,0:0:0:0:
261,168,3881,1,0,0:0:0:0:
261,168,4048,1,8,0:0:0:0:
264,187,4131,1,8,0:0:0:0:
256,171,4214,1,0,0:0:0:0:
261,173,4298,1,8,0:0:0:0:
261,173,4381,1,0,0:0:0:0:
261,173,4548,1,8,0:0:0:0:
257,174,4714,1,0,0:0:0:0:
257,174,4798,1,0,0:0:0:0:
257,174,4881,1,8,0:0:0:0:
257,174,4964,1,8,0:0:0:0:
257,174,5048,1,0,0:0:0:0:
306,171,5214,1,0,0:0:0:0:
258,181,5270,1,0,0:0:0:0:
258,181,5326,1,0,0:0:0:0:
258,181,5381,1,8,0:0:0:0:
228,145,5437,1,8,0:0:0:0:
228,145,5492,1,8,0:0:0:0:
258,181,5548,1,0,0:0:0:0:
256,180,5714,1,8,0:0:0:0:
256,180,5881,1,0,0:0:0:0:
256,180,5964,1,8,0:0:0:0:
261,176,6131,1,8,0:0:0:0:
261,176,6214,1,0,0:0:0:0:
261,176,6298,1,0,0:0:0:0:
261,176,6381,1,8,0:0:0:0:
261,176,6464,1,0,0:0:0:0:
261,176,6631,1,8,0:0:0:0:
259,183,6798,1,8,0:0:0:0:
259,183,6881,1,0,0:0:0:0:
259,183,7048,1,8,0:0:0:0:
259,170,7131,1,8,0:0:0:0:
259,170,7214,1,0,0:0:0:0:
259,170,7381,1,8,0:0:0:0:
259,170,7548,1,0,0:0:0:0:
259,170,7631,1,0,0:0:0:0:
259,170,7714,1,8,0:0:0:0:
259,170,7881,1,0,0:0:0:0:
259,170,7937,1,8,0:0:0:0:
239,192,7992,1,8,0:0:0:0:
239,192,8048,1,0,0:0:0:0:
243,182,8214,1,0,0:0:0:0:
256,151,8298,1,8,0:0:0:0:
259,164,8464,1,0,0:0:0:0:
259,164,8548,1,8,0:0:0:0:
272,163,8631,1,8,0:0:0:0:
272,163,8714,1,0,0:0:0:0:
272,163,8798,1,8,0:0:0:0:
272,163,8964,1,0,0:0:0:0:
272,163,9048,1,8,0:0:0:0:
262,169,9214,1,8,0:0:0:0:
282,161,9298,1,8,0:0:0:0:
276,178,9381,1,8,0:0:0:0:
276,178,9464,1,8,0:0:0:0:
276,178,9548,1,0,0:0:0:0:
276,178,9714,1,8,0:0:0:0:
272,163,9798,1,8,0:0:0:0:
257,192,9881,1,0,0:0:0:0:
282,168,9937,1,0,0:0:0:0:
282,168,9992,1,0,0:0:0:0:
282,168,10048,1,8,0:0:0:0:
299,117,10214,1,8,0:0:0:0:
241,170,10298,1,0,0:0:0:0:
289,190,10381,1,8,0:0:0:0:
256,176,10437,1,0,0:0:0:0:
256,176,10492,1,0,0:0:0:0:
256,176,10548,1,8,0:0:0:0:
292,158,10714,1,8,0:0:0:0:
292,158,10770,1,8,0:0:0:0:
292,158,10826,1,8,0:0:0:0:
292,158,10881,1,0,0:0:0:0:
296,161,11214,1,8,0:0:0:0:
304,194,11381,1,0,0:0:0:0:
286,173,11548,1,0,0:0:0:0:
300,172,11631,1,0,0:0:0:0:
300,172,11714,1,8,0:0:0:0:
271,174,11881,1,0,0:0:0:0:
271,174,11964,1,8,0:0:0:0:
271,174,12131,1,8,0:0:0:0:
271,174,12214,1,0,0:0:0:0:
271,174,12298,1,0,0:0:0:0:
271,174,12381,1,8,0:0:0:0:
271,174,12464,1,8,0:0:0:0:
271,174,12548,1,0,0:0:0:0:
271,174,12714,1,8,0:0:0:0:
261,178,12881,1,0,0:0:0:0:
261,178,12964,1,0,0:0:0:0:
261,178,13048,1,8,0:0:0:0:
258,186,13214,1,8,0:0:0:0:
258,186,13298,1,8,0:0:0:0:
258,186,13381,1,0,0:0:0:0:
254,168,13548,1,0,0:0:0:0:
294,158,13631,1,8,0:0:0:0:
254,168,13714,1,0,0:0:0:0:
254,168,13798,1,0,0:0:0:0:
254,168,13881,1,8,0:0:0:0:
254,168,13964,1,8,0:0:0:0:
254,168,14048,1,0,0:0:0:0:
254,168,14131,1,8,0:0:0:0:
281,151,14298,1,8,0:0:0:0:
251,168,14381,1,0,0:0:0:0:
266,165,14464,1,0,0:0:0:0:
266,165,14548,1,8,0:0:0:0:
281,151,14714,1,0,0:0:0:0:
281,151,14798,1,8,0:0:0:0:
281,151,14881,1,0,0:0:0:0:
281,151,14964,1,8,0:0:0:0:
281,151,15048,1,8,0:0:0:0:
276,169,15214,1,0,0:0:0:0:
276,169,15381,1,8,0:0:0:0:
276,169,15464,1,0,0:0:0:0:
276,169,15548,1,8,0:0:0:0:
276,169,15631,1,8,0:0:0:0:
276,169,15714,1,0,0:0:0:0:
274,175,15881,1,0,0:0:0:0:
264,143,15937,1,0,0:0:0:0:
264,142,15992,1,0,0:0:0:0:
264,143,16048,1,8,0:0:0:0:
264,142,16103,1,8,0:0:0:0:
264,142,16159,1,8,0:0:0:0:
264,142,16214,1,0,0:0:0:0:
266,133,16381,1,8,0:0:0:0:
266,133,16548,1,8,0:0:0:0:
266,133,16631,1,0,0:0:0:0:
281,187,16798,1,8,0:0:0:0:
281,187,16881,1,0,0:0:0:0:
281,187,16964,1,0,0:0:0:0:
281,187,17048,1,8,0:0:0:0:
281,187,17131,1,0,0:0:0:0:
281,187,17298,1,8,0:0:0:0:
281,187,17464,1,8,0:0:0:0:
281,187,17548,1,0,0:0:0:0:
261,170,17631,1,0,0:0:0:0:
229,152,17714,1,8,0:0:0:0:
252,142,17756,1,8,0:0:0:0:
271,164,17881,1,8,0:0:0:0:
229,152,17923,1,8,0:0:0:0:
279,160,18048,1,0,0:0:0:0:
279,160,18089,1,0,0:0:0:0:
286,160,18214,1,8,0:0:0:0:
286,160,18298,1,8,0:0:0:0:
286,160,18381,1,0,0:0:0:0:
282,174,18548,1,8,0:0:0:0:
282,174,18603,1,8,0:0:0:0:
282,174,18659,1,8,0:0:0:0:
282,174,18714,1,0,0:0:0:0:
289,173,18881,1,8,0:0:0:0:
268,180,18964,1,0,0:0:0:0:
286,183,19131,1,0,0:0:0:0:
286,183,19214,1,8,0:0:0:0:
286,183,19298,1,0,0:0:0:0:
286,183,19381,1,0,0:0:0:0:
286,183,19464,1,8,0:0:0:0:
286,183,19631,1,0,0:0:0:0:
286,183,19714,1,8,0:0:0:0:
286,186,19881,1,8,0:0:0:0:
286,186,19964,1,8,0:0:0:0:
286,183,20048,1,8,0:0:0:0:
286,183,20131,1,8,0:0:0:0:
286,183,20214,1,0,0:0:0:0:
271,177,20381,1,8,0:0:0:0:
271,177,20464,1,8,0:0:0:0:
271,177,20548,1,0,0:0:0:0:
316,147,20603,1,0,0:0:0:0:
306,147,20659,1,0,0:0:0:0:
306,147,20714,1,8,0:0:0:0:
262,178,20881,1,8,0:0:0:0:
266,175,20964,1,8,0:0:0:0:
266,175,21048,1,0,0:0:0:0:
256,174,21214,1,12,0:0:0:0:
271,177,21548,1,4,0:0:0:0:
295,166,22714,1,8,0:0:0:0:
282,153,24214,1,0,0:0:0:0:
261,181,25381,1,0,0:0:0:0:
261,181,26881,1,8,0:0:0:0:
267,184,28048,1,8,0:0:0:0:
267,184,29548,1,0,0:0:0:0:
267,184,30714,1,0,0:0:0:0:
276,188,31548,1,8,0:0:0:0:
276,188,31881,1,0,0:0:0:0:
258,182,32214,1,8,0:0:0:0:
294,180,33381,1,8,0:0:0:0:
260,172,34881,5,0,0:0:0:0:
260,172,36048,5,0,0:0:0:0:
260,172,37548,5,8,0:0:0:0:
260,172,38714,5,8,0:0:0:0:
260,172,40214,5,0,0:0:0:0:
260,172,41381,5,0,0:0:0:0:
260,172,42548,5,12,0:0:0:0:
256,188,42881,5,4,0:0:0:0:
256,188,43548,1,4,0:0:0:0:
256,188,44214,1,4,0:0:0:0:
256,188,44881,1,4,0:0:0:0:
256,188,45214,1,12,0:0:0:0:
256,188,45548,1,0,0:0:0:0:
283,162,45714,1,0,0:0:0:0:
283,162,45798,1,0,0:0:0:0:
261,171,45881,1,8,0:0:0:0:
261,171,46048,1,8,0:0:0:0:
274,172,46214,1,0,0:0:0:0:
266,161,46298,1,8,0:0:0:0:
273,155,46381,1,0,0:0:0:0:
304,172,46464,1,0,0:0:0:0:
294,150,46548,1,8,0:0:0:0:
284,168,46714,1,8,0:0:0:0:
266,161,46798,1,8,0:0:0:0:
266,161,46881,1,0,0:0:0:0:
261,171,47214,1,8,0:0:0:0:
267,168,47381,1,0,0:0:0:0:
311,220,47464,1,0,0:0:0:0:
267,168,47548,1,8,0:0:0:0:
261,176,47631,1,8,0:0:0:0:
261,176,47714,1,0,0:0:0:0:
300,165,47798,1,8,0:0:0:0:
300,165,47881,1,0,0:0:0:0:
300,165,47964,1,0,0:0:0:0:
300,165,48048,1,8,0:0:0:0:
261,164,48214,1,0,0:0:0:0:
261,164,48381,1,0,0:0:0:0:
261,164,48464,1,0,0:0:0:0:
261,164,48548,1,8,0:0:0:0:
261,164,48714,1,8,0:0:0:0:
261,164,48881,1,0,0:0:0:0:
261,164,48964,1,8,0:0:0:0:
261,164,49048,1,0,0:0:0:0:
247,174,49131,1,0,0:0:0:0:
261,164,49214,1,8,0:0:0:0:
262,170,49381,1,8,0:0:0:0:
262,170,49464,1,8,0:0:0:0:
262,170,49548,1,0,0:0:0:0:
269,177,49881,1,8,0:0:0:0:
244,169,50048,1,0,0:0:0:0:
269,177,50131,1,0,0:0:0:0:
269,177,50298,1,8,0:0:0:0:
269,177,50381,1,0,0:0:0:0:
269,177,50464,1,0,0:0:0:0:
269,177,50548,1,8,0:0:0:0:
269,177,50881,1,4,0:0:0:0:
261,172,51214,1,8,0:0:0:0:
252,176,51381,1,4,0:0:0:0:
254,175,51714,1,8,0:0:0:0:
254,175,51881,1,8,0:0:0:0:
254,175,52214,1,8,0:0:0:0:
252,176,52298,1,0,0:0:0:0:
252,176,52381,1,0,0:0:0:0:
254,175,52464,1,8,0:0:0:0:
254,175,52548,1,0,0:0:0:0:
254,175,52631,1,0,0:0:0:0:
254,175,52714,1,8,0:0:0:0:
254,175,52798,1,0,0:0:0:0:
254,175,52881,1,0,0:0:0:0:
254,175,52964,1,8,0:0:0:0:
254,175,53048,1,0,0:0:0:0:
254,175,53131,1,0,0:0:0:0:
254,175,53214,1,8,0:0:0:0:
254,175,53548,1,4,0:0:0:0:
283,162,53714,1,0,0:0:0:0:
283,162,53798,1,0,0:0:0:0:
261,171,53881,1,8,0:0:0:0:
261,171,54048,1,8,0:0:0:0:
274,172,54214,1,0,0:0:0:0:
266,161,54298,1,8,0:0:0:0:
273,155,54381,1,0,0:0:0:0:
304,172,54464,1,0,0:0:0:0:
294,150,54548,1,8,0:0:0:0:
284,168,54714,1,8,0:0:0:0:
266,161,54798,1,8,0:0:0:0:
266,161,54881,1,0,0:0:0:0:
261,171,55214,1,8,0:0:0:0:
267,168,55381,1,0,0:0:0:0:
311,220,55464,1,0,0:0:0:0:
298,145,55631,1,8,0:0:0:0:
298,145,55714,1,0,0:0:0:0:
298,145,55798,1,0,0:0:0:0:
298,145,55881,1,8,0:0:0:0:
261,164,56214,1,0,0:0:0:0:
261,164,56381,1,0,0:0:0:0:
261,164,56464,1,0,0:0:0:0:
261,164,56548,1,8,0:0:0:0:
261,164,56714,1,8,0:0:0:0:
261,164,56881,1,0,0:0:0:0:
261,164,56964,1,8,0:0:0:0:
261,164,57048,1,0,0:0:0:0:
247,174,57131,1,0,0:0:0:0:
261,164,57214,1,8,0:0:0:0:
262,170,57381,1,8,0:0:0:0:
262,170,57464,1,8,0:0:0:0:
262,170,57548,1,0,0:0:0:0:
269,177,57881,1,8,0:0:0:0:
244,169,58048,1,0,0:0:0:0:
269,177,58131,1,0,0:0:0:0:
291,130,58214,1,8,0:0:0:0:
269,177,58298,1,8,0:0:0:0:
269,177,58381,1,0,0:0:0:0:
269,177,58464,1,8,0:0:0:0:
269,177,58548,1,0,0:0:0:0:
265,183,58631,1,0,0:0:0:0:
265,183,58714,1,8,0:0:0:0:
269,177,58881,1,4,0:0:0:0:
261,168,59048,1,0,0:0:0:0:
261,168,59131,1,0,0:0:0:0:
261,168,59214,1,8,0:0:0:0:
261,168,59381,1,8,0:0:0:0:
261,180,59548,1,0,0:0:0:0:
262,176,59631,1,8,0:0:0:0:
262,176,59714,1,0,0:0:0:0:
262,176,59798,1,0,0:0:0:0:
262,176,59881,1,8,0:0:0:0:
262,176,60048,1,8,0:0:0:0:
262,176,60131,1,8,0:0:0:0:
262,176,60214,1,0,0:0:0:0:
258,171,60548,1,8,0:0:0:0:
258,171,60714,1,0,0:0:0:0:
258,171,60798,1,0,0:0:0:0:
258,171,60964,1,8,0:0:0:0:
258,171,61048,1,0,0:0:0:0:
258,171,61131,1,0,0:0:0:0:
258,171,61214,1,8,0:0:0:0:
258,171,61548,1,4,0:0:0:0:
259,164,61881,1,8,0:0:0:0:
259,164,62048,1,4,0:0:0:0:
259,164,62381,1,8,0:0:0:0:
259,164,62548,1,8,0:0:0:0:
259,164,62881,1,8,0:0:0:0:
259,164,62964,1,0,0:0:0:0:
259,164,63048,1,0,0:0:0:0:
259,164,63131,1,8,0:0:0:0:
259,164,63214,1,0,0:0:0:0:
259,164,63298,1,0,0:0:0:0:
259,164,63381,1,8,0:0:0:0:
259,164,63464,1,0,0:0:0:0:
259,164,63548,1,0,0:0:0:0:
259,164,63631,1,8,0:0:0:0:
259,164,63714,1,0,0:0:0:0:
259,164,63798,1,0,0:0:0:0:
259,164,63881,1,8,0:0:0:0:
259,164,64214,1,4,0:0:0:0:
291,174,64881,1,4,0:0:0:0:
272,175,65548,1,4,0:0:0:0:
272,175,66214,1,4,0:0:0:0:
272,175,66548,1,12,0:0:0:0:
256,188,66881,1,0,0:0:0:0:
283,162,67048,1,0,0:0:0:0:
283,162,67131,1,0,0:0:0:0:
261,171,67214,1,8,0:0:0:0:
261,171,67381,1,8,0:0:0:0:
274,172,67548,1,0,0:0:0:0:
266,161,67631,1,8,0:0:0:0:
273,155,67714,1,0,0:0:0:0:
304,172,67798,1,0,0:0:0:0:
294,150,67881,1,8,0:0:0:0:
284,168,68048,1,8,0:0:0:0:
266,161,68131,1,8,0:0:0:0:
266,161,68214,1,0,0:0:0:0:
261,171,68548,1,8,0:0:0:0:
267,168,68714,1,0,0:0:0:0:
311,220,68798,1,0,0:0:0:0:
267,168,68881,1,8,0:0:0:0:
261,176,68964,1,0,0:0:0:0:
261,176,69048,1,0,0:0:0:0:
300,165,69131,1,8,0:0:0:0:
300,165,69214,1,8,0:0:0:0:
300,165,69298,1,0,0:0:0:0:
300,165,69381,1,8,0:0:0:0:
261,164,69548,1,0,0:0:0:0:
261,164,69714,1,0,0:0:0:0:
261,164,69798,1,0,0:0:0:0:
261,164,69881,1,8,0:0:0:0:
261,164,70048,1,8,0:0:0:0:
261,164,70214,1,0,0:0:0:0:
261,164,70298,1,8,0:0:0:0:
261,164,70381,1,0,0:0:0:0:
247,174,70464,1,0,0:0:0:0:
261,164,70548,1,8,0:0:0:0:
262,170,70714,1,8,0:0:0:0:
262,170,70798,1,8,0:0:0:0:
262,170,70881,1,0,0:0:0:0:
269,177,71214,1,8,0:0:0:0:
244,169,71381,1,0,0:0:0:0:
269,177,71464,1,0,0:0:0:0:
249,122,71548,1,8,0:0:0:0:
269,177,71631,1,8,0:0:0:0:
269,177,71714,1,0,0:0:0:0:
269,177,71881,1,8,0:0:0:0:
269,177,72214,1,4,0:0:0:0:
261,172,72548,1,8,0:0:0:0:
252,176,72714,1,4,0:0:0:0:
254,175,73048,1,8,0:0:0:0:
254,175,73214,1,8,0:0:0:0:
254,175,73548,1,8,0:0:0:0:
252,176,73631,1,0,0:0:0:0:
252,176,73714,1,0,0:0:0:0:
254,175,73798,1,8,0:0:0:0:
254,175,73881,1,0,0:0:0:0:
254,175,73964,1,0,0:0:0:0:
254,175,74048,1,8,0:0:0:0:
254,175,74131,1,0,0:0:0:0:
254,175,74214,1,0,0:0:0:0:
254,175,74298,1,8,0:0:0:0:
254,175,74381,1,0,0:0:0:0:
254,175,74464,1,0,0:0:0:0:
254,175,74548,1,8,0:0:0:0:
254,175,74881,1,4,0:0:0:0:
283,162,75048,1,0,0:0:0:0:
283,162,75131,1,0,0:0:0:0:
261,171,75214,1,8,0:0:0:0:
261,171,75381,1,8,0:0:0:0:
274,172,75548,1,0,0:0:0:0:
266,161,75631,1,8,0:0:0:0:
273,155,75714,1,0,0:0:0:0:
304,172,75798,1,0,0:0:0:0:
294,150,75881,1,8,0:0:0:0:
284,168,76048,1,8,0:0:0:0:
266,161,76131,1,8,0:0:0:0:
266,161,76214,1,0,0:0:0:0:
261,171,76548,1,8,0:0:0:0:
267,168,76714,1,0,0:0:0:0:
311,220,76798,1,0,0:0:0:0:
267,166,76881,1,8,0:0:0:0:
298,145,76964,1,8,0:0:0:0:
298,145,77048,1,0,0:0:0:0:
298,145,77214,1,8,0:0:0:0:
261,164,77548,1,0,0:0:0:0:
261,164,77714,1,0,0:0:0:0:
261,164,77798,1,0,0:0:0:0:
261,164,77881,1,8,0:0:0:0:
261,164,78048,1,8,0:0:0:0:
261,164,78214,1,0,0:0:0:0:
261,164,78298,1,8,0:0:0:0:
261,164,78381,1,0,0:0:0:0:
247,174,78464,1,0,0:0:0:0:
261,164,78548,1,8,0:0:0:0:
262,170,78714,1,8,0:0:0:0:
262,170,78798,1,8,0:0:0:0:
262,170,78881,1,0,0:0:0:0:
269,177,79214,1,8,0:0:0:0:
244,169,79381,1,0,0:0:0:0:
269,177,79464,1,0,0:0:0:0:
291,130,79548,1,8,0:0:0:0:
269,177,79631,1,0,0:0:0:0:
269,177,79714,1,0,0:0:0:0:
269,177,79798,1,8,0:0:0:0:
269,177,79881,1,8,0:0:0:0:
265,183,79964,1,0,0:0:0:0:
265,183,80048,1,8,0:0:0:0:
269,177,80214,1,4,0:0:0:0:
261,168,80381,1,0,0:0:0:0:
261,168,80464,1,0,0:0:0:0:
261,168,80548,1,8,0:0:0:0:
261,168,80714,1,8,0:0:0:0:
261,180,80881,1,0,0:0:0:0:
262,176,80964,1,8,0:0:0:0:
262,176,81048,1,0,0:0:0:0:
262,176,81131,1,0,0:0:0:0:
262,176,81214,1,8,0:0:0:0:
262,176,81381,1,8,0:0:0:0:
262,176,81464,1,8,0:0:0:0:
262,176,81548,1,0,0:0:0:0:
258,171,81881,1,8,0:0:0:0:
258,171,82048,1,0,0:0:0:0:
258,171,82131,1,0,0:0:0:0:
255,143,82214,1,8,0:0:0:0:
258,171,82298,1,8,0:0:0:0:
258,171,82381,1,0,0:0:0:0:
258,171,82548,1,8,0:0:0:0:
258,171,82881,1,4,0:0:0:0:
259,164,83214,1,8,0:0:0:0:
259,164,83381,1,4,0:0:0:0:
259,164,83714,1,8,0:0:0:0:
259,164,83881,1,8,0:0:0:0:
259,164,84214,1,8,0:0:0:0:
259,164,84298,1,0,0:0:0:0:
259,164,84381,5,0,0:0:0:0:
259,164,84464,1,8,0:0:0:0:
259,164,84548,1,0,0:0:0:0:
259,164,84631,1,0,0:0:0:0:
259,164,84714,1,8,0:0:0:0:
259,164,84798,1,0,0:0:0:0:
259,164,84881,1,0,0:0:0:0:
259,164,84964,1,8,0:0:0:0:
259,164,85048,1,0,0:0:0:0:
259,164,85131,1,0,0:0:0:0:
259,164,85214,1,8,0:0:0:0:
273,201,85548,5,0,0:0:0:0:
275,183,85881,1,8,0:0:0:0:
275,183,86131,1,0,0:0:0:0:
275,183,86298,1,8,0:0:0:0:
275,183,86381,1,0,0:0:0:0:
275,183,86464,1,0,0:0:0:0:
275,183,86548,1,8,0:0:0:0:
297,160,86798,1,8,0:0:0:0:
297,160,86881,1,0,0:0:0:0:
295,197,87048,1,0,0:0:0:0:
295,197,87214,1,8,0:0:0:0:
263,192,87381,1,0,0:0:0:0:
263,192,87464,1,0,0:0:0:0:
261,184,87631,1,8,0:0:0:0:
261,184,87714,1,0,0:0:0:0:
261,184,87798,1,0,0:0:0:0:
261,184,87881,1,12,0:0:0:0:
277,188,88214,1,0,0:0:0:0:
277,188,88548,1,8,0:0:0:0:
277,188,88798,1,0,0:0:0:0:
277,188,88964,1,8,0:0:0:0:
277,188,89048,1,0,0:0:0:0:
277,188,89131,1,0,0:0:0:0:
277,188,89214,1,8,0:0:0:0:
277,188,89464,1,8,0:0:0:0:
277,188,89548,1,0,0:0:0:0:
260,186,89714,1,0,0:0:0:0:
264,185,89881,1,8,0:0:0:0:
264,185,90048,1,0,0:0:0:0:
268,174,90131,1,0,0:0:0:0:
268,174,90298,1,8,0:0:0:0:
268,174,90381,1,0,0:0:0:0:
266,182,90464,1,0,0:0:0:0:
268,174,90548,1,8,0:0:0:0:
268,174,90631,1,8,0:0:0:0:
268,174,90714,1,0,0:0:0:0:
268,174,90798,1,8,0:0:0:0:
268,174,90881,1,0,0:0:0:0:
283,166,91214,1,8,0:0:0:0:
283,166,91464,1,0,0:0:0:0:
253,164,91631,1,8,0:0:0:0:
253,164,91714,1,0,0:0:0:0:
253,164,91798,1,0,0:0:0:0:
253,164,91881,1,8,0:0:0:0:
253,164,92131,1,8,0:0:0:0:
253,164,92214,1,0,0:0:0:0:
253,164,92381,1,0,0:0:0:0:
253,164,92548,1,8,0:0:0:0:
253,164,92714,1,8,0:0:0:0:
253,164,92798,1,0,0:0:0:0:
253,164,92964,1,8,0:0:0:0:
253,164,93048,1,0,0:0:0:0:
283,169,93131,1,0,0:0:0:0:
253,164,93214,1,8,0:0:0:0:
260,178,93298,1,0,0:0:0:0:
261,156,93381,1,8,0:0:0:0:
261,156,93464,1,8,0:0:0:0:
261,156,93548,1,0,0:0:0:0:
254,173,93881,1,8,0:0:0:0:
258,185,94131,1,0,0:0:0:0:
258,185,94298,1,8,0:0:0:0:
258,185,94381,1,0,0:0:0:0:
258,185,94464,1,0,0:0:0:0:
258,185,94548,1,8,0:0:0:0:
258,185,94798,1,8,0:0:0:0:
258,185,94881,1,0,0:0:0:0:
258,185,94964,1,8,0:0:0:0:
269,188,95048,1,8,0:0:0:0:
241,160,95131,1,0,0:0:0:0:
244,175,95214,1,8,0:0:0:0:
258,185,95298,1,0,0:0:0:0:
258,185,95381,1,8,0:0:0:0:
258,185,95464,1,8,0:0:0:0:
258,185,95548,1,0,0:0:0:0:
258,185,95631,1,8,0:0:0:0:
258,185,95714,1,0,0:0:0:0:
258,185,95798,1,0,0:0:0:0:
258,185,95881,1,8,0:0:0:0:
261,183,96048,1,8,0:0:0:0:
261,183,96131,1,8,0:0:0:0:
261,183,96214,1,4,0:0:0:0:
239,156,96548,1,8,0:0:0:0:
288,173,96798,1,0,0:0:0:0:
288,173,96964,1,8,0:0:0:0:
288,173,97048,1,0,0:0:0:0:
288,173,97131,1,0,0:0:0:0:
288,173,97214,1,8,0:0:0:0:
264,152,97464,1,8,0:0:0:0:
264,152,97548,1,0,0:0:0:0:
264,152,97714,1,0,0:0:0:0:
264,152,97881,1,8,0:0:0:0:
263,168,98048,1,0,0:0:0:0:
263,168,98131,1,0,0:0:0:0:
263,168,98298,1,8,0:0:0:0:
263,168,98381,1,0,0:0:0:0:
263,168,98464,1,0,0:0:0:0:
263,168,98548,1,8,0:0:0:0:
263,168,98631,1,0,0:0:0:0:
263,168,98714,1,8,0:0:0:0:
263,168,98798,1,8,0:0:0:0:
263,168,98881,1,0,0:0:0:0:
295,171,99214,1,8,0:0:0:0:
295,171,99464,1,0,0:0:0:0:
295,171,99631,1,8,0:0:0:0:
295,171,99714,1,0,0:0:0:0:
295,171,99798,1,0,0:0:0:0:
295,171,99881,1,8,0:0:0:0:
295,171,100131,1,8,0:0:0:0:
295,171,100214,1,0,0:0:0:0:
295,171,100381,1,0,0:0:0:0:
295,171,100548,1,8,0:0:0:0:
295,171,100714,1,8,0:0:0:0:
295,171,100798,1,0,0:0:0:0:
295,171,100964,1,8,0:0:0:0:
295,171,101048,1,0,0:0:0:0:
295,171,101131,1,0,0:0:0:0:
295,171,101214,1,8,0:0:0:0:
271,160,101298,1,0,0:0:0:0:
271,160,101381,1,8,0:0:0:0:
271,160,101464,1,8,0:0:0:0:
271,160,101548,1,0,0:0:0:0:
271,160,101881,1,8,0:0:0:0:
271,160,102131,1,0,0:0:0:0:
271,160,102298,1,8,0:0:0:0:
271,160,102381,1,0,0:0:0:0:
271,160,102464,1,0,0:0:0:0:
271,160,102548,1,8,0:0:0:0:
266,146,102798,1,8,0:0:0:0:
271,160,102881,1,0,0:0:0:0:
259,178,103048,1,0,0:0:0:0:
259,178,103214,1,8,0:0:0:0:
259,178,103381,1,0,0:0:0:0:
259,178,103464,1,0,0:0:0:0:
281,186,103631,1,8,0:0:0:0:
281,186,103714,1,8,0:0:0:0:
281,186,103798,1,0,0:0:0:0:
281,186,103881,1,8,0:0:0:0:
281,186,103964,1,0,0:0:0:0:
281,186,104048,1,8,0:0:0:0:
281,186,104131,1,8,0:0:0:0:
281,186,104214,1,0,0:0:0:0:
281,186,104548,1,8,0:0:0:0:
281,186,104714,1,0,0:0:0:0:
281,186,104798,1,0,0:0:0:0:
238,141,104964,1,8,0:0:0:0:
238,141,105048,1,0,0:0:0:0:
238,141,105131,1,0,0:0:0:0:
238,141,105214,1,8,0:0:0:0:
235,170,105464,1,8,0:0:0:0:
235,170,105548,1,0,0:0:0:0:
235,170,105631,1,8,0:0:0:0:
235,170,105714,1,8,0:0:0:0:
235,170,105798,1,0,0:0:0:0:
235,170,105881,1,8,0:0:0:0:
235,170,105964,1,8,0:0:0:0:
235,170,106048,1,0,0:0:0:0:
235,170,106131,1,8,0:0:0:0:
235,170,106214,1,8,0:0:0:0:
235,170,106298,1,0,0:0:0:0:
235,170,106381,1,8,0:0:0:0:
235,170,106464,1,8,0:0:0:0:
235,170,106548,1,0,0:0:0:0:
235,170,106881,1,4,0:0:0:0:
261,158,107048,1,0,0:0:0:0:
261,158,107131,1,0,0:0:0:0:
261,158,107214,1,8,0:0:0:0:
261,158,107381,1,0,0:0:0:0:
249,167,107464,1,0,0:0:0:0:
249,167,107631,1,8,0:0:0:0:
256,182,107714,1,0,0:0:0:0:
256,182,107798,1,0,0:0:0:0:
256,182,107881,1,8,0:0:0:0:
256,182,108048,1,0,0:0:0:0:
256,182,108131,1,8,0:0:0:0:
256,182,108214,1,0,0:0:0:0:
266,177,108381,1,0,0:0:0:0:
266,177,108548,1,8,0:0:0:0:
256,182,108714,1,0,0:0:0:0:
256,182,108798,1,0,0:0:0:0:
256,182,108964,1,8,0:0:0:0:
236,165,109048,1,0,0:0:0:0:
236,165,109131,1,0,0:0:0:0:
236,165,109214,1,8,0:0:0:0:
236,165,109298,1,8,0:0:0:0:
236,165,109381,1,0,0:0:0:0:
236,165,109464,1,8,0:0:0:0:
236,165,109548,1,0,0:0:0:0:
264,150,109714,1,0,0:0:0:0:
248,168,109881,1,8,0:0:0:0:
252,178,110048,1,0,0:0:0:0:
252,178,110131,1,0,0:0:0:0:
252,178,110298,1,8,0:0:0:0:
252,178,110381,1,0,0:0:0:0:
252,178,110464,1,0,0:0:0:0:
252,178,110548,1,8,0:0:0:0:
246,178,110714,1,0,0:0:0:0:
246,178,110798,1,8,0:0:0:0:
246,178,110881,1,0,0:0:0:0:
245,180,111048,1,0,0:0:0:0:
245,180,111214,1,8,0:0:0:0:
245,180,111381,1,0,0:0:0:0:
245,180,111464,1,8,0:0:0:0:
246,178,111631,1,8,0:0:0:0:
246,178,111714,1,0,0:0:0:0:
246,178,111798,1,0,0:0:0:0:
246,178,111881,1,8,0:0:0:0:
245,180,111964,1,0,0:0:0:0:
245,180,112048,1,8,0:0:0:0:
245,180,112131,1,8,0:0:0:0:
245,180,112214,1,0,0:0:0:0:
300,177,112548,1,8,0:0:0:0:
241,167,112714,1,0,0:0:0:0:
241,167,112798,1,0,0:0:0:0:
241,167,112964,1,8,0:0:0:0:
241,167,113048,1,0,0:0:0:0:
241,167,113131,1,0,0:0:0:0:
241,167,113214,1,8,0:0:0:0:
241,167,113381,1,0,0:0:0:0:
241,167,113464,1,8,0:0:0:0:
241,167,113548,1,0,0:0:0:0:
241,167,113714,1,0,0:0:0:0:
241,167,113881,1,8,0:0:0:0:
241,167,114048,1,8,0:0:0:0:
241,167,114131,1,0,0:0:0:0:
241,167,114298,1,8,0:0:0:0:
241,167,114381,1,8,0:0:0:0:
241,167,114464,1,0,0:0:0:0:
241,167,114548,1,8,0:0:0:0:
241,167,114631,1,0,0:0:0:0:
241,167,114714,1,8,0:0:0:0:
241,167,114798,1,8,0:0:0:0:
241,167,114881,1,0,0:0:0:0:
261,187,115048,1,0,0:0:0:0:
261,187,115214,1,8,0:0:0:0:
261,187,115381,1,0,0:0:0:0:
261,187,115464,1,0,0:0:0:0:
261,187,115631,1,8,0:0:0:0:
235,165,115714,1,0,0:0:0:0:
235,165,115798,1,0,0:0:0:0:
235,165,115881,1,8,0:0:0:0:
235,165,116048,1,0,0:0:0:0:
235,165,116131,1,8,0:0:0:0:
276,168,116214,1,0,0:0:0:0:
272,169,116298,1,0,0:0:0:0:
272,169,116381,1,8,0:0:0:0:
272,169,116464,1,0,0:0:0:0:
272,169,116548,1,8,0:0:0:0:
272,169,116631,1,0,0:0:0:0:
276,168,116714,1,8,0:0:0:0:
276,168,116798,1,8,0:0:0:0:
276,168,116881,1,0,0:0:0:0:
254,158,116964,1,8,0:0:0:0:
254,158,117048,1,0,0:0:0:0:
254,158,117131,1,0,0:0:0:0:
254,158,117214,1,8,0:0:0:0:
256,170,117381,1,8,0:0:0:0:
256,170,117464,1,8,0:0:0:0:
256,170,117548,1,4,0:0:0:0:
244,171,117881,1,8,0:0:0:0:
244,171,118048,1,0,0:0:0:0:
244,171,118131,1,0,0:0:0:0:
249,167,118298,1,8,0:0:0:0:
256,182,118381,1,0,0:0:0:0:
256,182,118464,1,0,0:0:0:0:
256,182,118548,1,8,0:0:0:0:
256,182,118714,1,0,0:0:0:0:
256,182,118798,1,8,0:0:0:0:
256,182,118881,1,0,0:0:0:0:
266,177,119048,1,0,0:0:0:0:
266,177,119214,1,8,0:0:0:0:
256,182,119381,1,0,0:0:0:0:
256,182,119464,1,0,0:0:0:0:
256,182,119631,1,8,0:0:0:0:
236,165,119714,1,0,0:0:0:0:
236,165,119798,1,0,0:0:0:0:
236,165,119881,1,8,0:0:0:0:
236,165,119964,1,8,0:0:0:0:
236,165,120048,1,0,0:0:0:0:
236,165,120131,1,8,0:0:0:0:
236,165,120214,1,0,0:0:0:0:
264,150,120381,1,0,0:0:0:0:
248,168,120548,1,8,0:0:0:0:
252,178,120714,1,0,0:0:0:0:
252,178,120798,1,0,0:0:0:0:
252,178,120964,1,8,0:0:0:0:
252,178,121048,1,0,0:0:0:0:
252,178,121131,1,0,0:0:0:0:
252,178,121214,1,8,0:0:0:0:
246,178,121381,1,0,0:0:0:0:
246,178,121464,1,8,0:0:0:0:
246,178,121548,1,0,0:0:0:0:
245,180,121714,1,0,0:0:0:0:
245,180,121881,1,8,0:0:0:0:
245,180,122048,1,0,0:0:0:0:
245,180,122131,1,8,0:0:0:0:
246,178,122298,1,8,0:0:0:0:
246,178,122381,1,0,0:0:0:0:
246,178,122464,1,0,0:0:0:0:
246,178,122548,1,8,0:0:0:0:
245,180,122631,1,0,0:0:0:0:
245,180,122714,1,8,0:0:0:0:
245,180,122798,1,8,0:0:0:0:
245,180,122881,1,0,0:0:0:0:
300,177,123214,1,8,0:0:0:0:
241,167,123381,1,0,0:0:0:0:
241,167,123464,1,0,0:0:0:0:
241,167,123631,1,8,0:0:0:0:
241,167,123714,1,0,0:0:0:0:
241,167,123798,1,0,0:0:0:0:
241,167,123881,1,8,0:0:0:0:
241,167,124048,1,0,0:0:0:0:
241,167,124131,1,8,0:0:0:0:
241,167,124214,1,0,0:0:0:0:
241,167,124381,1,0,0:0:0:0:
241,167,124548,1,8,0:0:0:0:
241,167,124714,1,8,0:0:0:0:
241,167,124798,1,0,0:0:0:0:
241,167,124964,1,8,0:0:0:0:
241,167,125048,1,8,0:0:0:0:
241,167,125131,1,0,0:0:0:0:
241,167,125214,1,8,0:0:0:0:
241,167,125298,1,0,0:0:0:0:
241,167,125381,1,8,0:0:0:0:
241,167,125464,1,8,0:0:0:0:
241,167,125548,1,0,0:0:0:0:
261,187,125714,1,0,0:0:0:0:
261,187,125881,1,8,0:0:0:0:
261,187,126048,1,0,0:0:0:0:
261,187,126131,1,0,0:0:0:0:
261,187,126298,1,8,0:0:0:0:
235,165,126381,1,0,0:0:0:0:
235,165,126464,1,0,0:0:0:0:
235,165,126548,1,8,0:0:0:0:
266,193,126714,1,0,0:0:0:0:
235,165,126798,1,8,0:0:0:0:
266,193,126881,1,0,0:0:0:0:
266,193,126964,1,0,0:0:0:0:
266,193,127048,1,8,0:0:0:0:
266,193,127131,1,0,0:0:0:0:
266,193,127214,1,8,0:0:0:0:
266,193,127298,1,8,0:0:0:0:
285,158,127381,1,0,0:0:0:0:
285,158,127464,1,8,0:0:0:0:
285,158,127548,1,0,0:0:0:0:
285,158,127631,1,8,0:0:0:0:
285,158,127714,1,8,0:0:0:0:
285,158,127798,1,0,0:0:0:0:
285,158,127881,1,8,0:0:0:0:
278,164,128214,1,4,0:0:0:0:
265,179,129381,1,0,0:0:0:0:
265,179,129548,1,0,0:0:0:0:
264,183,130881,1,0,0:0:0:0:
261,163,132048,1,0,0:0:0:0:
257,169,132214,1,0,0:0:0:0:
257,169,133548,1,8,0:0:0:0:
241,178,134714,1,8,0:0:0:0:
241,178,134881,1,8,0:0:0:0:
241,178,136214,1,8,0:0:0:0:
241,178,137381,1,8,0:0:0:0:
266,171,137548,1,8,0:0:0:0:
248,177,138881,1,0,0:0:0:0:
261,171,140048,1,0,0:0:0:0:
261,171,140214,1,0,0:0:0:0:
261,171,141548,1,0,0:0:0:0:
261,171,142714,1,0,0:0:0:0:
261,171,142881,1,0,0:0:0:0:
261,171,144214,1,8,0:0:0:0:
261,171,145381,1,8,0:0:0:0:
261,171,145548,1,8,0:0:0:0:
261,171,146881,1,8,0:0:0:0:
293,178,148048,1,8,0:0:0:0:
293,178,148214,1,8,0:0:0:0:
253,183,149548,1,8,0:0:0:0:
253,183,149881,1,0,0:0:0:0:
253,183,150214,1,0,0:0:0:0:
250,177,150548,1,0,0:0:0:0:
240,166,150881,1,8,0:0:0:0:
274,178,151214,1,0,0:0:0:0:
274,178,151548,1,0,0:0:0:0:
274,178,151881,1,0,0:0:0:0:
274,178,152214,1,8,0:0:0:0:
274,178,152548,1,0,0:0:0:0:
281,168,152881,1,0,0:0:0:0:
281,171,153214,1,0,0:0:0:0:
274,178,153548,1,8,0:0:0:0:
276,177,153881,1,0,0:0:0:0:
274,178,154214,1,0,0:0:0:0:
264,182,154548,1,0,0:0:0:0:
264,182,154881,1,8,0:0:0:0:
264,182,155048,1,0,0:0:0:0:
264,182,155214,1,0,0:0:0:0:
264,182,155381,1,0,0:0:0:0:
264,182,155548,1,8,0:0:0:0:
264,182,155714,1,0,0:0:0:0:
257,175,155881,1,0,0:0:0:0:
257,175,156048,1,0,0:0:0:0:
257,175,156214,1,8,0:0:0:0:
257,175,156381,1,0,0:0:0:0:
257,175,156548,1,0,0:0:0:0:
257,175,156714,1,0,0:0:0:0:
257,175,156881,1,8,0:0:0:0:
257,175,157048,1,0,0:0:0:0:
251,183,157214,1,0,0:0:0:0:
251,183,157381,1,0,0:0:0:0:
251,183,157548,1,8,0:0:0:0:
251,183,157631,1,0,0:0:0:0:
251,183,157714,1,0,0:0:0:0:
251,183,157798,1,0,0:0:0:0:
251,183,157881,1,8,0:0:0:0:
251,183,157964,1,0,0:0:0:0:
251,183,158048,1,0,0:0:0:0:
251,183,158131,1,0,0:0:0:0:
251,183,158214,1,8,0:0:0:0:
251,183,158298,1,0,0:0:0:0:
251,183,158381,1,0,0:0:0:0:
261,177,158464,1,0,0:0:0:0:
261,189,158548,1,8,0:0:0:0:
261,177,158631,1,0,0:0:0:0:
301,174,158714,1,0,0:0:0:0:
301,174,158798,1,0,0:0:0:0:
301,174,158881,1,8,0:0:0:0:
281,172,159881,5,12,0:0:0:0:
247,183,160214,5,4,0:0:0:0:
293,177,160381,1,8,0:0:0:0:
247,183,160548,1,0,0:0:0:0:
293,177,160631,1,0,0:0:0:0:
293,177,160714,1,8,0:0:0:0:
256,174,160881,1,0,0:0:0:0:
281,177,161048,1,8,0:0:0:0:
260,173,161214,1,0,0:0:0:0:
290,147,161298,1,0,0:0:0:0:
290,147,161381,1,8,0:0:0:0:
249,160,161548,1,0,0:0:0:0:
286,168,161714,1,8,0:0:0:0:
259,170,161881,1,0,0:0:0:0:
286,168,161964,1,0,0:0:0:0:
286,168,162048,1,8,0:0:0:0:
260,173,162214,1,0,0:0:0:0:
233,189,162298,1,0,0:0:0:0:
275,166,162381,1,8,0:0:0:0:
233,189,162464,1,8,0:0:0:0:
259,170,162548,1,0,0:0:0:0:
233,189,162714,1,8,0:0:0:0:
259,170,162881,1,0,0:0:0:0:
289,180,163048,1,8,0:0:0:0:
260,173,163214,1,0,0:0:0:0:
289,180,163298,1,0,0:0:0:0:
289,180,163381,1,8,0:0:0:0:
259,170,163548,1,0,0:0:0:0:
286,170,163714,1,8,0:0:0:0:
259,170,163881,1,0,0:0:0:0:
253,178,163964,1,0,0:0:0:0:
234,140,164048,1,8,0:0:0:0:
260,173,164214,1,0,0:0:0:0:
291,184,164381,1,8,0:0:0:0:
251,188,164548,1,0,0:0:0:0:
274,154,164631,1,0,0:0:0:0:
274,154,164714,1,8,0:0:0:0:
251,188,164881,1,0,0:0:0:0:
247,157,165048,1,8,0:0:0:0:
246,156,165089,1,8,0:0:0:0:
246,156,165214,1,8,0:0:0:0:
247,157,165256,1,8,0:0:0:0:
246,156,165381,1,8,0:0:0:0:
246,156,165423,1,8,0:0:0:0:
269,151,165548,1,0,0:0:0:0:
252,164,165714,1,8,0:0:0:0:
269,151,165881,1,0,0:0:0:0:
246,164,165964,1,0,0:0:0:0:
252,164,166048,1,8,0:0:0:0:
269,151,166214,1,0,0:0:0:0:
257,185,166381,1,8,0:0:0:0:
269,151,166548,1,0,0:0:0:0:
259,183,166631,1,0,0:0:0:0:
259,183,166714,1,8,0:0:0:0:
269,151,166881,1,0,0:0:0:0:
259,183,167048,1,8,0:0:0:0:
269,151,167214,1,0,0:0:0:0:
257,185,167298,1,0,0:0:0:0:
263,168,167381,1,8,0:0:0:0:
267,163,167548,1,0,0:0:0:0:
263,168,167631,1,0,0:0:0:0:
263,168,167714,1,8,0:0:0:0:
282,153,167798,1,8,0:0:0:0:
267,163,167881,1,0,0:0:0:0:
262,151,168048,1,8,0:0:0:0:
267,163,168214,1,0,0:0:0:0:
286,147,168381,1,8,0:0:0:0:
286,147,168464,1,8,0:0:0:0:
267,163,168548,1,8,0:0:0:0:
267,163,168714,1,0,0:0:0:0:
260,167,168881,1,8,0:0:0:0:
260,167,168964,1,8,0:0:0:0:
281,168,169048,1,8,0:0:0:0:
259,158,169214,1,0,0:0:0:0:
286,165,169548,1,8,0:0:0:0:
252,186,169714,1,0,0:0:0:0:
252,186,169798,1,0,0:0:0:0:
285,199,169881,1,8,0:0:0:0:
287,176,170048,1,0,0:0:0:0:
287,176,170131,1,8,0:0:0:0:
287,176,170214,1,0,0:0:0:0:
269,203,170298,1,0,0:0:0:0:
255,183,170381,1,8,0:0:0:0:
255,183,170548,1,0,0:0:0:0:
255,183,170631,1,8,0:0:0:0:
255,183,170714,1,8,0:0:0:0:
255,183,170881,1,4,0:0:0:0:
264,208,171048,1,8,0:0:0:0:
270,182,171214,1,0,0:0:0:0:
294,174,171298,1,0,0:0:0:0:
294,174,171381,1,8,0:0:0:0:
270,182,171548,1,0,0:0:0:0:
270,182,171714,1,8,0:0:0:0:
241,190,171881,1,0,0:0:0:0:
291,177,171964,1,0,0:0:0:0:
291,177,172048,1,8,0:0:0:0:
279,170,172214,1,0,0:0:0:0:
256,167,172381,1,8,0:0:0:0:
279,170,172548,1,8,0:0:0:0:
279,180,172631,1,8,0:0:0:0:
279,180,172714,1,0,0:0:0:0:
279,170,172881,1,8,0:0:0:0:
279,170,173048,1,0,0:0:0:0:
236,182,173131,1,0,0:0:0:0:
265,173,173214,1,8,0:0:0:0:
236,182,173298,1,0,0:0:0:0:
236,182,173381,1,8,0:0:0:0:
265,173,173548,1,0,0:0:0:0:
262,138,173714,1,8,0:0:0:0:
265,173,173881,1,0,0:0:0:0:
242,160,173964,1,0,0:0:0:0:
242,160,174048,1,8,0:0:0:0:
265,173,174214,1,0,0:0:0:0:
293,158,174381,1,8,0:0:0:0:
293,158,174548,1,0,0:0:0:0:
242,160,174631,1,0,0:0:0:0:
242,160,174714,1,8,0:0:0:0:
263,187,174881,1,0,0:0:0:0:
272,161,175048,1,8,0:0:0:0:
211,152,175131,1,8,0:0:0:0:
263,187,175214,1,0,0:0:0:0:
227,153,175298,1,0,0:0:0:0:
273,161,175381,1,8,0:0:0:0:
263,187,175548,1,0,0:0:0:0:
313,148,175714,1,8,0:0:0:0:
263,187,175756,1,8,0:0:0:0:
282,152,175881,1,8,0:0:0:0:
282,152,175923,1,8,0:0:0:0:
282,152,176048,1,8,0:0:0:0:
282,152,176089,1,8,0:0:0:0:
277,175,176214,1,0,0:0:0:0:
248,129,176381,1,8,0:0:0:0:
277,172,176548,1,0,0:0:0:0:
286,158,176631,1,0,0:0:0:0:
286,158,176714,1,8,0:0:0:0:
286,186,176881,1,0,0:0:0:0:
237,152,177048,1,8,0:0:0:0:
258,173,177214,1,0,0:0:0:0:
286,158,177298,1,0,0:0:0:0:
286,158,177381,1,8,0:0:0:0:
260,179,177548,1,0,0:0:0:0:
258,156,177714,1,8,0:0:0:0:
260,179,177881,1,8,0:0:0:0:
243,158,177964,1,0,0:0:0:0:
243,158,178048,1,8,0:0:0:0:
275,188,178214,1,0,0:0:0:0:
262,173,178381,1,8,0:0:0:0:
241,146,178464,1,8,0:0:0:0:
262,173,178548,1,0,0:0:0:0:
262,173,178714,1,8,0:0:0:0:
254,172,178881,1,0,0:0:0:0:
281,167,179048,1,8,0:0:0:0:
281,167,179131,1,8,0:0:0:0:
259,158,179214,1,8,0:0:0:0:
259,158,179381,1,0,0:0:0:0:
198,170,179548,1,8,0:0:0:0:
223,170,179631,1,8,0:0:0:0:
312,188,179714,1,8,0:0:0:0:
312,188,179881,1,0,0:0:0:0:
261,215,180214,1,8,0:0:0:0:
276,183,180381,1,0,0:0:0:0:
276,183,180464,1,0,0:0:0:0:
276,183,180548,1,8,0:0:0:0:
276,183,180714,1,0,0:0:0:0:
276,183,180798,1,8,0:0:0:0:
276,183,180881,1,0,0:0:0:0:
276,183,181048,1,8,0:0:0:0:
280,174,181214,1,4,0:0:0:0:
268,176,181548,1,0,0:0:0:0:
271,192,181714,1,8,0:0:0:0:
271,192,181798,1,8,0:0:0:0:
271,192,181881,1,0,0:0:0:0:
271,192,182048,1,8,0:0:0:0:
263,198,182131,1,8,0:0:0:0:
263,198,182214,1,0,0:0:0:0:
263,198,182298,1,8,0:0:0:0:
263,198,182464,1,8,0:0:0:0:
263,198,182548,1,0,0:0:0:0:
263,198,182631,1,0,0:0:0:0:
263,198,182714,1,8,0:0:0:0:
263,198,182798,1,8,0:0:0:0:
211,116,182881,1,0,0:0:0:0:
284,153,183048,1,8,0:0:0:0:
284,153,183131,1,0,0:0:0:0:
284,153,183214,1,8,0:0:0:0:
284,153,183298,1,8,0:0:0:0:
284,153,183381,1,0,0:0:0:0:
284,153,183464,1,8,0:0:0:0:
284,153,183548,1,0,0:0:0:0:
320,188,183714,1,8,0:0:0:0:
251,179,183881,1,0,0:0:0:0:
251,179,183964,1,0,0:0:0:0:
251,179,184048,1,8,0:0:0:0:
281,187,184214,1,0,0:0:0:0:
266,180,184381,1,8,0:0:0:0:
266,180,184464,1,8,0:0:0:0:
266,180,184548,1,0,0:0:0:0:
266,180,184714,1,8,0:0:0:0:
266,180,184798,1,8,0:0:0:0:
266,180,184881,1,0,0:0:0:0:
266,180,184964,1,8,0:0:0:0:
266,180,185131,1,8,0:0:0:0:
256,173,185214,1,0,0:0:0:0:
259,178,185298,1,8,0:0:0:0:
259,178,185381,1,0,0:0:0:0:
281,156,185464,1,0,0:0:0:0:
281,156,185548,1,8,0:0:0:0:
263,174,185714,1,0,0:0:0:0:
262,175,185798,1,0,0:0:0:0:
278,185,185881,1,8,0:0:0:0:
278,185,185964,1,8,0:0:0:0:
278,185,186048,1,0,0:0:0:0:
264,179,186214,1,0,0:0:0:0:
290,156,186381,1,8,0:0:0:0:
264,173,186423,1,8,0:0:0:0:
282,158,186548,1,8,0:0:0:0:
281,156,186589,1,8,0:0:0:0:
282,158,186714,1,8,0:0:0:0:
282,158,186756,1,8,0:0:0:0:
287,179,186881,1,0,0:0:0:0:
287,179,187048,1,8,0:0:0:0:
287,179,187131,1,8,0:0:0:0:
287,179,187214,1,0,0:0:0:0:
287,179,187381,1,8,0:0:0:0:
287,179,187464,1,8,0:0:0:0:
287,179,187548,1,0,0:0:0:0:
287,179,187631,1,8,0:0:0:0:
287,179,187798,1,8,0:0:0:0:
287,179,187881,1,0,0:0:0:0:
287,179,187964,1,8,0:0:0:0:
276,173,188131,1,8,0:0:0:0:
276,173,188214,1,0,0:0:0:0:
266,173,188381,1,0,0:0:0:0:
236,138,188464,1,0,0:0:0:0:
236,138,188548,1,8,0:0:0:0:
266,173,188631,1,0,0:0:0:0:
317,180,188714,1,8,0:0:0:0:
256,173,188881,1,8,0:0:0:0:
271,151,188964,1,8,0:0:0:0:
271,151,189048,1,0,0:0:0:0:
276,173,189214,1,8,0:0:0:0:
266,173,189381,1,0,0:0:0:0:
277,173,189548,1,4,0:0:0:0:
277,173,189714,1,0,0:0:0:0:
277,173,189798,1,0,0:0:0:0:
277,173,189881,1,8,0:0:0:0:
277,173,190048,1,4,0:0:0:0:
297,172,190214,1,0,0:0:0:0:
267,181,190298,1,0,0:0:0:0:
247,168,190381,1,8,0:0:0:0:
257,194,190548,1,8,0:0:0:0:
257,194,190631,1,8,0:0:0:0:
257,194,190714,1,0,0:0:0:0:
257,194,190881,1,8,0:0:0:0:
257,194,191048,1,0,0:0:0:0:
257,194,191131,1,0,0:0:0:0:
257,194,191214,1,8,0:0:0:0:
257,194,191381,1,0,0:0:0:0:
257,194,191464,1,8,0:0:0:0:
257,194,191548,1,0,0:0:0:0:
257,194,191631,1,0,0:0:0:0:
257,194,191714,1,8,0:0:0:0:
257,173,191881,1,0,0:0:0:0:
257,173,191964,1,8,0:0:0:0:
257,173,192048,1,8,0:0:0:0:
257,194,192214,1,4,0:0:0:0:
271,192,192381,1,8,0:0:0:0:
271,192,192464,1,8,0:0:0:0:
271,192,192548,1,0,0:0:0:0:
271,192,192714,1,8,0:0:0:0:
263,198,192798,1,8,0:0:0:0:
263,198,192881,1,0,0:0:0:0:
263,198,192964,1,8,0:0:0:0:
263,198,193131,1,8,0:0:0:0:
263,198,193214,1,0,0:0:0:0:
263,198,193298,1,0,0:0:0:0:
263,198,193381,1,8,0:0:0:0:
263,198,193464,1,8,0:0:0:0:
211,116,193548,1,0,0:0:0:0:
284,153,193714,1,8,0:0:0:0:
284,153,193798,1,0,0:0:0:0:
284,153,193881,1,8,0:0:0:0:
284,153,193964,1,8,0:0:0:0:
284,153,194048,1,0,0:0:0:0:
284,153,194131,1,8,0:0:0:0:
284,153,194214,1,0,0:0:0:0:
320,188,194381,1,8,0:0:0:0:
251,179,194548,1,0,0:0:0:0:
251,179,194631,1,0,0:0:0:0:
251,179,194714,1,8,0:0:0:0:
281,187,194881,1,0,0:0:0:0:
266,180,195048,1,8,0:0:0:0:
266,180,195131,1,8,0:0:0:0:
266,180,195214,1,0,0:0:0:0:
266,180,195381,1,8,0:0:0:0:
266,180,195464,1,8,0:0:0:0:
266,180,195548,1,0,0:0:0:0:
266,180,195631,1,8,0:0:0:0:
266,180,195798,1,8,0:0:0:0:
256,173,195881,1,0,0:0:0:0:
259,178,195964,1,8,0:0:0:0:
259,178,196048,1,0,0:0:0:0:
281,156,196131,1,0,0:0:0:0:
281,156,196214,1,8,0:0:0:0:
263,174,196381,1,0,0:0:0:0:
262,175,196464,1,0,0:0:0:0:
278,185,196548,1,8,0:0:0:0:
278,185,196631,1,8,0:0:0:0:
278,185,196714,1,0,0:0:0:0:
264,179,196881,1,0,0:0:0:0:
264,173,197048,1,8,0:0:0:0:
290,156,197089,1,8,0:0:0:0:
282,158,197214,1,8,0:0:0:0:
281,156,197256,1,8,0:0:0:0:
282,158,197381,1,8,0:0:0:0:
282,158,197423,1,8,0:0:0:0:
287,179,197548,1,0,0:0:0:0:
287,179,197714,1,8,0:0:0:0:
287,179,197798,1,8,0:0:0:0:
287,179,197881,1,0,0:0:0:0:
287,179,198048,1,8,0:0:0:0:
287,179,198131,1,8,0:0:0:0:
287,179,198214,1,0,0:0:0:0:
287,179,198298,1,8,0:0:0:0:
287,179,198464,1,8,0:0:0:0:
287,179,198548,1,0,0:0:0:0:
287,179,198631,1,8,0:0:0:0:
276,173,198798,1,8,0:0:0:0:
276,173,198881,1,0,0:0:0:0:
266,173,199048,1,0,0:0:0:0:
236,138,199131,1,0,0:0:0:0:
236,138,199214,1,8,0:0:0:0:
266,173,199298,1,0,0:0:0:0:
317,180,199381,1,8,0:0:0:0:
256,173,199548,1,8,0:0:0:0:
271,151,199631,1,8,0:0:0:0:
271,151,199714,1,0,0:0:0:0:
276,173,199881,1,8,0:0:0:0:
246,170,200048,1,0,0:0:0:0:
277,173,200214,1,4,0:0:0:0:
277,173,200381,1,0,0:0:0:0:
277,173,200464,1,0,0:0:0:0:
277,173,200548,1,8,0:0:0:0:
277,173,200714,1,4,0:0:0:0:
297,172,200881,1,0,0:0:0:0:
267,181,200964,1,0,0:0:0:0:
247,168,201048,1,8,0:0:0:0:
257,194,201214,1,8,0:0:0:0:
257,194,201298,1,8,0:0:0:0:
257,194,201381,1,0,0:0:0:0:
269,184,201548,1,8,0:0:0:0:
269,184,201714,1,0,0:0:0:0:
267,181,201798,1,0,0:0:0:0:
267,181,201881,1,8,0:0:0:0:
269,184,202048,1,0,0:0:0:0:
269,184,202131,1,8,0:0:0:0:
269,184,202214,1,0,0:0:0:0:
269,184,202381,1,8,0:0:0:0:
269,184,202548,1,0,0:0:0:0:
267,181,202881,1,4,0:0:0:0:
262,178,203048,1,0,0:0:0:0:
262,178,203131,1,0,0:0:0:0:
258,184,203214,1,8,0:0:0:0:
252,178,203381,1,0,0:0:0:0:
258,184,203464,1,0,0:0:0:0:
252,178,203631,1,8,0:0:0:0:
252,178,203714,1,0,0:0:0:0:
252,178,203798,1,0,0:0:0:0:
252,178,203881,1,8,0:0:0:0:
252,178,204048,1,0,0:0:0:0:
252,178,204131,1,8,0:0:0:0:
252,178,204214,1,0,0:0:0:0:
252,178,204381,1,0,0:0:0:0:
272,193,204548,1,8,0:0:0:0:
272,193,204714,1,0,0:0:0:0:
272,193,204798,1,0,0:0:0:0:
246,193,204964,1,8,0:0:0:0:
246,193,205048,1,0,0:0:0:0:
265,186,205131,1,0,0:0:0:0:
265,186,205214,1,8,0:0:0:0:
265,186,205298,1,8,0:0:0:0:
265,186,205381,1,0,0:0:0:0:
265,186,205464,1,8,0:0:0:0:
265,186,205548,1,0,0:0:0:0:
258,195,205714,1,0,0:0:0:0:
271,187,205881,1,8,0:0:0:0:
271,187,206048,1,0,0:0:0:0:
258,195,206131,1,0,0:0:0:0:
258,195,206298,1,8,0:0:0:0:
258,195,206381,1,0,0:0:0:0:
258,195,206464,1,0,0:0:0:0:
258,195,206548,1,8,0:0:0:0:
258,195,206714,1,0,0:0:0:0:
258,195,206798,1,8,0:0:0:0:
258,195,206881,1,0,0:0:0:0:
258,195,207048,1,0,0:0:0:0:
258,195,207214,1,8,0:0:0:0:
252,171,207381,1,0,0:0:0:0:
252,171,207464,1,0,0:0:0:0:
252,171,207631,1,8,0:0:0:0:
252,171,207714,1,0,0:0:0:0:
252,171,207798,1,0,0:0:0:0:
252,171,207881,1,8,0:0:0:0:
252,171,207964,1,0,0:0:0:0:
252,171,208048,1,8,0:0:0:0:
252,171,208131,1,8,0:0:0:0:
252,171,208214,1,0,0:0:0:0:
261,161,208381,1,0,0:0:0:0:
261,161,208548,1,8,0:0:0:0:
261,161,208714,1,0,0:0:0:0:
261,161,208798,1,0,0:0:0:0:
252,171,208964,1,8,0:0:0:0:
252,171,209048,1,0,0:0:0:0:
252,171,209131,1,0,0:0:0:0:
252,171,209214,1,8,0:0:0:0:
251,174,209381,1,0,0:0:0:0:
251,174,209464,1,8,0:0:0:0:
251,174,209548,1,8,0:0:0:0:
251,174,209714,1,0,0:0:0:0:
252,171,209881,1,8,0:0:0:0:
251,174,210048,1,8,0:0:0:0:
268,163,210131,1,0,0:0:0:0:
268,163,210298,1,8,0:0:0:0:
268,163,210381,1,8,0:0:0:0:
268,163,210464,1,0,0:0:0:0:
268,163,210548,1,8,0:0:0:0:
268,163,210631,1,0,0:0:0:0:
268,163,210714,1,8,0:0:0:0:
268,163,210798,1,8,0:0:0:0:
268,163,210881,1,0,0:0:0:0:
299,174,211048,1,0,0:0:0:0:
299,174,211214,1,8,0:0:0:0:
291,180,211381,1,0,0:0:0:0:
291,180,211464,1,0,0:0:0:0:
301,203,211631,1,8,0:0:0:0:
301,203,211714,1,0,0:0:0:0:
301,203,211798,1,0,0:0:0:0:
301,203,211881,1,8,0:0:0:0:
269,182,212048,1,0,0:0:0:0:
269,182,212131,1,8,0:0:0:0:
269,182,212214,1,8,0:0:0:0:
269,182,212381,1,0,0:0:0:0:
269,182,212548,1,8,0:0:0:0:
269,182,212714,1,8,0:0:0:0:
269,182,212798,1,0,0:0:0:0:
246,199,212964,1,8,0:0:0:0:
246,199,213048,1,8,0:0:0:0:
246,199,213131,1,0,0:0:0:0:
246,199,213214,1,8,0:0:0:0:
246,199,213298,1,8,0:0:0:0:
246,199,213381,1,0,0:0:0:0:
246,199,213464,1,8,0:0:0:0:
246,199,213548,1,0,0:0:0:0:
270,148,213881,1,8,0:0:0:0:
252,178,214048,1,0,0:0:0:0:
258,184,214131,1,0,0:0:0:0:
252,178,214298,1,8,0:0:0:0:
252,178,214381,1,0,0:0:0:0:
252,178,214464,1,0,0:0:0:0:
252,178,214548,1,8,0:0:0:0:
252,178,214714,1,0,0:0:0:0:
252,178,214798,1,8,0:0:0:0:
252,178,214881,1,0,0:0:0:0:
252,178,215048,1,0,0:0:0:0:
272,193,215214,1,8,0:0:0:0:
272,193,215381,1,0,0:0:0:0:
272,193,215464,1,0,0:0:0:0:
246,193,215631,1,8,0:0:0:0:
246,193,215714,1,0,0:0:0:0:
265,186,215798,1,0,0:0:0:0:
265,186,215881,1,8,0:0:0:0:
265,186,215964,1,8,0:0:0:0:
265,186,216048,1,0,0:0:0:0:
265,186,216131,1,8,0:0:0:0:
265,186,216214,1,0,0:0:0:0:
258,195,216381,1,0,0:0:0:0:
271,187,216548,1,8,0:0:0:0:
271,187,216714,1,0,0:0:0:0:
258,195,216798,1,0,0:0:0:0:
258,195,216964,1,8,0:0:0:0:
258,195,217048,1,0,0:0:0:0:
258,195,217131,1,0,0:0:0:0:
258,195,217214,1,8,0:0:0:0:
258,195,217381,1,0,0:0:0:0:
258,195,217464,1,8,0:0:0:0:
258,195,217548,1,0,0:0:0:0:
258,195,217714,1,0,0:0:0:0:
258,195,217881,1,8,0:0:0:0:
252,171,218048,1,0,0:0:0:0:
252,171,218131,1,0,0:0:0:0:
252,171,218298,1,8,0:0:0:0:
252,171,218381,1,0,0:0:0:0:
252,171,218464,1,0,0:0:0:0:
252,171,218548,1,8,0:0:0:0:
252,171,218631,1,0,0:0:0:0:
252,171,218714,1,8,0:0:0:0:
252,171,218798,1,8,0:0:0:0:
252,171,218881,1,0,0:0:0:0:
261,161,219048,1,0,0:0:0:0:
261,161,219214,1,8,0:0:0:0:
261,161,219381,1,0,0:0:0:0:
261,161,219464,1,0,0:0:0:0:
252,171,219631,1,8,0:0:0:0:
252,171,219714,1,0,0:0:0:0:
252,171,219798,1,0,0:0:0:0:
252,171,219881,1,8,0:0:0:0:
251,174,220048,1,0,0:0:0:0:
251,174,220131,1,8,0:0:0:0:
251,174,220214,1,8,0:0:0:0:
251,174,220381,1,0,0:0:0:0:
252,171,220548,1,8,0:0:0:0:
251,174,220714,1,8,0:0:0:0:
268,163,220798,1,0,0:0:0:0:
268,163,220964,1,8,0:0:0:0:
268,163,221048,1,8,0:0:0:0:
268,163,221131,1,0,0:0:0:0:
268,163,221214,1,8,0:0:0:0:
268,163,221298,1,0,0:0:0:0:
268,163,221381,1,8,0:0:0:0:
268,163,221464,1,8,0:0:0:0:
268,163,221548,1,0,0:0:0:0:
299,174,221714,1,0,0:0:0:0:
299,174,221881,1,8,0:0:0:0:
291,180,222048,1,0,0:0:0:0:
291,180,222131,1,0,0:0:0:0:
301,203,222298,1,8,0:0:0:0:
301,203,222381,1,0,0:0:0:0:
301,203,222464,1,0,0:0:0:0:
301,203,222548,1,8,0:0:0:0:
259,175,222714,1,0,0:0:0:0:
269,182,222798,1,8,0:0:0:0:
269,182,222881,1,8,0:0:0:0:
255,171,223048,1,0,0:0:0:0:
255,171,223131,1,0,0:0:0:0:
255,171,223214,1,0,0:0:0:0:
255,171,223381,1,8,0:0:0:0:
300,181,223548,1,0,0:0:0:0:
271,173,223631,1,0,0:0:0:0:
319,142,223714,1,8,0:0:0:0:
287,182,223770,1,8,0:0:0:0:
266,199,223826,1,8,0:0:0:0:
287,182,223881,1,8,0:0:0:0:
287,182,224048,1,8,0:0:0:0:
275,184,224214,1,4,0:0:0:0:
271,209,224381,1,0,0:0:0:0:
193,176,224464,1,0,0:0:0:0:
281,173,224548,1,8,0:0:0:0:
281,173,224631,1,8,0:0:0:0:
281,173,224714,1,0,0:0:0:0:
240,166,224798,1,8,0:0:0:0:
257,155,224881,1,0,0:0:0:0:
244,175,224964,1,8,0:0:0:0:
244,175,225048,1,8,0:0:0:0:
244,175,225131,1,0,0:0:0:0:
244,175,225214,1,8,0:0:0:0:
198,188,225298,1,0,0:0:0:0:
244,175,225381,1,0,0:0:0:0:
244,175,225464,1,8,0:0:0:0:
244,175,225548,1,0,0:0:0:0:
257,163,225631,1,8,0:0:0:0:
244,175,225714,1,8,0:0:0:0:
288,212,225798,1,0,0:0:0:0:
261,176,225881,1,8,0:0:0:0:
261,176,225964,1,0,0:0:0:0:
261,176,226048,1,0,0:0:0:0:
261,176,226131,1,8,0:0:0:0:
233,190,226214,1,0,0:0:0:0:
269,177,226298,1,8,0:0:0:0:
269,177,226381,1,8,0:0:0:0:
269,177,226464,1,0,0:0:0:0:
269,177,226548,1,8,0:0:0:0:
269,177,226631,1,0,0:0:0:0:
269,177,226714,1,8,0:0:0:0:
269,177,226798,1,8,0:0:0:0:
269,177,226881,1,0,0:0:0:0:
269,177,227048,1,8,0:0:0:0:
335,167,227131,1,0,0:0:0:0:
300,175,227214,1,8,0:0:0:0:
300,175,227298,1,8,0:0:0:0:
300,175,227381,1,0,0:0:0:0:
300,175,227464,1,8,0:0:0:0:
275,180,227548,1,0,0:0:0:0:
260,171,227631,1,8,0:0:0:0:
272,194,227714,1,8,0:0:0:0:
273,171,227798,1,0,0:0:0:0:
273,171,227881,1,8,0:0:0:0:
220,222,227964,1,8,0:0:0:0:
273,171,228048,1,0,0:0:0:0:
266,181,228131,1,8,0:0:0:0:
266,181,228214,1,0,0:0:0:0:
279,199,228298,1,0,0:0:0:0:
291,159,228381,1,8,0:0:0:0:
258,185,228464,1,0,0:0:0:0:
258,185,228548,1,8,0:0:0:0:
258,185,228631,1,8,0:0:0:0:
258,185,228714,1,0,0:0:0:0:
258,185,228798,1,8,0:0:0:0:
266,164,228881,1,0,0:0:0:0:
258,185,228964,1,8,0:0:0:0:
248,179,229048,1,8,0:0:0:0:
251,193,229131,1,0,0:0:0:0:
251,193,229214,1,8,0:0:0:0:
285,171,229298,1,0,0:0:0:0:
285,171,229381,1,8,0:0:0:0:
285,171,229464,1,8,0:0:0:0:
285,171,229548,1,0,0:0:0:0:
295,161,229714,1,0,0:0:0:0:
281,155,229798,1,0,0:0:0:0:
295,161,229881,1,8,0:0:0:0:
266,179,229964,1,8,0:0:0:0:
266,179,230048,1,0,0:0:0:0:
266,179,230131,1,8,0:0:0:0:
273,162,230214,1,0,0:0:0:0:
266,179,230298,1,8,0:0:0:0:
266,179,230381,1,8,0:0:0:0:
266,179,230464,1,0,0:0:0:0:
266,179,230548,1,8,0:0:0:0:
287,183,230631,1,8,0:0:0:0:
274,172,230714,1,0,0:0:0:0:
274,172,230798,1,8,0:0:0:0:
221,188,230881,1,0,0:0:0:0:
287,183,230964,1,8,0:0:0:0:
263,165,231048,1,0,0:0:0:0:
263,165,231131,1,0,0:0:0:0:
263,165,231214,1,8,0:0:0:0:
278,183,231298,1,8,0:0:0:0:
278,183,231381,1,0,0:0:0:0:
278,183,231464,1,8,0:0:0:0:
287,183,231548,1,0,0:0:0:0:
281,168,231631,1,8,0:0:0:0:
281,168,231714,1,8,0:0:0:0:
281,168,231798,1,0,0:0:0:0:
281,168,231881,1,8,0:0:0:0:
281,168,231964,1,0,0:0:0:0:
281,168,232048,1,8,0:0:0:0:
281,168,232131,1,8,0:0:0:0:
281,168,232214,1,0,0:0:0:0:
286,186,232381,1,8,0:0:0:0:
252,167,232464,1,0,0:0:0:0:
286,186,232548,1,8,0:0:0:0:
266,183,232631,1,8,0:0:0:0:
266,183,232714,1,0,0:0:0:0:
266,183,232798,1,8,0:0:0:0:
252,167,232881,1,0,0:0:0:0:
266,183,232964,1,8,0:0:0:0:
235,169,233048,1,0,0:0:0:0:
235,169,233131,1,0,0:0:0:0:
235,169,233214,1,8,0:0:0:0:
252,167,233298,1,0,0:0:0:0:
235,169,233381,1,0,0:0:0:0:
235,169,233464,1,8,0:0:0:0:
235,169,233548,1,8,0:0:0:0:
249,168,233631,1,0,0:0:0:0:
286,154,233714,1,8,0:0:0:0:
286,154,233798,1,0,0:0:0:0:
286,154,233881,1,8,0:0:0:0:
286,154,233964,1,8,0:0:0:0:
286,154,234048,1,0,0:0:0:0:
286,154,234131,1,8,0:0:0:0:
249,168,234214,1,0,0:0:0:0:
266,166,234298,1,8,0:0:0:0:
249,163,234381,1,8,0:0:0:0:
249,163,234464,1,0,0:0:0:0:
249,163,234548,1,8,0:0:0:0:
249,163,234631,1,0,0:0:0:0:
249,163,234714,1,8,0:0:0:0:
219,208,234798,1,8,0:0:0:0:
219,208,234881,1,0,0:0:0:0:
271,209,235048,1,0,0:0:0:0:
193,176,235131,1,0,0:0:0:0:
281,173,235215,1,8,0:0:0:0:
281,173,235298,1,0,0:0:0:0:
281,173,235381,1,8,0:0:0:0:
240,166,235465,1,8,0:0:0:0:
257,155,235548,1,0,0:0:0:0:
244,175,235631,1,8,0:0:0:0:
244,175,235715,1,8,0:0:0:0:
244,175,235798,1,0,0:0:0:0:
244,175,235881,1,8,0:0:0:0:
198,188,235965,1,0,0:0:0:0:
244,175,236048,1,8,0:0:0:0:
244,175,236131,1,8,0:0:0:0:
244,175,236215,1,0,0:0:0:0:
257,163,236298,1,8,0:0:0:0:
244,175,236381,1,0,0:0:0:0:
288,212,236465,1,0,0:0:0:0:
261,176,236548,1,8,0:0:0:0:
261,176,236631,1,8,0:0:0:0:
261,176,236715,1,0,0:0:0:0:
261,176,236798,1,8,0:0:0:0:
233,190,236881,1,0,0:0:0:0:
269,177,236965,1,8,0:0:0:0:
269,177,237048,1,8,0:0:0:0:
269,177,237131,1,0,0:0:0:0:
269,177,237215,1,8,0:0:0:0:
269,177,237298,1,0,0:0:0:0:
269,177,237381,1,8,0:0:0:0:
269,177,237465,1,8,0:0:0:0:
269,177,237548,1,0,0:0:0:0:
269,177,237714,1,8,0:0:0:0:
335,167,237798,1,0,0:0:0:0:
300,175,237881,1,8,0:0:0:0:
300,175,237964,1,8,0:0:0:0:
300,175,238048,1,0,0:0:0:0:
300,175,238131,1,8,0:0:0:0:
275,180,238214,1,8,0:0:0:0:
260,171,238297,1,0,0:0:0:0:
272,194,238380,1,8,0:0:0:0:
273,171,238464,1,0,0:0:0:0:
273,171,238547,1,8,0:0:0:0:
220,222,238630,1,8,0:0:0:0:
273,171,238714,1,0,0:0:0:0:
266,181,238798,1,8,0:0:0:0:
266,181,238881,1,0,0:0:0:0:
279,199,238964,1,0,0:0:0:0:
291,159,239047,1,8,0:0:0:0:
258,185,239130,1,0,0:0:0:0:
258,185,239214,1,8,0:0:0:0:
258,185,239298,1,0,0:0:0:0:
258,185,239381,1,0,0:0:0:0:
258,185,239464,1,8,0:0:0:0:
266,164,239548,1,0,0:0:0:0:
258,185,239631,1,8,0:0:0:0:
248,179,239714,1,8,0:0:0:0:
251,193,239798,1,0,0:0:0:0:
251,193,239881,1,8,0:0:0:0:
285,171,239964,1,0,0:0:0:0:
285,171,240048,1,8,0:0:0:0:
285,171,240131,1,8,0:0:0:0:
285,171,240214,1,0,0:0:0:0:
295,161,240381,1,0,0:0:0:0:
281,155,240464,1,0,0:0:0:0:
295,161,240548,1,8,0:0:0:0:
266,179,240631,1,0,0:0:0:0:
266,179,240715,1,8,0:0:0:0:
266,179,240798,1,8,0:0:0:0:
273,162,240881,1,0,0:0:0:0:
266,179,240965,1,8,0:0:0:0:
266,179,241048,1,8,0:0:0:0:
266,179,241131,1,0,0:0:0:0:
266,179,241215,1,8,0:0:0:0:
287,183,241298,1,0,0:0:0:0:
274,172,241381,1,0,0:0:0:0:
274,172,241465,1,8,0:0:0:0:
221,188,241548,1,8,0:0:0:0:
287,183,241631,1,0,0:0:0:0:
263,165,241715,1,8,0:0:0:0:
263,165,241798,1,0,0:0:0:0:
263,165,241881,1,8,0:0:0:0:
278,183,241965,1,8,0:0:0:0:
278,183,242048,1,0,0:0:0:0:
278,183,242131,1,8,0:0:0:0:
287,183,242215,1,0,0:0:0:0:
281,168,242298,1,8,0:0:0:0:
281,168,242381,1,8,0:0:0:0:
281,168,242465,1,0,0:0:0:0:
281,168,242548,1,8,0:0:0:0:
281,168,242631,1,0,0:0:0:0:
281,168,242715,1,8,0:0:0:0:
281,168,242798,1,8,0:0:0:0:
281,168,242881,1,0,0:0:0:0:
286,186,243048,1,8,0:0:0:0:
252,167,243131,1,0,0:0:0:0:
286,186,243215,1,8,0:0:0:0:
266,183,243298,1,8,0:0:0:0:
266,183,243381,1,0,0:0:0:0:
266,183,243464,1,8,0:0:0:0:
252,167,243548,1,0,0:0:0:0:
266,183,243631,1,8,0:0:0:0:
235,169,243715,1,8,0:0:0:0:
235,169,243798,1,0,0:0:0:0:
235,169,243881,1,8,0:0:0:0:
252,167,243965,1,0,0:0:0:0:
235,169,244048,5,0,0:0:0:0:
235,169,244131,1,8,0:0:0:0:
235,169,244215,1,8,0:0:0:0:
249,168,244298,1,0,0:0:0:0:
286,154,244381,1,8,0:0:0:0:
286,154,244465,1,0,0:0:0:0:
286,154,244548,1,8,0:0:0:0:
286,154,244631,1,8,0:0:0:0:
286,154,244715,1,0,0:0:0:0:
286,154,244798,1,8,0:0:0:0:
249,168,244881,1,0,0:0:0:0:
266,166,244965,1,0,0:0:0:0:
249,163,245048,1,8,0:0:0:0:
281,178,245214,1,12,0:0:0:0:
281,178,245548,1,4,0:0:0:0:
274,200,246714,1,0,0:0:0:0:
274,200,246881,1,0,0:0:0:0:
271,160,248214,5,0,0:0:0:0:
258,194,249381,1,0,0:0:0:0:
258,194,249548,1,0,0:0:0:0:
258,195,250881,1,8,0:0:0:0:
258,195,252048,1,8,0:0:0:0:
258,195,252214,1,8,0:0:0:0:
251,249,253548,1,8,0:0:0:0:
233,206,254714,1,8,0:0:0:0:
233,206,254881,1,8,0:0:0:0:
233,206,256214,1,0,0:0:0:0:
233,206,257381,1,0,0:0:0:0:
233,206,257548,1,0,0:0:0:0:
233,206,258881,1,0,0:0:0:0:
233,206,260048,1,0,0:0:0:0:
233,206,260214,1,0,0:0:0:0:
275,170,261548,1,8,0:0:0:0:
275,170,262714,1,8,0:0:0:0:
275,170,262881,1,8,0:0:0:0:
275,170,264214,1,8,0:0:0:0:
275,170,265381,1,8,0:0:0:0:
275,170,265548,1,8,0:0:0:0:
275,170,266214,1,0,0:0:0:0:
255,168,266881,1,8,0:0:0:0:
245,170,267214,1,0,0:0:0:0:
231,153,267548,1,0,0:0:0:0:
245,170,267881,1,0,0:0:0:0:
245,170,268214,1,8,0:0:0:0:
245,170,268548,1,0,0:0:0:0:
245,170,268881,1,0,0:0:0:0:
245,170,269214,1,0,0:0:0:0:
245,170,269548,1,8,0:0:0:0:
301,201,269881,1,0,0:0:0:0:
281,190,270214,1,0,0:0:0:0:
281,190,270548,1,0,0:0:0:0:
281,190,270881,1,8,0:0:0:0:
281,190,271214,1,0,0:0:0:0:
281,190,271548,1,0,0:0:0:0:
260,155,271881,1,0,0:0:0:0:
260,155,272214,1,8,0:0:0:0:
260,155,272381,1,0,0:0:0:0:
260,155,272548,1,0,0:0:0:0:
260,155,272714,1,0,0:0:0:0:
260,155,272881,1,8,0:0:0:0:
260,155,273048,1,0,0:0:0:0:
260,155,273214,1,0,0:0:0:0:
260,155,273381,1,0,0:0:0:0:
260,155,273548,1,8,0:0:0:0:
260,155,273714,1,0,0:0:0:0:
260,155,273881,1,0,0:0:0:0:
260,155,274048,1,0,0:0:0:0:
260,155,274214,1,8,0:0:0:0:
260,155,274381,1,0,0:0:0:0:
260,155,274548,1,0,0:0:0:0:
260,155,274714,1,0,0:0:0:0:
260,155,274881,1,8,0:0:0:0:
260,155,274964,1,0,0:0:0:0:
260,155,275048,1,0,0:0:0:0:
260,155,275131,1,0,0:0:0:0:
260,155,275214,1,8,0:0:0:0:
260,155,275298,1,0,0:0:0:0:
260,155,275381,1,0,0:0:0:0:
260,155,275464,1,0,0:0:0:0:
260,155,275548,1,8,0:0:0:0:
260,155,275631,1,0,0:0:0:0:
260,155,275714,1,0,0:0:0:0:
260,155,275798,1,0,0:0:0:0:
260,155,275881,1,8,0:0:0:0:
260,155,275964,1,0,0:0:0:0:
260,155,276048,1,0,0:0:0:0:
260,155,276131,1,0,0:0:0:0:
260,155,276214,1,8,0:0:0:0:
260,155,277214,1,12,0:0:0:0:
260,155,277548,1,4,0:0:0:0:
260,155,278714,1,8,0:0:0:0:
260,155,280214,1,0,0:0:0:0:
260,155,281381,1,0,0:0:0:0:
260,155,282881,1,8,0:0:0:0:
249,139,284048,1,8,0:0:0:0:
261,173,285548,1,0,0:0:0:0:
261,173,286714,1,0,0:0:0:0:
250,185,287548,1,8,0:0:0:0:
250,185,287881,1,0,0:0:0:0:
250,185,288214,1,8,0:0:0:0:
250,185,289381,1,8,0:0:0:0:
267,177,290881,1,0,0:0:0:0:
267,177,292048,1,0,0:0:0:0:
297,194,293548,1,8,0:0:0:0:
299,169,294714,1,8,0:0:0:0:
252,183,296214,1,0,0:0:0:0:
252,183,297381,1,0,0:0:0:0:
252,183,298548,1,12,0:0:0:0:
252,183,298881,1,4,0:0:0:0:
252,183,299548,1,4,0:0:0:0:
252,183,300214,1,4,0:0:0:0:
252,183,300881,1,4,0:0:0:0:
252,183,301214,1,12,0:0:0:0:
256,188,301548,1,0,0:0:0:0:
253,174,301714,1,0,0:0:0:0:
252,166,301798,1,0,0:0:0:0:
261,171,301881,1,8,0:0:0:0:
256,157,301964,1,8,0:0:0:0:
274,172,302131,1,8,0:0:0:0:
266,161,302214,1,0,0:0:0:0:
259,162,302298,1,8,0:0:0:0:
263,167,302381,1,0,0:0:0:0:
304,172,302464,1,0,0:0:0:0:
294,150,302548,1,8,0:0:0:0:
253,174,302714,1,0,0:0:0:0:
266,161,302798,1,8,0:0:0:0:
266,161,302881,1,0,0:0:0:0:
261,171,303214,1,8,0:0:0:0:
267,168,303381,1,0,0:0:0:0:
311,220,303464,1,8,0:0:0:0:
267,168,303548,1,8,0:0:0:0:
261,176,303631,1,0,0:0:0:0:
261,176,303714,1,0,0:0:0:0:
300,165,303798,1,8,0:0:0:0:
300,165,303881,1,0,0:0:0:0:
300,165,303964,1,0,0:0:0:0:
300,165,304048,1,8,0:0:0:0:
261,164,304214,1,0,0:0:0:0:
261,164,304381,1,0,0:0:0:0:
261,164,304464,1,0,0:0:0:0:
261,164,304548,1,8,0:0:0:0:
261,164,304631,1,8,0:0:0:0:
300,165,304798,1,8,0:0:0:0:
261,164,304881,1,0,0:0:0:0:
261,164,304964,1,8,0:0:0:0:
261,164,305048,1,0,0:0:0:0:
247,174,305131,1,0,0:0:0:0:
261,164,305214,1,8,0:0:0:0:
262,170,305381,1,8,0:0:0:0:
262,170,305464,1,8,0:0:0:0:
262,170,305548,1,0,0:0:0:0:
269,177,305881,1,8,0:0:0:0:
269,177,306131,1,0,0:0:0:0:
244,169,306214,1,0,0:0:0:0:
269,177,306298,1,8,0:0:0:0:
269,177,306381,1,0,0:0:0:0:
269,177,306464,1,0,0:0:0:0:
269,177,306548,1,8,0:0:0:0:
269,177,306881,1,4,0:0:0:0:
261,172,307214,1,8,0:0:0:0:
252,176,307381,1,4,0:0:0:0:
254,175,307714,1,8,0:0:0:0:
254,175,307881,1,8,0:0:0:0:
254,175,308214,1,8,0:0:0:0:
252,176,308298,1,8,0:0:0:0:
252,176,308381,1,0,0:0:0:0:
254,175,308464,1,8,0:0:0:0:
254,175,308548,1,0,0:0:0:0:
254,175,308631,1,0,0:0:0:0:
254,175,308714,1,8,0:0:0:0:
254,175,308798,1,8,0:0:0:0:
254,175,308881,1,0,0:0:0:0:
254,175,308964,1,8,0:0:0:0:
254,175,309048,1,0,0:0:0:0:
254,175,309131,1,0,0:0:0:0:
254,175,309214,1,8,0:0:0:0:
254,175,309548,1,4,0:0:0:0:
283,162,309714,1,0,0:0:0:0:
283,162,309798,1,0,0:0:0:0:
261,171,309881,1,8,0:0:0:0:
261,171,309964,1,8,0:0:0:0:
274,172,310131,1,8,0:0:0:0:
267,174,310214,1,0,0:0:0:0:
266,161,310298,1,8,0:0:0:0:
273,155,310381,1,0,0:0:0:0:
304,172,310464,1,0,0:0:0:0:
294,150,310548,1,8,0:0:0:0:
284,168,310714,1,8,0:0:0:0:
266,161,310798,1,8,0:0:0:0:
266,161,310881,1,0,0:0:0:0:
261,171,311214,1,8,0:0:0:0:
267,168,311381,1,0,0:0:0:0:
311,220,311464,1,0,0:0:0:0:
298,145,311631,1,8,0:0:0:0:
298,145,311714,1,0,0:0:0:0:
298,145,311798,1,0,0:0:0:0:
298,145,311881,1,8,0:0:0:0:
261,164,312214,1,0,0:0:0:0:
261,164,312381,1,0,0:0:0:0:
261,164,312464,1,0,0:0:0:0:
261,164,312548,1,8,0:0:0:0:
261,164,312631,1,8,0:0:0:0:
247,174,312798,1,8,0:0:0:0:
261,164,312881,1,0,0:0:0:0:
261,164,312964,1,8,0:0:0:0:
261,164,313048,1,0,0:0:0:0:
247,174,313131,1,0,0:0:0:0:
261,164,313214,1,8,0:0:0:0:
262,170,313381,1,8,0:0:0:0:
262,170,313464,1,8,0:0:0:0:
262,170,313548,1,0,0:0:0:0:
269,177,313881,1,8,0:0:0:0:
244,169,314048,1,0,0:0:0:0:
269,177,314131,1,0,0:0:0:0:
291,130,314214,1,8,0:0:0:0:
269,177,314298,1,0,0:0:0:0:
269,177,314381,1,8,0:0:0:0:
269,177,314464,1,8,0:0:0:0:
269,177,314548,1,0,0:0:0:0:
265,183,314631,1,0,0:0:0:0:
265,183,314714,1,8,0:0:0:0:
269,177,314881,1,4,0:0:0:0:
261,168,315048,1,0,0:0:0:0:
261,168,315131,1,0,0:0:0:0:
261,168,315214,1,8,0:0:0:0:
261,168,315298,1,8,0:0:0:0:
269,177,315464,1,8,0:0:0:0:
261,180,315548,1,0,0:0:0:0:
262,176,315631,1,8,0:0:0:0:
262,176,315714,1,0,0:0:0:0:
262,176,315798,1,0,0:0:0:0:
262,176,315881,1,8,0:0:0:0:
262,176,316048,1,8,0:0:0:0:
262,176,316131,1,8,0:0:0:0:
262,176,316214,1,0,0:0:0:0:
258,171,316548,1,8,0:0:0:0:
258,171,316714,1,0,0:0:0:0:
258,171,316798,1,0,0:0:0:0:
258,171,316964,1,8,0:0:0:0:
258,171,317048,1,0,0:0:0:0:
258,171,317131,1,0,0:0:0:0:
258,171,317214,1,8,0:0:0:0:
258,171,317548,1,4,0:0:0:0:
259,164,317881,1,8,0:0:0:0:
259,164,318048,1,4,0:0:0:0:
259,164,318381,1,8,0:0:0:0:
259,164,318548,1,8,0:0:0:0:
259,164,318881,1,8,0:0:0:0:
259,164,318964,1,0,0:0:0:0:
259,164,319048,1,0,0:0:0:0:
259,164,319131,1,8,0:0:0:0:
259,164,319214,1,0,0:0:0:0:
259,164,319298,1,0,0:0:0:0:
259,164,319381,1,8,0:0:0:0:
259,164,319464,1,0,0:0:0:0:
259,164,319548,1,0,0:0:0:0:
259,164,319631,1,8,0:0:0:0:
259,164,319714,1,0,0:0:0:0:
259,164,319798,1,0,0:0:0:0:
259,164,319881,1,8,0:0:0:0:
259,164,320214,1,4,0:0:0:0:
291,174,320881,1,4,0:0:0:0:
272,175,321548,1,4,0:0:0:0:
272,175,322214,1,4,0:0:0:0:
272,175,322548,1,12,0:0:0:0:
256,188,322881,1,0,0:0:0:0:
283,162,323048,1,0,0:0:0:0:
283,162,323131,1,0,0:0:0:0:
261,171,323214,1,8,0:0:0:0:
261,171,323298,1,8,0:0:0:0:
270,181,323464,1,0,0:0:0:0:
274,172,323548,1,8,0:0:0:0:
266,161,323631,1,8,0:0:0:0:
273,155,323714,1,0,0:0:0:0:
304,172,323798,1,0,0:0:0:0:
294,150,323881,1,8,0:0:0:0:
284,168,324048,1,0,0:0:0:0:
266,161,324131,1,8,0:0:0:0:
266,161,324214,1,0,0:0:0:0:
261,171,324548,1,8,0:0:0:0:
267,168,324714,1,0,0:0:0:0:
311,220,324798,1,8,0:0:0:0:
267,168,324881,1,8,0:0:0:0:
261,176,324964,1,0,0:0:0:0:
261,176,325048,1,0,0:0:0:0:
300,165,325131,1,8,0:0:0:0:
300,165,325214,1,8,0:0:0:0:
300,165,325298,1,0,0:0:0:0:
300,165,325381,1,8,0:0:0:0:
261,164,325548,1,0,0:0:0:0:
261,164,325714,1,0,0:0:0:0:
261,164,325798,1,0,0:0:0:0:
261,164,325881,1,8,0:0:0:0:
261,164,325964,1,8,0:0:0:0:
267,151,326131,1,0,0:0:0:0:
261,164,326214,1,8,0:0:0:0:
261,164,326298,1,8,0:0:0:0:
261,164,326381,1,0,0:0:0:0:
247,174,326464,1,0,0:0:0:0:
261,164,326548,1,8,0:0:0:0:
262,170,326714,1,0,0:0:0:0:
262,170,326798,1,8,0:0:0:0:
262,170,326881,1,0,0:0:0:0:
269,177,327214,1,8,0:0:0:0:
244,169,327298,1,0,0:0:0:0:
269,177,327464,1,0,0:0:0:0:
249,122,327548,1,8,0:0:0:0:
269,177,327631,1,8,0:0:0:0:
244,169,327714,1,0,0:0:0:0:
269,177,327881,1,8,0:0:0:0:
269,177,328214,1,4,0:0:0:0:
261,172,328548,1,8,0:0:0:0:
252,176,328714,1,4,0:0:0:0:
254,175,329048,1,8,0:0:0:0:
254,175,329214,1,8,0:0:0:0:
254,175,329548,1,8,0:0:0:0:
252,176,329631,1,8,0:0:0:0:
252,176,329714,1,0,0:0:0:0:
254,175,329798,1,8,0:0:0:0:
254,175,329881,1,0,0:0:0:0:
254,175,329964,1,0,0:0:0:0:
254,175,330048,1,8,0:0:0:0:
254,175,330131,1,8,0:0:0:0:
254,175,330214,1,0,0:0:0:0:
254,175,330298,1,8,0:0:0:0:
254,175,330381,1,0,0:0:0:0:
254,175,330464,1,0,0:0:0:0:
254,175,330548,1,8,0:0:0:0:
254,175,330881,1,4,0:0:0:0:
283,162,331048,1,0,0:0:0:0:
283,162,331131,1,0,0:0:0:0:
261,171,331214,1,8,0:0:0:0:
261,171,331298,1,8,0:0:0:0:
283,162,331464,1,0,0:0:0:0:
274,172,331548,1,8,0:0:0:0:
266,161,331631,1,8,0:0:0:0:
273,155,331714,1,0,0:0:0:0:
304,172,331798,1,0,0:0:0:0:
294,150,331881,1,8,0:0:0:0:
284,168,332048,1,8,0:0:0:0:
266,161,332131,1,8,0:0:0:0:
266,161,332214,1,0,0:0:0:0:
261,171,332548,1,8,0:0:0:0:
267,168,332631,1,0,0:0:0:0:
274,180,332798,1,0,0:0:0:0:
267,166,332881,1,8,0:0:0:0:
298,145,332964,1,8,0:0:0:0:
298,145,333048,1,0,0:0:0:0:
298,145,333214,1,8,0:0:0:0:
261,164,333548,1,0,0:0:0:0:
261,164,333714,1,0,0:0:0:0:
261,164,333798,1,0,0:0:0:0:
261,164,333881,1,8,0:0:0:0:
261,164,333964,1,8,0:0:0:0:
274,165,334131,1,0,0:0:0:0:
261,164,334214,1,8,0:0:0:0:
261,164,334298,1,8,0:0:0:0:
261,164,334381,1,0,0:0:0:0:
247,174,334464,1,0,0:0:0:0:
261,164,334548,1,8,0:0:0:0:
262,170,334714,1,8,0:0:0:0:
262,170,334798,1,8,0:0:0:0:
262,170,334881,1,0,0:0:0:0:
269,177,335214,1,8,0:0:0:0:
244,169,335381,1,0,0:0:0:0:
269,177,335464,1,0,0:0:0:0:
291,130,335548,1,8,0:0:0:0:
269,177,335631,1,8,0:0:0:0:
269,177,335714,1,0,0:0:0:0:
269,177,335798,1,8,0:0:0:0:
269,177,335881,1,0,0:0:0:0:
265,183,335964,1,0,0:0:0:0:
265,183,336048,1,8,0:0:0:0:
269,177,336214,1,4,0:0:0:0:
261,168,336381,1,0,0:0:0:0:
261,168,336464,1,0,0:0:0:0:
261,168,336548,1,8,0:0:0:0:
261,168,336631,1,8,0:0:0:0:
256,154,336798,1,0,0:0:0:0:
261,180,336881,1,8,0:0:0:0:
262,176,336964,1,8,0:0:0:0:
262,176,337048,1,0,0:0:0:0:
262,176,337131,1,0,0:0:0:0:
262,176,337214,1,8,0:0:0:0:
262,176,337381,1,8,0:0:0:0:
262,176,337464,1,8,0:0:0:0:
262,176,337548,1,0,0:0:0:0:
258,171,337881,1,8,0:0:0:0:
258,171,337964,1,0,0:0:0:0:
258,171,338131,1,0,0:0:0:0:
255,143,338214,1,8,0:0:0:0:
258,171,338298,1,8,0:0:0:0:
258,171,338381,1,0,0:0:0:0:
258,171,338548,1,8,0:0:0:0:
258,171,338881,1,4,0:0:0:0:
259,164,339214,1,8,0:0:0:0:
259,164,339381,1,4,0:0:0:0:
259,164,339714,1,8,0:0:0:0:
259,164,339881,1,8,0:0:0:0:
259,164,340214,1,8,0:0:0:0:
259,164,340298,1,0,0:0:0:0:
259,164,340381,5,8,0:0:0:0:
259,164,340464,1,8,0:0:0:0:
259,164,340548,1,0,0:0:0:0:
259,164,340631,1,0,0:0:0:0:
259,164,340714,1,8,0:0:0:0:
259,164,340798,1,0,0:0:0:0:
259,164,340881,1,8,0:0:0:0:
259,164,340964,1,8,0:0:0:0:
259,164,341048,1,0,0:0:0:0:
259,164,341131,1,0,0:0:0:0:
259,164,341214,1,8,0:0:0:0:
262,188,341548,5,4,0:0:0:0:
266,179,341881,1,8,0:0:0:0:
266,179,342048,1,0,0:0:0:0:
266,179,342214,1,0,0:0:0:0:
266,179,342298,1,0,0:0:0:0:
266,179,342381,1,8,0:0:0:0:
255,172,342548,1,0,0:0:0:0:
255,172,342631,1,8,0:0:0:0:
255,172,342798,1,8,0:0:0:0:
255,172,342881,1,0,0:0:0:0:
255,172,343048,1,8,0:0:0:0:
255,172,343131,1,8,0:0:0:0:
255,172,343214,1,0,0:0:0:0:
255,172,343381,1,8,0:0:0:0:
255,172,343548,1,0,0:0:0:0:
255,172,343631,1,8,0:0:0:0:
255,172,343714,1,8,0:0:0:0:
255,172,343881,1,0,0:0:0:0:
255,172,343964,1,0,0:0:0:0:
255,172,344048,1,8,0:0:0:0:
261,168,344214,1,0,0:0:0:0:
221,158,344298,1,0,0:0:0:0:
261,168,344381,1,8,0:0:0:0:
261,168,344464,1,0,0:0:0:0:
261,168,344548,1,8,0:0:0:0:
261,168,344631,1,8,0:0:0:0:
261,168,344714,1,0,0:0:0:0:
261,168,344798,1,8,0:0:0:0:
261,168,344964,1,0,0:0:0:0:
261,168,345048,1,8,0:0:0:0:
261,168,345131,1,8,0:0:0:0:
261,168,345214,1,0,0:0:0:0:
261,168,345381,1,8,0:0:0:0:
264,187,345464,1,8,0:0:0:0:
256,171,345548,1,0,0:0:0:0:
261,173,345631,1,8,0:0:0:0:
261,173,345714,1,0,0:0:0:0:
261,173,345881,1,8,0:0:0:0:
257,174,346048,1,0,0:0:0:0:
257,174,346131,1,0,0:0:0:0:
257,174,346214,1,8,0:0:0:0:
257,174,346298,1,8,0:0:0:0:
257,174,346381,1,0,0:0:0:0:
306,171,346548,1,0,0:0:0:0:
258,181,346603,1,0,0:0:0:0:
258,181,346659,1,0,0:0:0:0:
258,181,346714,1,8,0:0:0:0:
228,145,346770,1,8,0:0:0:0:
228,145,346826,1,8,0:0:0:0:
258,181,346881,1,0,0:0:0:0:
256,180,347048,1,8,0:0:0:0:
256,180,347214,1,0,0:0:0:0:
256,180,347298,1,8,0:0:0:0:
261,176,347464,1,8,0:0:0:0:
261,176,347548,1,0,0:0:0:0:
261,176,347631,1,0,0:0:0:0:
261,176,347714,1,8,0:0:0:0:
261,176,347798,1,0,0:0:0:0:
261,176,347964,1,8,0:0:0:0:
259,183,348131,1,8,0:0:0:0:
259,183,348214,1,0,0:0:0:0:
259,183,348381,1,8,0:0:0:0:
259,170,348464,1,8,0:0:0:0:
259,170,348548,1,0,0:0:0:0:
259,170,348714,1,8,0:0:0:0:
259,170,348881,1,0,0:0:0:0:
259,170,348964,1,0,0:0:0:0:
259,170,349048,1,8,0:0:0:0:
259,170,349214,1,0,0:0:0:0:
259,170,349270,1,8,0:0:0:0:
239,192,349326,1,8,0:0:0:0:
239,192,349381,1,0,0:0:0:0:
243,182,349548,1,0,0:0:0:0:
256,151,349631,1,8,0:0:0:0:
259,164,349798,1,0,0:0:0:0:
259,164,349881,1,8,0:0:0:0:
272,163,349964,1,8,0:0:0:0:
272,163,350048,1,0,0:0:0:0:
272,163,350131,1,8,0:0:0:0:
272,163,350298,1,0,0:0:0:0:
272,163,350381,1,8,0:0:0:0:
262,169,350548,1,8,0:0:0:0:
282,161,350631,1,8,0:0:0:0:
276,178,350714,1,8,0:0:0:0:
276,178,350798,1,8,0:0:0:0:
276,178,350881,1,0,0:0:0:0:
276,178,351048,1,8,0:0:0:0:
272,163,351131,1,8,0:0:0:0:
257,192,351214,1,0,0:0:0:0:
282,168,351270,1,0,0:0:0:0:
282,168,351326,1,0,0:0:0:0:
282,168,351381,1,8,0:0:0:0:
299,117,351548,1,8,0:0:0:0:
241,170,351631,1,0,0:0:0:0:
289,190,351714,1,8,0:0:0:0:
256,176,351770,1,0,0:0:0:0:
256,176,351826,1,0,0:0:0:0:
256,176,351881,1,8,0:0:0:0:
292,158,352048,1,8,0:0:0:0:
292,158,352103,1,8,0:0:0:0:
292,158,352159,1,8,0:0:0:0:
292,158,352214,1,0,0:0:0:0:
296,161,352548,1,8,0:0:0:0:
304,194,352714,1,0,0:0:0:0:
286,173,352881,1,0,0:0:0:0:
300,172,352964,1,0,0:0:0:0:
300,172,353048,1,8,0:0:0:0:
271,174,353214,1,0,0:0:0:0:
271,174,353298,1,8,0:0:0:0:
271,174,353464,1,8,0:0:0:0:
271,174,353548,1,0,0:0:0:0:
271,174,353631,1,0,0:0:0:0:
271,174,353714,1,8,0:0:0:0:
271,174,353798,1,8,0:0:0:0:
271,174,353881,1,0,0:0:0:0:
271,174,354048,1,8,0:0:0:0:
261,178,354214,1,0,0:0:0:0:
261,178,354298,1,0,0:0:0:0:
261,178,354381,1,8,0:0:0:0:
258,186,354548,1,8,0:0:0:0:
258,186,354631,1,8,0:0:0:0:
258,186,354714,1,0,0:0:0:0:
254,168,354881,1,0,0:0:0:0:
294,158,354964,1,8,0:0:0:0:
254,168,355048,1,0,0:0:0:0:
254,168,355131,1,0,0:0:0:0:
254,168,355214,1,8,0:0:0:0:
254,168,355298,1,8,0:0:0:0:
254,168,355381,1,0,0:0:0:0:
254,168,355464,1,8,0:0:0:0:
281,151,355631,1,8,0:0:0:0:
251,168,355714,1,0,0:0:0:0:
266,165,355798,1,0,0:0:0:0:
266,165,355881,1,8,0:0:0:0:
281,151,356048,1,0,0:0:0:0:
281,151,356131,1,8,0:0:0:0:
281,151,356214,1,0,0:0:0:0:
281,151,356298,1,8,0:0:0:0:
281,151,356381,1,8,0:0:0:0:
276,169,356548,1,0,0:0:0:0:
276,169,356714,1,8,0:0:0:0:
276,169,356798,1,0,0:0:0:0:
276,169,356881,1,8,0:0:0:0:
276,169,356964,1,8,0:0:0:0:
276,169,357048,1,0,0:0:0:0:
274,175,357214,1,0,0:0:0:0:
264,143,357270,1,0,0:0:0:0:
264,142,357326,1,0,0:0:0:0:
264,143,357381,1,8,0:0:0:0:
264,142,357437,1,8,0:0:0:0:
264,142,357492,1,8,0:0:0:0:
264,142,357548,1,0,0:0:0:0:
266,133,357714,1,8,0:0:0:0:
266,133,357881,1,8,0:0:0:0:
266,133,357964,1,0,0:0:0:0:
281,187,358131,1,8,0:0:0:0:
281,187,358214,1,0,0:0:0:0:
281,187,358298,1,0,0:0:0:0:
281,187,358381,1,8,0:0:0:0:
281,187,358464,1,0,0:0:0:0:
281,187,358631,1,8,0:0:0:0:
281,187,358798,1,8,0:0:0:0:
281,187,358881,1,0,0:0:0:0:
261,170,358964,1,0,0:0:0:0:
229,152,359048,1,8,0:0:0:0:
252,142,359089,1,8,0:0:0:0:
271,164,359214,1,8,0:0:0:0:
229,152,359256,1,8,0:0:0:0:
279,160,359381,1,0,0:0:0:0:
279,160,359423,1,0,0:0:0:0:
286,160,359548,1,8,0:0:0:0:
286,160,359631,1,8,0:0:0:0:
286,160,359714,1,0,0:0:0:0:
282,174,359881,1,8,0:0:0:0:
282,174,359937,1,8,0:0:0:0:
282,174,359992,1,8,0:0:0:0:
282,174,360048,1,0,0:0:0:0:
289,173,360214,1,8,0:0:0:0:
268,180,360298,1,0,0:0:0:0:
286,183,360464,1,0,0:0:0:0:
286,183,360548,1,8,0:0:0:0:
286,183,360631,1,0,0:0:0:0:
286,183,360714,1,0,0:0:0:0:
286,183,360798,1,8,0:0:0:0:
286,183,360964,1,0,0:0:0:0:
286,183,361048,1,8,0:0:0:0:
286,186,361214,1,8,0:0:0:0:
286,186,361298,1,8,0:0:0:0:
286,183,361381,1,8,0:0:0:0:
286,183,361464,1,8,0:0:0:0:
286,183,361548,1,0,0:0:0:0:
220,211,361714,1,8,0:0:0:0:
271,177,361798,1,8,0:0:0:0:
271,177,361881,1,0,0:0:0:0:
316,147,361937,1,0,0:0:0:0:
306,147,361992,1,0,0:0:0:0:
306,147,362048,1,8,0:0:0:0:
262,178,362214,1,8,0:0:0:0:
266,175,362298,1,8,0:0:0:0:
266,175,362381,1,0,0:0:0:0:
266,156,362548,1,12,0:0:0:0:
