osu file format v14

[General]
AudioFilename: audio.mp3
AudioLeadIn: 0
PreviewTime: -1
Countdown: 1
SampleSet: None
StackLeniency: 0.7
Mode: 0
LetterboxInBreaks: 0
WidescreenStoryboard: 0

[Editor]
DistanceSpacing: 0.7
BeatDivisor: 4
GridSize: 8
TimelineZoom: 1

[Metadata]
Title:Tracer Vs Scout Rap Battle
TitleUnicode:Tracer Vs Scout Rap Battle
Artist:J.T. Machinima
ArtistUnicode:J.T. Machinima
Creator:[ - Mccree - ]
Version:PUT THE TOYS DOWN
Source:
Tags:tf2, overwatch
BeatmapID:1135454
BeatmapSetID:536124

[Difficulty]
HPDrainRate:5
CircleSize:5
OverallDifficulty:5
ApproachRate:5
SliderMultiplier:1.8
SliderTickRate:2

[Events]
//Background and Video events
0,0,"847667.jpg",0,0
//Break Periods
2,11360,17138
2,54335,58733
2,77893,81279
//Storyboard Layer 0 (Background)
//Storyboard Layer 1 (Fail)
//Storyboard Layer 2 (Pass)
//Storyboard Layer 3 (Foreground)
//Storyboard Sound Samples

[TimingPoints]
117.56866841349,368.098159509202,4,1,0,100,1,0

[HitObjects]
416,96,669,5,0,0:0:0:0:
184,120,1037,1,0,0:0:0:0:
408,224,1405,1,0,0:0:0:0:
352,240,1774,1,0,0:0:0:0:
200,144,2142,1,0,0:0:0:0:
352,216,2510,1,0,0:0:0:0:
136,240,2878,1,0,0:0:0:0:
352,288,3246,1,0,0:0:0:0:
272,88,3614,1,0,0:0:0:0:
136,224,3982,1,0,0:0:0:0:
336,288,4350,1,0,0:0:0:0:
336,288,5178,5,0,0:0:0:0:
64,88,5915,1,0,0:0:0:0:
280,112,6283,1,0,0:0:0:0:
168,264,6651,1,0,0:0:0:0:
448,272,7479,1,0,0:0:0:0:
360,120,7847,1,0,0:0:0:0:
112,240,8215,1,0,0:0:0:0:
208,232,8951,5,0,0:0:0:0:
416,176,9320,1,0,0:0:0:0:
256,280,9688,1,0,0:0:0:0:
128,112,10424,1,0,0:0:0:0:
344,168,10792,1,0,0:0:0:0:
304,280,11160,1,0,0:0:0:0:
256,192,18338,12,0,22387,0:0:0:0:
464,152,24135,5,0,0:0:0:0:
352,120,24320,1,0,0:0:0:0:
392,208,24596,1,0,0:0:0:0:
256,192,24780,1,0,0:0:0:0:
376,280,24872,1,0,0:0:0:0:
168,112,25056,1,0,0:0:0:0:
320,144,25516,5,0,0:0:0:0:
208,256,25884,1,0,0:0:0:0:
432,320,26252,1,0,0:0:0:0:
384,80,26620,1,0,0:0:0:0:
176,64,26804,1,0,0:0:0:0:
384,224,26988,1,0,0:0:0:0:
112,256,27172,1,0,0:0:0:0:
88,96,27724,2,0,L|336:288,1,270
432,136,28461,1,0,0:0:0:0:
80,200,28829,1,0,0:0:0:0:
456,336,29197,1,0,0:0:0:0:
368,112,29565,1,0,0:0:0:0:
464,128,29933,5,0,0:0:0:0:
352,168,30117,1,0,0:0:0:0:
416,240,30301,1,0,0:0:0:0:
224,112,30669,1,0,0:0:0:0:
280,240,30945,1,0,0:0:0:0:
96,272,31129,1,0,0:0:0:0:
40,128,31497,2,0,L|184:256,1,180
248,152,32234,1,0,0:0:0:0:
280,224,32418,1,0,0:0:0:0:
408,216,32602,1,0,0:0:0:0:
440,224,32970,1,0,0:0:0:0:
440,224,33338,5,0,0:0:0:0:
352,80,33706,1,0,0:0:0:0:
352,232,33890,1,0,0:0:0:0:
208,112,34074,1,0,0:0:0:0:
136,200,34442,1,0,0:0:0:0:
256,128,34810,1,0,0:0:0:0:
208,232,35270,1,0,0:0:0:0:
384,272,35454,1,0,0:0:0:0:
272,232,35823,1,0,0:0:0:0:
152,152,36283,5,0,0:0:0:0:
392,184,36651,1,0,0:0:0:0:
440,288,37019,1,0,0:0:0:0:
344,48,37479,1,0,0:0:0:0:
320,216,37663,1,0,0:0:0:0:
184,112,37847,1,0,0:0:0:0:
168,248,38215,1,0,0:0:0:0:
400,288,38399,1,0,0:0:0:0:
368,104,38583,1,0,0:0:0:0:
368,104,38951,5,0,0:0:0:0:
184,104,39135,1,0,0:0:0:0:
376,208,39320,1,0,0:0:0:0:
216,232,39504,1,0,0:0:0:0:
368,288,39688,1,0,0:0:0:0:
208,88,40148,2,0,L|464:320,1,315
112,192,41160,1,0,0:0:0:0:
400,240,41528,1,0,0:0:0:0:
440,176,42172,1,0,0:0:0:0:
248,144,42356,1,0,0:0:0:0:
400,256,42724,1,0,0:0:0:0:
400,256,42908,1,0,0:0:0:0:
352,128,43093,1,0,0:0:0:0:
352,128,43461,5,0,0:0:0:0:
192,128,43645,1,0,0:0:0:0:
312,216,43829,1,0,0:0:0:0:
168,216,44013,1,0,0:0:0:0:
352,304,44289,1,0,0:0:0:0:
368,104,44565,1,0,0:0:0:0:
368,104,44933,5,0,0:0:0:0:
96,176,45301,1,0,0:0:0:0:
448,272,45669,1,0,0:0:0:0:
168,288,46129,1,0,0:0:0:0:
200,112,46497,5,0,0:0:0:0:
416,160,46681,1,0,0:0:0:0:
192,216,46866,1,0,0:0:0:0:
368,296,47050,1,0,0:0:0:0:
280,112,47234,1,0,0:0:0:0:
168,272,47602,1,0,0:0:0:0:
112,96,47970,2,0,L|200:272,1,180
248,128,48706,1,0,0:0:0:0:
392,224,49074,1,0,0:0:0:0:
392,224,49442,5,0,0:0:0:0:
352,96,49626,1,0,0:0:0:0:
152,208,49810,1,0,0:0:0:0:
384,304,50270,1,0,0:0:0:0:
48,112,50639,1,0,0:0:0:0:
112,80,50915,2,0,L|184:256,1,180
280,128,51927,1,0,0:0:0:0:
328,248,52111,1,0,0:0:0:0:
384,256,52479,5,0,0:0:0:0:
320,64,52663,1,0,0:0:0:0:
96,216,52847,1,0,0:0:0:0:
88,80,53215,2,0,L|272:256,2,225
312,120,59933,5,0,0:0:0:0:
120,184,60301,1,0,0:0:0:0:
360,288,60669,1,0,0:0:0:0:
376,88,61129,1,0,0:0:0:0:
208,128,61405,1,0,0:0:0:0:
344,256,61774,1,0,0:0:0:0:
128,264,62234,1,0,0:0:0:0:
344,184,62418,1,0,0:0:0:0:
384,304,62602,1,0,0:0:0:0:
256,192,62970,12,0,65639,0:0:0:0:
160,136,66283,5,0,0:0:0:0:
408,160,66651,1,0,0:0:0:0:
416,264,67111,1,0,0:0:0:0:
336,112,67479,1,0,0:0:0:0:
336,112,67663,1,0,0:0:0:0:
120,128,68307,1,0,0:0:0:0:
352,216,68675,1,0,0:0:0:0:
192,256,68951,1,0,0:0:0:0:
368,296,69412,5,0,0:0:0:0:
344,8,69780,1,0,0:0:0:0:
128,128,70056,1,0,0:0:0:0:
392,256,70424,1,0,0:0:0:0:
112,304,70884,1,0,0:0:0:0:
360,120,71252,1,0,0:0:0:0:
440,336,71436,1,0,0:0:0:0:
128,72,71620,1,0,0:0:0:0:
136,80,71988,5,0,0:0:0:0:
376,128,72356,1,0,0:0:0:0:
200,176,72632,1,0,0:0:0:0:
200,176,72816,1,0,0:0:0:0:
336,208,73093,1,0,0:0:0:0:
392,320,73461,1,0,0:0:0:0:
176,304,73829,1,0,0:0:0:0:
120,72,74197,1,0,0:0:0:0:
416,128,74381,1,0,0:0:0:0:
208,256,74657,1,0,0:0:0:0:
208,256,74933,5,0,0:0:0:0:
408,272,75393,1,0,0:0:0:0:
320,112,75761,1,0,0:0:0:0:
176,184,76037,1,0,0:0:0:0:
80,96,76405,2,0,L|352:320,2,315
200,88,82479,5,0,0:0:0:0:
288,120,82847,1,0,0:0:0:0:
224,208,83215,1,0,0:0:0:0:
384,256,83583,1,0,0:0:0:0:
72,48,83951,2,0,L|160:208,2,180
96,128,85056,1,0,0:0:0:0:
392,152,85424,1,0,0:0:0:0:
368,272,85792,1,0,0:0:0:0:
224,96,86252,1,0,0:0:0:0:
224,96,86436,1,0,0:0:0:0:
160,136,86620,1,0,0:0:0:0:
384,240,86988,5,0,0:0:0:0:
352,88,87356,1,0,0:0:0:0:
160,208,87632,1,0,0:0:0:0:
360,288,87908,1,0,0:0:0:0:
208,96,88093,1,0,0:0:0:0:
384,192,88277,1,0,0:0:0:0:
168,248,88461,1,0,0:0:0:0:
392,312,88645,1,0,0:0:0:0:
272,96,88829,1,0,0:0:0:0:
256,232,89013,1,0,0:0:0:0:
96,168,89197,1,0,0:0:0:0:
96,168,89565,5,0,0:0:0:0:
312,112,89933,1,0,0:0:0:0:
384,288,90301,1,0,0:0:0:0:
368,128,90669,1,0,0:0:0:0:
304,248,90853,1,0,0:0:0:0:
208,120,91037,1,0,0:0:0:0:
136,240,91313,1,0,0:0:0:0:
96,128,91497,1,0,0:0:0:0:
384,224,91774,1,0,0:0:0:0:
224,312,92234,1,0,0:0:0:0:
392,328,92418,1,0,0:0:0:0:
160,184,92602,1,0,0:0:0:0:
296,160,92786,1,0,0:0:0:0:
320,208,93338,5,0,0:0:0:0:
104,80,93706,1,0,0:0:0:0:
296,104,94074,1,0,0:0:0:0:
240,280,94534,2,0,L|64:48,1,270
248,16,95547,1,0,0:0:0:0:
392,144,96007,5,0,0:0:0:0:
168,112,96375,1,0,0:0:0:0:
448,240,96651,1,0,0:0:0:0:
192,240,96927,1,0,0:0:0:0:
368,312,97111,1,0,0:0:0:0:
320,80,97479,1,0,0:0:0:0:
128,128,97847,1,0,0:0:0:0:
464,224,98215,1,0,0:0:0:0:
96,224,98399,1,0,0:0:0:0:
360,288,98583,1,0,0:0:0:0:
248,120,98767,1,0,0:0:0:0:
232,208,98951,1,0,0:0:0:0:
232,208,99320,5,0,0:0:0:0:
416,280,99688,1,0,0:0:0:0:
376,104,100056,1,0,0:0:0:0:
152,128,100424,1,0,0:0:0:0:
336,200,100608,1,0,0:0:0:0:
160,216,100792,1,0,0:0:0:0:
328,312,100976,1,0,0:0:0:0:
264,136,101160,1,0,0:0:0:0:
168,256,101620,1,0,0:0:0:0:
144,192,101988,5,0,0:0:0:0:
408,256,102356,1,0,0:0:0:0:
168,88,102724,1,0,0:0:0:0:
424,192,103093,1,0,0:0:0:0:
184,216,103277,1,0,0:0:0:0:
256,192,103645,12,0,106129,0:0:0:0:
176,88,106774,5,0,0:0:0:0:
432,176,107234,1,0,0:0:0:0:
272,240,107602,1,0,0:0:0:0:
400,280,107970,1,0,0:0:0:0:
400,280,108154,1,0,0:0:0:0:
400,280,108338,1,0,0:0:0:0:
400,256,108706,5,0,0:0:0:0:
304,128,109258,1,0,0:0:0:0:
304,128,109442,1,0,0:0:0:0:
136,128,109810,1,0,0:0:0:0:
376,232,110178,1,0,0:0:0:0:
176,240,110823,1,0,0:0:0:0:
176,240,111007,1,0,0:0:0:0:
176,240,111375,5,0,0:0:0:0:
424,280,111651,1,0,0:0:0:0:
360,88,112295,1,0,0:0:0:0:
360,88,112479,1,0,0:0:0:0:
136,136,112847,1,0,0:0:0:0:
368,224,113215,1,0,0:0:0:0:
176,240,113859,1,0,0:0:0:0:
200,240,114412,5,0,0:0:0:0:
